osu file format v14

[General]
AudioFilename: audio.mp3
AudioLeadIn: 0
PreviewTime: 62826
Countdown: 0
SampleSet: Soft
StackLeniency: 0.5
Mode: 0
LetterboxInBreaks: 0
WidescreenStoryboard: 1

[Editor]
DistanceSpacing: 1.2
BeatDivisor: 4
GridSize: 8
TimelineZoom: 1.6

[Metadata]
Title:God Save The Girls (TV Size)
TitleUnicode:God Save The Girls (TV Size)
Artist:Shimoji Shino
ArtistUnicode:下地紫野
Creator:rosario wknd
Version:Hard
Source:ステラのまほう
Tags:magic of stella no mahou anime japanese opening アニメ
BeatmapID:2249594
BeatmapSetID:1050590

[Difficulty]
HPDrainRate:4
CircleSize:3.3
OverallDifficulty:6
ApproachRate:8
SliderMultiplier:1.5
SliderTickRate:1

[Events]
//Background and Video events
0,0,"bg.jpg",0,0
Video,300,"stella no mahou.avi"
//Break Periods
//Storyboard Layer 0 (Background)
//Storyboard Layer 1 (Fail)
//Storyboard Layer 2 (Pass)
//Storyboard Layer 3 (Foreground)
//Storyboard Layer 4 (Overlay)
//Storyboard Sound Samples

[TimingPoints]
806,352.941176470588,4,2,0,50,1,0
806,-125,4,2,0,50,0,0
1688,352.941176470588,4,2,0,50,1,0
1688,-125,4,2,0,50,0,0
10158,-125,4,2,0,60,0,0
11570,-125,4,2,0,50,0,0
12187,-125,4,2,0,60,0,0
12982,-111.111111111111,4,2,0,70,0,0
15805,-111.111111111111,4,2,0,60,0,0
23393,-111.111111111111,4,2,0,50,0,0
24276,-111.111111111111,4,2,0,70,0,0
24805,-111.111111111111,4,2,0,70,0,0
27099,-111.111111111111,4,2,0,50,0,0
38393,-100,4,2,0,60,0,0
49687,-111.111111111111,4,2,0,55,0,0
55335,-100,4,2,0,60,0,0
58158,-100,4,2,0,70,0,0
63805,-90.9090909090909,4,2,0,70,0,1
83570,-90.9090909090909,4,2,0,75,0,1
84982,-111.111111111111,4,2,0,60,0,0
86482,-111.111111111111,4,2,0,5,0,0

[Colours]
Combo1 : 251,203,115
Combo2 : 235,133,227
Combo3 : 140,149,251
Combo4 : 136,228,12

[HitObjects]
403,128,806,5,2,0:0:0:0:
403,128,982,2,0,L|469:133,2,60,2|2|2,0:0|0:0|0:0,0:0:0:0:
320,144,1511,1,2,0:0:0:0:
359,216,1688,6,0,P|429:224|453:335,1,180,2|0,0:0|0:0,0:0:0:0:
289,264,2393,2,0,P|277:194|375:134,1,180,2|0,0:0|0:0,0:0:0:0:
359,216,3099,1,2,0:0:0:0:
359,216,3629,5,2,0:0:0:0:
359,216,3805,2,0,L|362:153,2,60,2|2|2,0:0|0:0|0:0,0:0:0:0:
421,272,4335,1,2,0:0:0:0:
350,314,4511,6,0,B|235:288|292:355|165:317,1,180,2|0,0:0|0:0,0:0:0:0:
41,251,5217,2,0,B|158:286|102:218|216:245,1,180,2|2,0:0|0:0,0:0:0:0:
285,187,5923,6,0,L|272:94,2,90,2|2|2,0:0|0:0|0:0,0:0:0:0:
196,161,6629,1,2,0:0:0:0:
196,161,7335,6,0,L|186:240,2,60,2|2|2,0:0|0:0|0:0,0:0:0:0:
275,124,7864,2,0,P|232:83|173:79,1,120,2|2,0:0|0:0,0:0:0:0:
115,140,8393,5,2,0:0:0:0:
114,140,8570,2,0,P|58:166|-3:146,1,120,2|2,0:0|0:0,0:0:0:0:
52,84,9099,1,2,0:0:0:0:
52,84,9276,1,2,0:0:0:0:
52,84,9982,5,2,0:0:0:0:
52,84,10158,2,0,L|60:223,2,120,0|2|2,0:0|0:0|0:0,0:0:0:0:
145,14,11217,1,2,0:0:0:0:
206,123,11570,6,0,B|276:124|276:124|305:141|305:141|385:141,1,180,2|0,0:0|0:0,0:0:0:0:
380,141,12187,1,0,3:0:0:0:
380,141,12276,1,8,3:0:0:0:
446,75,12452,1,2,0:0:0:0:
469,161,12629,2,0,L|459:241,1,60,10|2,0:0|0:0,0:0:0:0:
477,322,12982,6,0,L|403:308,1,67.4999979400635,12|0,0:0|0:0,0:0:0:0:
410,309,13246,1,0,3:0:0:0:
410,309,13335,1,0,0:0:0:0:
315,284,13511,2,0,P|283:292|156:313,1,134.999995880127,12|0,0:0|3:0,0:0:0:0:
95,260,14040,1,0,3:0:0:0:
161,199,14217,5,0,3:0:0:0:
161,199,14305,1,0,3:0:0:0:
161,199,14393,2,0,L|148:115,2,67.4999979400635,12|0|0,0:0|3:0|3:0,0:0:0:0:
231,100,14923,2,0,P|199:59|100:60,1,134.999995880127,12|8,0:0|3:0,0:0:0:0:
42,149,15452,2,0,L|33:68,1,67.4999979400635,8|0,0:0|0:0,0:0:0:0:
0,226,15805,6,0,P|66:207|142:236,1,134.999995880127,12|8,3:0|0:0,0:0:0:0:
187,299,16335,2,0,P|253:318|326:298,1,134.999995880127,8|8,3:0|3:0,0:0:0:0:
388,253,16864,1,8,0:0:0:0:
473,324,17040,5,10,3:0:0:0:
473,324,17129,1,2,0:0:0:0:
473,324,17217,2,0,P|477:263|491:167,1,134.999995880127,2|8,0:0|0:0,0:0:0:0:
442,123,17746,1,8,3:0:0:0:
380,185,17923,2,0,L|388:261,1,67.4999979400635,0|8,0:0|3:0,0:0:0:0:
437,115,18276,2,0,L|445:45,1,67.4999979400635,8|0,0:0|0:0,0:0:0:0:
357,84,18629,5,8,3:0:0:0:
279,25,18805,1,8,0:0:0:0:
346,88,18982,1,0,0:0:0:0:
279,146,19158,2,0,B|194:126|226:177|118:141,1,134.999995880127,8|8,3:0|3:0,0:0:0:0:
48,117,19687,1,8,0:0:0:0:
99,43,19864,6,0,P|168:28|160:92,1,134.999995880127,12|8,3:0|3:0,0:0:0:0:
48,117,20393,1,8,0:0:0:0:
125,159,20570,2,0,L|134:313,1,134.999995880127,8|8,3:0|3:0,0:0:0:0:
205,362,21099,1,8,0:0:0:0:
299,297,21276,1,0,0:0:0:0:
299,297,21364,1,0,0:0:0:0:
299,297,21452,6,0,B|272:261|268:233|268:233|253:259|202:285,1,134.999995880127,12|8,3:0|0:0,0:0:0:0:
219,167,21982,2,0,P|297:158|345:213,1,134.999995880127,8|8,3:0|3:0,0:0:0:0:
366,300,22511,2,0,L|289:296,1,67.4999979400635,8|10,0:0|3:0,0:0:0:0:
266,307,22776,5,2,0:0:0:0:
266,307,22864,2,0,B|160:301|160:301|127:253,1,134.999995880127,2|8,0:0|0:0,0:0:0:0:
135,189,23393,1,8,3:0:0:0:
135,189,23746,2,0,P|142:222|59:206,1,134.999995880127,12|8,3:0|3:0,0:0:0:0:
109,95,24276,6,0,L|187:89,2,67.4999979400635,8|8|8,0:0|3:0|3:0,0:0:0:0:
230,170,24805,2,0,L|366:182,1,134.999995880127,8|8,0:0|3:0,0:0:0:0:
364,181,25246,1,0,0:0:0:0:
364,181,25335,1,8,3:0:0:0:
460,83,25511,6,0,P|423:45|408:117,1,134.999995880127,12|8,0:0|3:0,0:0:0:0:
464,177,26040,1,8,3:0:0:0:
464,177,26217,2,0,L|452:270,1,67.4999979400635,8|0,0:0|0:0,0:0:0:0:
442,335,26570,1,10,3:0:0:0:
442,335,26658,1,2,0:0:0:0:
442,335,26746,1,10,0:0:0:0:
366,277,26923,1,0,0:0:0:0:
289,335,27099,6,0,P|247:327|129:316,1,134.999995880127,4|8,3:0|3:0,0:0:0:0:
42,247,27629,1,0,0:0:0:0:
42,247,27805,2,0,P|116:242|184:231,1,134.999995880127,2|8,3:2|3:0,0:0:0:0:
280,182,28335,6,0,P|273:211|265:264,1,67.4999979400635,2|0,0:0|3:0,0:0:0:0:
204,142,28687,2,0,P|268:98|337:124,1,134.999995880127,2|2,0:0|0:0,0:0:0:0:
411,102,29217,2,0,L|398:9,2,67.4999979400635,2|2|8,3:2|0:0|3:0,0:0:0:0:
491,188,29746,1,0,0:0:0:0:
491,188,29835,1,0,0:0:0:0:
491,188,29923,6,0,B|403:174|441:221|340:194,1,134.999995880127,0|8,3:0|3:0,0:0:0:0:
310,124,30452,1,0,0:0:0:0:
310,124,30629,2,0,L|297:275,1,134.999995880127,2|8,3:2|3:0,0:0:0:0:
325,348,31158,6,0,P|281:350|236:326,1,67.4999979400635,2|0,0:0|3:0,0:0:0:0:
179,293,31511,2,0,P|131:275|58:338,1,134.999995880127,2|2,0:0|0:0,0:0:0:0:
28,203,32040,2,0,L|121:190,2,67.4999979400635,2|2|8,3:2|0:0|3:0,0:0:0:0:
153,90,32570,1,0,0:0:0:0:
153,90,32658,1,0,0:0:0:0:
153,90,32746,6,0,B|155:134|155:134|176:170|176:170|172:241,1,134.999995880127,0|8,3:0|3:0,0:0:0:0:
235,100,33276,1,0,0:0:0:0:
235,100,33452,2,0,P|221:43|129:13,1,134.999995880127,2|8,3:2|3:0,0:0:0:0:
121,84,33982,1,2,0:0:0:0:
27,48,34158,6,0,P|36:104|44:201,1,134.999995880127,2|8,3:2|3:0,0:0:0:0:
123,288,34687,2,0,P|138:224|149:197,1,67.4999979400635,2|0,0:0|3:0,0:0:0:0:
225,119,35040,2,0,P|230:170|238:199,1,67.4999979400635,2|8,0:0|3:0,0:0:0:0:
320,280,35393,1,2,0:0:0:0:
320,280,35570,6,0,P|273:224|203:250,1,134.999995880127,2|8,3:2|3:0,0:0:0:0:
207,349,36099,1,2,0:0:0:0:
207,349,36276,2,0,B|297:336|251:381|367:356,1,134.999995880127,2|0,3:2|0:0,0:0:0:0:
469,316,36805,5,2,0:0:0:0:
469,316,36893,1,2,0:0:0:0:
469,316,36982,1,10,0:0:0:0:
409,239,37158,1,8,3:0:0:0:
474,166,37335,1,0,0:0:0:0:
409,239,37511,2,0,B|358:224|314:232|314:232|293:203|266:182,1,134.999995880127,8|8,0:0|3:0,0:0:0:0:
344,102,38040,1,8,0:0:0:0:
344,102,38217,1,0,0:0:0:0:
251,59,38393,6,0,L|237:213,1,150,12|10,3:0|0:0,0:0:0:0:
238,292,38923,1,0,0:0:0:0:
238,292,39099,2,0,P|287:278|309:252,1,75,8|8,3:0|3:0,0:0:0:0:
151,279,39452,1,2,0:0:0:0:
151,279,39629,6,0,P|157:329|174:354,1,75,10|0,0:0|0:0,0:0:0:0:
196,205,39982,2,0,L|190:107,1,75,8|0,3:0|0:0,0:0:0:0:
190,43,40335,1,2,0:0:0:0:
190,43,40423,1,0,0:0:0:0:
190,43,40511,1,8,3:0:0:0:
101,100,40687,1,8,3:0:0:0:
190,43,40864,2,0,L|297:49,1,75,10|0,0:0|0:0,0:0:0:0:
364,33,41217,6,0,P|298:62|338:126,1,150,8|10,3:0|0:0,0:0:0:0:
394,165,41746,1,0,0:0:0:0:
394,165,41923,2,0,P|360:200|323:210,1,75,8|8,3:0|3:0,0:0:0:0:
473,122,42276,1,0,0:0:0:0:
473,122,42452,6,0,P|483:169|466:210,1,75,10|0,0:0|0:0,0:0:0:0:
393,81,42805,2,0,L|387:0,1,75,8|8,3:0|0:0,0:0:0:0:
303,82,43158,1,2,0:0:0:0:
303,82,43246,1,0,0:0:0:0:
303,82,43335,1,8,3:0:0:0:
217,32,43511,1,8,3:0:0:0:
303,82,43687,2,0,L|292:174,1,75,10|0,0:0|0:0,0:0:0:0:
355,245,44040,6,0,B|326:242|294:198|294:198|264:235|211:239,1,150,8|10,3:0|0:0,0:0:0:0:
156,281,44570,1,0,0:0:0:0:
70,242,44746,1,8,3:0:0:0:
70,242,44923,2,0,L|59:326,1,75,0|0,0:0|0:0,0:0:0:0:
0,193,45276,1,10,0:0:0:0:
71,154,45452,6,0,B|167:136|128:192|252:156,1,150,2|8,0:0|3:0,0:0:0:0:
303,125,45982,2,0,P|314:80|325:22,1,75,2|0,0:0|0:0,0:0:0:0:
397,136,46335,2,0,P|401:182|406:215,1,75,8|8,3:0|0:0,0:0:0:0:
436,300,46687,1,2,0:0:0:0:
344,278,46864,6,0,P|284:280|279:367,2,150,8|8|8,3:0|0:0|3:0,0:0:0:0:
409,208,47746,1,8,3:0:0:0:
344,278,47923,1,2,0:0:0:0:
324,176,48099,6,0,L|312:8,1,150,14|8,0:0|3:0,0:0:0:0:
212,59,48629,1,8,3:0:0:0:
131,14,48805,1,8,3:0:0:0:
212,59,48982,1,8,3:0:0:0:
123,105,49158,2,0,L|79:98,2,37.5,2|2|2,3:2|3:0|3:2,0:0:0:0:
208,152,49511,1,2,3:2:0:0:
208,152,49599,1,2,3:0:0:0:
208,152,49687,6,0,P|183:206|102:215,1,134.999995880127,12|8,3:0|3:0,0:0:0:0:
7,308,50217,2,0,P|75:296|128:364,1,134.999995880127,8|0,3:0|0:0,0:0:0:0:
208,309,50746,1,10,0:0:0:0:
208,309,51099,6,0,L|300:318,1,67.4999979400635,8|0,3:0|0:0,0:0:0:0:
369,358,51452,1,8,3:0:0:0:
369,358,51629,2,0,B|346:281|402:306|381:209,1,134.999995880127,8|8,3:0|3:0,0:0:0:0:
383,129,52158,1,8,0:0:0:0:
383,129,52511,6,0,L|373:39,2,67.4999979400635,8|0|8,3:0|0:0|3:0,0:0:0:0:
288,82,53040,2,0,P|230:68|225:128,1,134.999995880127,8|0,3:0|0:0,0:0:0:0:
309,174,53570,1,10,0:0:0:0:
309,174,53923,6,0,L|428:187,2,101.249996910095,8|2|8,3:0|0:0|3:0,0:0:0:0:
226,204,54629,1,2,0:0:0:0:
183,125,54805,1,0,0:0:0:0:
183,125,54893,1,0,0:0:0:0:
183,125,54982,1,8,0:0:0:0:
226,204,55158,1,0,0:0:0:0:
105,156,55335,6,0,P|98:111|126:61,1,75,8|0,3:0|0:0,0:0:0:0:
118,235,55687,2,0,P|72:230|33:189,1,75,8|0,3:0|0:0,0:0:0:0:
192,270,56040,2,0,P|165:306|109:318,1,75,8|0,3:0|0:0,0:0:0:0:
218,191,56393,1,8,3:0:0:0:
276,261,56570,1,2,0:0:0:0:
276,261,56746,6,0,L|287:342,1,75,8|0,3:0|0:0,0:0:0:0:
384,172,57099,2,0,L|373:254,1,75,8|0,3:0|0:0,0:0:0:0:
299,173,57452,1,8,3:0:0:0:
339,95,57629,1,0,0:0:0:0:
251,98,57805,2,0,L|164:90,1,75,8|0,3:0|0:0,0:0:0:0:
312,11,58158,5,10,0:0:0:0:
312,11,58335,1,8,3:0:0:0:
403,43,58511,1,10,0:0:0:0:
403,43,58687,1,8,3:0:0:0:
382,141,58864,6,0,P|368:186|384:236,1,75,10|8,0:0|3:0,0:0:0:0:
453,271,59217,2,0,P|460:321|447:356,1,75,10|8,0:0|3:0,0:0:0:0:
364,374,59570,5,10,0:0:0:0:
364,374,59746,1,8,3:0:0:0:
286,314,59923,1,10,0:0:0:0:
286,314,60099,1,8,3:0:0:0:
193,343,60276,6,0,L|92:332,1,75,10|8,0:0|3:0,0:0:0:0:
43,255,60629,2,0,L|140:245,1,75,10|8,0:0|3:0,0:0:0:0:
103,158,60982,6,0,B|171:166|171:166|199:189|199:189|279:197,1,150,10|8,0:0|3:0,0:0:0:0:
323,151,61511,1,8,3:0:0:0:
399,207,61687,1,8,3:0:0:0:
399,207,61864,1,8,3:0:0:0:
382,295,62040,1,8,3:0:0:0:
318,234,62217,6,0,P|274:273|175:251,1,150,8|8,3:0|3:0,0:0:0:0:
115,208,62746,1,8,0:0:0:0:
165,136,62923,5,8,3:0:0:0:
165,136,63011,1,0,0:0:0:0:
165,136,63099,1,8,3:0:0:0:
74,133,63276,1,2,0:0:0:0:
32,212,63452,2,0,L|43:319,1,75,10|2,0:0|0:0,0:0:0:0:
124,238,63805,6,0,B|235:219|168:274|304:244,1,165.000005035401,12|8,3:0|0:0,0:0:0:0:
371,257,64335,1,0,0:0:0:0:
371,257,64423,1,0,0:0:0:0:
371,257,64511,2,0,L|361:346,1,82.5000025177003,8|8,3:0|3:0,0:0:0:0:
284,247,64864,2,0,P|296:204|331:179,1,82.5000025177003,8|2,0:0|0:0,0:0:0:0:
403,124,65217,6,0,L|230:136,1,165.000005035401,10|8,3:0|0:0,0:0:0:0:
175,57,65746,1,8,3:0:0:0:
106,119,65923,2,0,L|115:200,1,82.5000025177003,2|8,0:0|3:0,0:0:0:0:
125,285,66276,1,10,0:0:0:0:
45,252,66452,1,2,0:0:0:0:
108,369,66629,6,0,P|184:347|208:272,1,165.000005035401,8|8,3:0|0:0,0:0:0:0:
147,210,67158,1,0,0:0:0:0:
231,194,67335,2,0,P|271:222|288:268,1,82.5000025177003,8|8,3:0|3:0,0:0:0:0:
298,337,67687,1,8,0:0:0:0:
373,298,67864,1,8,3:0:0:0:
462,351,68040,6,0,L|447:164,2,165.000005035401,2|10|2,0:0|0:0|0:0,0:0:0:0:
360,228,68923,1,8,3:0:0:0:
360,228,69099,2,0,L|370:132,1,82.5000025177003,8|0,0:0|0:0,0:0:0:0:
369,65,69452,6,0,P|303:96|292:118,1,82.5000025177003,8|0,3:0|0:0,0:0:0:0:
225,68,69805,2,0,P|223:133|238:155,1,82.5000025177003,10|8,0:0|3:0,0:0:0:0:
145,178,70158,1,2,0:0:0:0:
63,121,70335,1,10,0:0:0:0:
63,121,70423,1,2,0:0:0:0:
63,121,70511,1,10,0:0:0:0:
145,178,70687,1,2,0:0:0:0:
145,178,70864,6,0,L|135:260,1,82.5000025177003,8|0,3:0|0:0,0:0:0:0:
45,248,71217,2,0,L|56:332,1,82.5000025177003,10|8,0:0|3:0,0:0:0:0:
150,356,71570,1,2,0:0:0:0:
231,309,71746,1,10,0:0:0:0:
231,309,71835,1,2,0:0:0:0:
231,309,71923,1,10,0:0:0:0:
312,340,72099,1,2,0:0:0:0:
312,340,72276,6,0,P|314:286|292:247,1,82.5000025177003,8|0,3:0|0:0,0:0:0:0:
379,230,72629,2,0,P|343:189|300:175,1,82.5000025177003,10|0,0:0|0:0,0:0:0:0:
232,182,72982,2,0,L|242:89,2,82.5000025177003,8|8|10,3:0|3:0|0:0,0:0:0:0:
208,260,73511,6,0,P|278:256|317:175,1,165.000005035401,12|8,3:0|3:0,0:0:0:0:
384,125,74040,1,8,0:0:0:0:
304,82,74217,2,0,L|297:35,2,41.2500012588501,2|0|8,0:0|3:0|3:0,0:0:0:0:
215,129,74570,1,8,3:0:0:0:
131,71,74746,1,10,0:0:0:0:
215,129,74923,1,2,0:0:0:0:
215,129,75011,1,2,0:0:0:0:
215,129,75099,6,0,B|215:244|215:244|173:307,1,165.000005035401,12|8,3:0|0:0,0:0:0:0:
100,352,75629,1,0,0:0:0:0:
100,352,75717,1,0,0:0:0:0:
100,352,75805,2,0,L|91:256,1,82.5000025177003,8|8,3:0|3:0,0:0:0:0:
79,188,76158,2,0,P|33:208|5:250,1,82.5000025177003,8|2,0:0|0:0,0:0:0:0:
161,215,76511,6,0,B|235:209|235:209|270:225|270:225|358:219,1,165.000005035401,10|8,3:0|0:0,0:0:0:0:
396,175,77040,1,8,3:0:0:0:
345,100,77217,2,0,L|255:95,1,82.5000025177003,2|8,0:0|3:0,0:0:0:0:
140,76,77570,1,10,0:0:0:0:
206,24,77746,1,2,0:0:0:0:
190,143,77923,6,0,B|186:245|136:198|137:309,1,165.000005035401,8|8,3:0|0:0,0:0:0:0:
197,367,78452,1,0,0:0:0:0:
233,284,78629,2,0,P|300:258|339:341,1,165.000005035401,8|8,3:0|0:0,0:0:0:0:
437,354,79158,1,10,3:0:0:0:
437,354,79335,6,0,L|425:201,2,123.75000377655,10|10|10,0:0|0:0|0:0,0:0:0:0:
338,323,80040,1,10,0:0:0:0:
254,279,80217,1,8,3:0:0:0:
254,279,80393,2,0,L|241:386,1,82.5000025177003,8|0,0:0|0:0,0:0:0:0:
331,243,80746,6,0,P|304:207|260:195,2,82.5000025177003,12|2|10,3:0|0:0|0:0,0:0:0:0:
185,211,81276,2,0,P|206:137|312:123,1,165.000005035401,8|8,3:0|3:0,0:0:0:0:
269,195,81805,1,10,0:0:0:0:
269,195,81982,6,0,L|249:375,1,165.000005035401,8|8,3:0|3:0,0:0:0:0:
172,284,82511,1,10,0:0:0:0:
172,284,82687,2,0,B|118:308|74:362|74:362|69:283|30:220,1,247.500007553101,8|8,3:0|0:0,0:0:0:0:
119,214,83393,1,0,3:0:0:0:
191,153,83570,6,0,L|182:70,1,82.5000025177003,10|8,0:0|3:0,0:0:0:0:
281,180,83923,2,0,L|272:97,1,82.5000025177003,10|8,0:0|3:0,0:0:0:0:
265,15,84276,1,10,0:0:0:0:
348,62,84452,1,10,3:0:0:0:
348,62,84540,1,2,3:0:0:0:
348,62,84629,1,10,3:0:0:0:
438,21,84805,1,2,3:0:0:0:
438,21,84982,6,0,B|436:152|504:70|505:224,1,202.499993820191,14|0,0:0|3:0,0:0:0:0:
505,295,85687,1,8,3:0:0:0:
505,295,85864,1,8,3:0:0:0:
413,247,86040,1,8,0:0:0:0:
297,316,86393,5,14,0:0:0:0:
256,192,86482,12,0,89217,0:0:0:0:
