osu file format v14

[General]
AudioFilename: audio.mp3
AudioLeadIn: 0
PreviewTime: 62919
Countdown: 0
SampleSet: Soft
StackLeniency: 0.7
Mode: 3
LetterboxInBreaks: 0
SpecialStyle: 0
WidescreenStoryboard: 1

[Editor]
DistanceSpacing: 1.2
BeatDivisor: 6
GridSize: 8
TimelineZoom: 1.7

[Metadata]
Title:God Save The Girls (TV Size)
TitleUnicode:God Save The Girls (TV Size)
Artist:Shimoji Shino
ArtistUnicode:下地紫野
Creator:_Asha
Version:Mahou
Source:ステラのまほう
Tags:pop jpop j-pop op magic of stella no mahou anime japanese opening アニメ Madoka2574 [_Lovega_] Sun kz livetune VTCL-35241
BeatmapID:2304812
BeatmapSetID:1103239

[Difficulty]
HPDrainRate:8
CircleSize:4
OverallDifficulty:8
ApproachRate:5
SliderMultiplier:1.4
SliderTickRate:1

[Events]
//Background and Video events
0,0,"bg.jpg",0,0
Video,250,"stella no mahou.avi"
//Break Periods
//Storyboard Layer 0 (Background)
//Storyboard Layer 1 (Fail)
//Storyboard Layer 2 (Pass)
//Storyboard Layer 3 (Foreground)
//Storyboard Layer 4 (Overlay)
//Storyboard Sound Samples

[TimingPoints]
806,352.941176470588,4,2,1,70,1,0
1684,352.941176470588,4,2,1,70,1,0
63801,-100,4,2,1,70,0,1
84978,-100,4,2,1,70,0,0

[HitObjects]
192,192,806,5,0,0:0:0:0:
320,192,982,1,0,0:0:0:0:
448,192,1158,1,0,0:0:0:0:
64,192,1335,1,0,0:0:0:0:
192,192,1511,1,0,0:0:0:0:
320,192,1684,128,0,3095:0:0:0:0:
448,192,1684,1,0,0:0:0:0:
64,192,2213,1,0,0:0:0:0:
192,192,2301,1,0,0:0:0:0:
448,192,2389,128,0,3095:0:0:0:0:
64,192,3095,128,0,3448:0:0:0:0:
192,192,3095,1,0,0:0:0:0:
320,192,3625,1,0,0:0:0:0:
192,192,3801,1,0,0:0:0:0:
64,192,3978,1,0,0:0:0:0:
448,192,4154,1,0,0:0:0:0:
320,192,4331,1,0,0:0:0:0:
192,192,4507,128,0,5213:0:0:0:0:
64,192,4507,1,0,0:0:0:0:
448,192,5213,128,0,5919:0:0:0:0:
320,192,5213,1,0,0:0:0:0:
320,192,5742,1,0,0:0:0:0:
64,192,5919,128,0,6625:0:0:0:0:
192,192,5919,128,0,6183:0:0:0:0:
320,192,6183,128,0,6448:0:0:0:0:
448,192,6448,128,0,6625:0:0:0:0:
320,192,6625,128,0,7331:0:0:0:0:
192,192,6625,1,0,0:0:0:0:
64,192,6978,128,0,7331:0:0:0:0:
448,192,7331,128,0,8742:0:0:0:0:
192,192,7331,1,0,0:0:0:0:
320,192,7507,1,0,0:0:0:0:
64,192,7683,1,0,0:0:0:0:
192,192,7860,128,0,8213:0:0:0:0:
320,192,8213,1,0,0:0:0:0:
64,192,8389,1,0,0:0:0:0:
192,192,8566,1,0,0:0:0:0:
320,192,8742,1,0,0:0:0:0:
64,192,8742,128,0,9272:0:0:0:0:
448,192,8919,1,0,0:0:0:0:
192,192,9095,1,0,0:0:0:0:
448,192,9272,128,0,10154:0:0:0:0:
320,192,9272,128,0,9625:0:0:0:0:
192,192,9978,1,0,0:0:0:0:
320,192,10154,1,0,0:0:0:0:
64,192,10154,128,0,10860:0:0:0:0:
448,192,10507,128,0,11213:0:0:0:0:
192,192,10860,128,0,11566:0:0:0:0:
320,192,11213,128,0,11566:0:0:0:0:
64,192,11566,128,0,12095:0:0:0:0:
448,192,11566,1,0,0:0:0:0:
320,192,12095,1,2,0:0:0:0:
448,192,12095,1,0,0:0:0:0:
192,192,12183,1,0,0:0:0:40:soft-hitclap.wav
320,192,12228,1,0,0:0:0:40:soft-hitclap.wav
448,192,12272,1,0,0:0:0:40:soft-hitclap.wav
64,192,12448,1,2,0:0:0:0:
192,192,12448,128,0,12536:0:0:0:0:
320,192,12536,128,0,12625:0:0:0:0:
64,192,12625,128,0,12713:0:0:0:50:snare.wav
448,192,12625,1,0,0:0:0:0:
192,192,12713,128,0,12801:0:0:0:0:
448,192,12801,128,0,12889:0:0:0:0:
320,192,12889,128,0,12978:0:0:0:0:
448,192,12978,1,2,0:0:0:0:
64,192,12978,128,4,13154:0:0:0:0:
192,192,12978,128,0,13154:0:0:0:0:
320,192,13154,1,8,0:0:0:0:
192,192,13242,1,8,0:0:0:0:
448,192,13331,1,8,0:0:0:0:
64,192,13331,1,0,0:0:0:0:
320,192,13419,1,8,0:0:0:0:
448,192,13507,1,2,0:0:0:0:
192,192,13507,128,4,13860:0:0:0:0:
64,192,13507,128,0,13860:0:0:0:0:
320,192,13860,128,8,13948:0:0:0:0:
448,192,13860,1,0,0:0:0:0:
192,192,13948,128,8,14036:0:0:0:0:
448,192,14036,128,8,14125:0:0:0:0:
64,192,14036,1,0,0:0:0:0:
320,192,14125,128,0,14213:0:0:0:70:tom01.wav
64,192,14213,128,0,14301:0:0:0:70:tom02.wav
192,192,14301,128,0,14389:0:0:0:70:tom03.wav
64,192,14389,1,4,0:0:0:0:
320,192,14389,128,2,14566:0:0:0:0:
448,192,14389,128,0,14566:0:0:0:0:
192,192,14566,1,2,0:0:0:0:
64,192,14566,1,0,0:0:0:0:
192,192,14742,1,2,0:0:0:0:
320,192,14742,1,0,0:0:0:0:
320,192,14919,128,4,15272:0:0:0:0:
448,192,14919,128,8,15272:0:0:0:0:
64,192,14919,1,0,0:0:0:0:
192,192,15272,128,2,15360:0:0:0:0:
64,192,15272,1,0,0:0:0:0:
320,192,15360,128,2,15448:0:0:0:0:
64,192,15448,128,0,15536:0:0:0:50:snare.wav
448,192,15448,1,0,0:0:0:0:
192,192,15536,128,0,15625:0:0:0:0:
320,192,15625,128,0,15713:0:0:0:0:
448,192,15713,128,0,15801:0:0:0:0:
320,192,15801,1,4,0:0:0:0:
192,192,15801,1,2,0:0:0:0:
64,192,15801,1,0,0:0:0:0:
192,192,15978,1,0,0:0:0:0:
448,192,16154,1,8,0:0:0:0:
320,192,16154,1,0,0:0:0:0:
64,192,16154,1,0,0:0:0:0:
192,192,16331,1,2,0:0:0:0:
448,192,16331,1,0,0:0:0:0:
320,192,16507,1,0,0:0:0:0:
192,192,16683,1,2,0:0:0:0:
64,192,16683,1,0,0:0:0:0:
320,192,16860,1,8,0:0:0:0:
64,192,16860,1,0,0:0:0:0:
448,192,16860,1,0,0:0:0:0:
192,192,17036,1,2,0:0:0:0:
448,192,17036,1,0,0:0:0:0:
320,192,17125,1,0,0:0:0:0:
64,192,17213,1,0,0:0:0:0:
448,192,17389,1,2,0:0:0:0:
320,192,17389,1,0,0:0:0:0:
64,192,17566,1,8,0:0:0:0:
448,192,17566,1,0,0:0:0:0:
192,192,17566,1,0,0:0:0:0:
320,192,17742,1,2,0:0:0:0:
64,192,17742,1,0,0:0:0:0:
448,192,17919,1,0,0:0:0:0:
192,192,18095,1,2,0:0:0:0:
320,192,18095,1,0,0:0:0:0:
192,192,18272,1,8,0:0:0:0:
64,192,18272,1,0,0:0:0:0:
448,192,18272,1,0,0:0:0:0:
320,192,18448,1,0,0:0:0:0:
192,192,18536,1,0,0:0:0:0:
448,192,18625,1,2,0:0:0:0:
64,192,18625,1,0,0:0:0:0:
320,192,18801,1,0,0:0:0:0:
448,192,18978,1,8,0:0:0:0:
192,192,18978,1,0,0:0:0:0:
64,192,18978,1,0,0:0:0:0:
64,192,19154,128,2,19331:0:0:0:0:
320,192,19154,128,0,19331:0:0:0:0:
192,192,19331,1,0,0:0:0:0:
448,192,19507,128,2,19683:0:0:0:0:
64,192,19507,128,0,19683:0:0:0:0:
320,192,19683,1,0,0:0:0:0:
64,192,19860,1,2,0:0:0:0:
192,192,19860,128,4,20213:0:0:0:0:
448,192,19860,128,0,20213:0:0:0:0:
64,192,20213,1,2,0:0:0:0:
320,192,20213,1,0,0:0:0:0:
320,192,20389,1,8,0:0:0:0:
448,192,20389,1,0,0:0:0:0:
192,192,20389,1,0,0:0:0:0:
64,192,20566,128,2,20919:0:0:0:0:
192,192,20566,128,0,20919:0:0:0:0:
320,192,20919,1,2,0:0:0:0:
448,192,20919,1,0,0:0:0:0:
192,192,21007,1,2,0:0:0:0:
320,192,21095,1,0,0:0:0:50:snare.wav
448,192,21095,1,0,0:0:0:0:
64,192,21095,1,0,0:0:0:0:
192,192,21272,1,0,0:0:0:0:
320,192,21360,1,0,0:0:0:0:
64,192,21448,1,4,0:0:0:0:
192,192,21448,1,2,0:0:0:0:
448,192,21448,1,0,0:0:0:0:
448,192,21625,1,0,0:0:0:0:
192,192,21801,1,8,0:0:0:0:
320,192,21801,1,0,0:0:0:0:
64,192,21801,1,0,0:0:0:0:
448,192,21978,1,2,0:0:0:0:
192,192,21978,1,0,0:0:0:0:
320,192,22154,1,0,0:0:0:0:
64,192,22331,1,2,0:0:0:0:
192,192,22331,1,0,0:0:0:0:
448,192,22507,1,8,0:0:0:0:
320,192,22507,1,0,0:0:0:0:
64,192,22507,1,0,0:0:0:0:
192,192,22683,1,2,0:0:0:0:
448,192,22683,1,0,0:0:0:0:
320,192,22772,1,0,0:0:0:0:
64,192,22860,1,0,0:0:0:0:
320,192,23036,1,2,0:0:0:0:
448,192,23036,1,0,0:0:0:0:
192,192,23213,1,8,0:0:0:0:
64,192,23213,1,0,0:0:0:0:
448,192,23213,1,0,0:0:0:0:
192,192,23389,128,2,23566:0:0:0:0:
320,192,23389,128,0,23566:0:0:0:0:
320,192,23742,1,2,0:0:0:0:
64,192,23742,128,4,24272:0:0:0:0:
448,192,23742,128,0,24095:0:0:0:0:
192,192,24095,1,0,0:0:0:70:tom01.wav
320,192,24183,1,0,0:0:0:70:tom02.wav
448,192,24272,1,2,0:0:0:0:
192,192,24272,1,0,0:0:0:0:
64,192,24448,1,0,0:0:0:70:tom02.wav
320,192,24448,1,0,0:0:0:0:
448,192,24625,1,0,0:0:0:70:tom03.wav
64,192,24625,1,0,0:0:0:0:
192,192,24801,1,2,0:0:0:0:
320,192,24801,1,0,0:0:0:0:
448,192,24978,1,0,0:0:0:0:
192,192,25154,1,2,0:0:0:0:
64,192,25154,1,0,0:0:0:0:
320,192,25242,1,8,0:0:0:0:
448,192,25331,1,8,0:0:0:0:
64,192,25331,1,0,0:0:0:0:
192,192,25419,1,8,0:0:0:0:
64,192,25507,1,4,0:0:0:0:
320,192,25507,1,2,0:0:0:0:
448,192,25507,128,0,27095:0:0:0:0:
192,192,25860,1,0,0:0:0:0:
320,192,26036,1,0,0:0:0:0:
64,192,26213,128,0,26566:0:0:0:0:
320,192,26566,1,2,0:0:0:0:
192,192,26654,1,2,0:0:0:0:
64,192,26742,1,8,0:0:0:0:
320,192,26742,1,0,0:0:0:0:
64,192,27095,1,2,0:0:0:0:
192,192,27095,1,4,0:0:0:0:
320,192,27095,1,0,0:0:0:0:
320,192,27448,1,2,0:0:0:0:
448,192,27448,1,0,0:0:0:0:
192,192,27625,1,0,0:0:0:0:
320,192,27801,1,2,0:0:0:0:
64,192,27801,1,0,0:0:0:0:
448,192,27978,1,0,0:0:0:0:
192,192,28154,1,2,0:0:0:0:
64,192,28154,1,0,0:0:0:0:
320,192,28331,1,0,0:0:0:0:
64,192,28507,1,2,0:0:0:0:
192,192,28507,1,0,0:0:0:0:
320,192,28683,1,0,0:0:0:0:
448,192,28860,1,2,0:0:0:0:
64,192,28860,1,0,0:0:0:0:
192,192,29036,1,0,0:0:0:0:
320,192,29213,1,2,0:0:0:0:
448,192,29213,1,0,0:0:0:0:
320,192,29389,1,0,0:0:0:0:
320,192,29566,1,2,0:0:0:0:
64,192,29566,128,0,29919:0:0:0:0:
192,192,29919,1,2,0:0:0:0:
448,192,29919,128,0,30272:0:0:0:0:
64,192,30272,1,2,0:0:0:0:
192,192,30272,1,0,0:0:0:0:
320,192,30448,1,0,0:0:0:0:
448,192,30625,1,2,0:0:0:0:
192,192,30625,1,0,0:0:0:0:
64,192,30801,1,0,0:0:0:0:
320,192,30978,1,2,0:0:0:0:
448,192,30978,1,0,0:0:0:0:
192,192,31154,1,0,0:0:0:0:
448,192,31331,1,2,0:0:0:0:
320,192,31331,1,0,0:0:0:0:
192,192,31507,1,0,0:0:0:0:
64,192,31683,1,2,0:0:0:0:
448,192,31683,1,0,0:0:0:0:
320,192,31860,1,0,0:0:0:0:
64,192,32036,1,2,0:0:0:0:
192,192,32036,1,0,0:0:0:0:
192,192,32213,1,0,0:0:0:0:
192,192,32389,1,2,0:0:0:0:
448,192,32389,128,0,32742:0:0:0:0:
320,192,32566,128,0,32742:0:0:0:0:
192,192,32742,1,2,0:0:0:0:
64,192,32742,128,0,33095:0:0:0:0:
320,192,33095,1,2,0:0:0:0:
448,192,33095,1,0,0:0:0:0:
192,192,33272,1,0,0:0:0:0:
448,192,33448,1,2,0:0:0:0:
64,192,33448,1,0,0:0:0:0:
320,192,33625,1,0,0:0:0:0:
64,192,33801,1,2,0:0:0:0:
192,192,33801,1,0,0:0:0:0:
448,192,33978,1,0,0:0:0:0:
448,192,34154,1,2,0:0:0:0:
192,192,34154,128,0,34507:0:0:0:0:
320,192,34507,1,2,0:0:0:0:
64,192,34507,1,0,0:0:0:0:
192,192,34683,1,0,0:0:0:0:
448,192,34860,1,2,0:0:0:0:
320,192,34860,1,0,0:0:0:0:
64,192,35036,1,0,0:0:0:0:
448,192,35213,1,2,0:0:0:0:
192,192,35213,1,0,0:0:0:0:
320,192,35389,1,0,0:0:0:0:
320,192,35566,1,2,0:0:0:0:
64,192,35566,128,0,35919:0:0:0:0:
448,192,35919,1,2,0:0:0:0:
192,192,35919,1,0,0:0:0:0:
320,192,36095,1,0,0:0:0:0:
64,192,36272,1,2,0:0:0:0:
192,192,36272,1,0,0:0:0:0:
448,192,36448,1,0,0:0:0:0:
320,192,36625,1,2,0:0:0:0:
64,192,36625,1,0,0:0:0:0:
192,192,36801,1,2,0:0:0:0:
320,192,36860,1,0,0:0:0:0:
448,192,36919,1,0,0:0:0:0:
64,192,36978,1,0,0:0:0:0:
192,192,36978,1,0,0:0:0:0:
192,192,37154,1,0,0:0:0:70:tom01.wav
448,192,37154,1,0,0:0:0:0:
64,192,37331,1,0,0:0:0:70:tom02.wav
320,192,37331,1,0,0:0:0:0:
64,192,37507,128,4,37860:0:0:0:0:
192,192,37507,1,2,0:0:0:0:
448,192,37507,128,0,37860:0:0:0:0:
192,192,37860,1,2,0:0:0:0:
320,192,37860,1,0,0:0:0:0:
64,192,38036,1,0,0:0:0:50:snare.wav
320,192,38036,1,0,0:0:0:0:
448,192,38036,1,0,0:0:0:0:
448,192,38389,1,4,0:0:0:0:
192,192,38389,1,2,0:0:0:0:
64,192,38389,1,0,0:0:0:0:
320,192,38742,1,8,0:0:0:0:
448,192,38742,1,0,0:0:0:0:
192,192,38742,1,0,0:0:0:0:
64,192,38919,1,0,0:0:0:0:
320,192,39095,1,8,0:0:0:0:
448,192,39095,128,0,39448:0:0:0:0:
192,192,39095,1,0,0:0:0:0:
64,192,39272,1,2,0:0:0:0:
320,192,39272,1,0,0:0:0:0:
192,192,39448,1,0,0:0:0:0:
320,192,39625,1,8,0:0:0:0:
64,192,39625,1,0,0:0:0:0:
448,192,39625,128,0,39801:0:0:0:0:
192,192,39978,1,2,0:0:0:0:
448,192,39978,128,0,40331:0:0:0:0:
64,192,40154,1,8,0:0:0:0:
320,192,40154,1,0,0:0:0:0:
192,192,40331,1,0,0:0:0:0:
448,192,40507,1,2,0:0:0:0:
320,192,40507,1,0,0:0:0:0:
192,192,40683,1,2,0:0:0:0:
64,192,40683,1,0,0:0:0:0:
448,192,40860,1,8,0:0:0:0:
64,192,40860,1,0,0:0:0:0:
320,192,40860,128,0,41213:0:0:0:0:
192,192,41213,1,2,0:0:0:0:
448,192,41213,1,0,0:0:0:0:
64,192,41566,1,8,0:0:0:0:
320,192,41566,1,0,0:0:0:0:
192,192,41566,1,0,0:0:0:0:
448,192,41742,1,0,0:0:0:0:
192,192,41919,1,8,0:0:0:0:
320,192,41919,1,0,0:0:0:0:
64,192,41919,128,0,42272:0:0:0:0:
448,192,42095,1,2,0:0:0:0:
192,192,42095,1,0,0:0:0:0:
320,192,42272,1,0,0:0:0:0:
192,192,42448,1,8,0:0:0:0:
448,192,42448,1,0,0:0:0:0:
64,192,42448,128,0,42625:0:0:0:0:
320,192,42801,1,2,0:0:0:0:
64,192,42801,128,0,43154:0:0:0:0:
192,192,42978,1,8,0:0:0:0:
448,192,42978,1,0,0:0:0:0:
320,192,43154,1,0,0:0:0:0:
64,192,43331,1,2,0:0:0:0:
192,192,43331,1,0,0:0:0:0:
320,192,43507,1,2,0:0:0:0:
448,192,43507,1,0,0:0:0:0:
448,192,43683,1,8,0:0:0:0:
64,192,43683,1,0,0:0:0:0:
192,192,43683,128,0,44036:0:0:0:0:
64,192,44036,1,2,0:0:0:0:
320,192,44036,1,0,0:0:0:0:
320,192,44389,1,8,0:0:0:0:
64,192,44389,1,0,0:0:0:0:
448,192,44389,128,0,44566:0:0:0:0:
448,192,44742,1,8,0:0:0:0:
64,192,44742,1,0,0:0:0:0:
192,192,44742,128,0,44919:0:0:0:0:
448,192,44919,1,2,0:0:0:0:
320,192,44919,128,0,45095:0:0:0:0:
64,192,45095,1,0,0:0:0:0:
192,192,45272,1,8,0:0:0:0:
448,192,45272,1,0,0:0:0:0:
320,192,45272,1,0,0:0:0:0:
64,192,45448,128,0,45801:0:0:0:0:
320,192,45625,1,2,0:0:0:0:
448,192,45625,1,0,0:0:0:0:
448,192,45801,1,8,0:0:0:0:
192,192,45801,1,0,0:0:0:0:
320,192,45978,128,0,46154:0:0:0:0:
64,192,46154,1,2,0:0:0:0:
192,192,46154,1,0,0:0:0:0:
448,192,46331,1,2,0:0:0:0:
320,192,46331,1,0,0:0:0:0:
64,192,46507,1,8,0:0:0:0:
448,192,46507,1,0,0:0:0:0:
192,192,46507,1,0,0:0:0:0:
192,192,46683,128,0,46860:0:0:0:0:
320,192,46860,1,2,0:0:0:0:
64,192,46860,1,0,0:0:0:0:
448,192,46860,128,0,47566:0:0:0:0:
64,192,47213,1,8,0:0:0:0:
192,192,47213,1,0,0:0:0:0:
320,192,47389,1,0,0:0:0:0:
192,192,47566,1,8,0:0:0:0:
64,192,47566,1,0,0:0:0:0:
448,192,47742,1,2,0:0:0:0:
320,192,47742,1,0,0:0:0:0:
320,192,47919,128,0,48095:0:0:0:0:
192,192,48095,5,8,0:0:0:0:
448,192,48095,1,4,0:0:0:0:
64,192,48095,128,0,48448:0:0:0:0:
320,192,48448,1,2,0:0:0:0:
192,192,48448,1,0,0:0:0:0:
448,192,48625,1,8,0:0:0:0:
320,192,48625,1,0,0:0:0:0:
64,192,48625,1,0,0:0:0:0:
448,192,48801,1,2,0:0:0:0:
192,192,48801,1,0,0:0:0:0:
64,192,48978,1,8,0:0:0:0:
192,192,48978,1,0,0:0:0:0:
320,192,48978,1,0,0:0:0:0:
448,192,49154,5,8,0:0:0:0:
320,192,49154,1,0,0:0:0:0:
192,192,49242,1,8,0:0:0:0:
64,192,49242,1,0,0:0:0:0:
448,192,49331,1,8,0:0:0:0:
320,192,49331,1,0,0:0:0:0:
192,192,49419,1,8,0:0:0:0:
64,192,49419,1,0,0:0:0:0:
448,192,49507,1,8,0:0:0:0:
320,192,49507,1,0,0:0:0:0:
192,192,49595,1,8,0:0:0:0:
448,192,49683,1,4,0:0:0:0:
320,192,49683,1,2,0:0:0:0:
64,192,49683,128,0,50213:0:0:0:0:
320,192,50036,1,2,0:0:0:0:
448,192,50036,1,0,0:0:0:0:
320,192,50213,1,2,0:0:0:0:
448,192,50213,128,0,50742:0:0:0:0:
192,192,50742,1,0,0:0:0:50:snare.wav
64,192,50742,1,0,0:0:0:0:
320,192,50742,1,0,0:0:0:0:
448,192,50919,1,2,0:0:0:0:
192,192,50919,1,0,0:0:0:0:
64,192,51095,1,2,0:0:0:0:
320,192,51095,128,0,51978:0:0:0:0:
448,192,51448,1,2,0:0:0:0:
192,192,51448,1,0,0:0:0:0:
192,192,51625,1,2,0:0:0:0:
448,192,51625,1,0,0:0:0:0:
64,192,51978,1,8,0:0:0:0:
192,192,51978,1,0,0:0:0:0:
320,192,52066,1,8,0:0:0:0:
448,192,52154,1,0,0:0:0:50:snare.wav
64,192,52154,1,0,0:0:0:0:
192,192,52154,1,0,0:0:0:0:
320,192,52331,1,0,0:0:0:70:tom02.wav
192,192,52419,1,0,0:0:0:70:tom03.wav
64,192,52507,1,2,0:0:0:0:
448,192,52507,128,0,53036:0:0:0:0:
320,192,52683,1,0,0:0:0:0:
192,192,52860,1,2,0:0:0:0:
64,192,52860,1,0,0:0:0:0:
192,192,53036,1,2,0:0:0:0:
64,192,53036,128,0,53566:0:0:0:0:
192,192,53566,1,0,0:0:0:50:snare.wav
320,192,53566,1,0,0:0:0:0:
448,192,53566,1,0,0:0:0:0:
448,192,53742,1,2,0:0:0:0:
320,192,53742,1,0,0:0:0:0:
64,192,53919,1,2,0:0:0:0:
192,192,53919,128,0,54183:0:0:0:0:
320,192,54183,1,0,0:0:0:0:
448,192,54272,1,2,0:0:0:0:
64,192,54272,1,0,0:0:0:0:
192,192,54448,1,2,0:0:0:0:
448,192,54448,128,0,54801:0:0:0:0:
320,192,54625,128,0,54801:0:0:0:0:
192,192,54801,1,8,0:0:0:0:
64,192,54801,1,0,0:0:0:0:
448,192,54889,1,8,0:0:0:0:
320,192,54889,1,0,0:0:0:0:
64,192,54978,1,0,0:0:0:50:snare.wav
192,192,54978,1,0,0:0:0:0:
320,192,55066,1,0,0:0:0:0:
64,192,55154,1,0,0:0:0:0:
192,192,55242,1,0,0:0:0:0:
448,192,55331,1,2,0:0:0:0:
320,192,55331,1,0,0:0:0:0:
192,192,55507,1,0,0:0:0:0:
320,192,55507,1,0,0:0:0:0:
448,192,55683,1,2,0:0:0:0:
64,192,55683,1,0,0:0:0:0:
320,192,55860,1,0,0:0:0:0:
192,192,55860,1,0,0:0:0:0:
192,192,56036,1,2,0:0:0:0:
64,192,56036,1,0,0:0:0:0:
448,192,56213,1,0,0:0:0:0:
320,192,56213,1,0,0:0:0:0:
192,192,56389,1,2,0:0:0:0:
64,192,56389,1,0,0:0:0:0:
448,192,56566,1,0,0:0:0:0:
320,192,56566,1,0,0:0:0:0:
192,192,56654,1,0,0:0:0:0:
64,192,56742,1,2,0:0:0:0:
320,192,56742,1,0,0:0:0:0:
448,192,56919,1,0,0:0:0:0:
64,192,56919,1,0,0:0:0:0:
192,192,57095,1,2,0:0:0:0:
320,192,57095,1,0,0:0:0:0:
448,192,57272,1,0,0:0:0:0:
320,192,57448,1,2,0:0:0:0:
64,192,57448,1,0,0:0:0:0:
192,192,57625,1,0,0:0:0:0:
448,192,57801,128,2,57978:0:0:0:0:
320,192,57801,128,0,57978:0:0:0:0:
192,192,58066,1,0,0:0:0:40:soft-hitclap.wav
320,192,58110,1,0,0:0:0:40:soft-hitclap.wav
448,192,58154,1,2,0:0:0:0:
64,192,58154,128,0,58331:0:0:0:0:
192,192,58331,1,2,0:0:0:0:
320,192,58331,1,0,0:0:0:0:
64,192,58507,1,8,0:0:0:0:
192,192,58507,1,0,0:0:0:0:
448,192,58507,128,0,58683:0:0:0:0:
64,192,58683,1,2,0:0:0:0:
320,192,58683,1,0,0:0:0:0:
192,192,58860,1,8,0:0:0:0:
448,192,58860,1,0,0:0:0:0:
320,192,58860,128,0,59036:0:0:0:0:
448,192,59036,1,2,0:0:0:0:
64,192,59036,1,0,0:0:0:0:
320,192,59213,1,8,0:0:0:0:
64,192,59213,1,0,0:0:0:0:
192,192,59213,128,0,59389:0:0:0:0:
448,192,59389,1,2,0:0:0:0:
320,192,59389,1,0,0:0:0:0:
64,192,59566,1,8,0:0:0:0:
192,192,59566,1,0,0:0:0:0:
448,192,59566,128,0,59742:0:0:0:0:
320,192,59742,1,2,0:0:0:0:
192,192,59742,1,0,0:0:0:0:
448,192,59919,1,8,0:0:0:0:
320,192,59919,1,0,0:0:0:0:
64,192,59919,128,0,60095:0:0:0:0:
448,192,60095,1,2,0:0:0:0:
192,192,60095,1,0,0:0:0:0:
64,192,60272,1,8,0:0:0:0:
320,192,60272,1,0,0:0:0:0:
192,192,60272,128,0,60448:0:0:0:0:
448,192,60448,1,2,0:0:0:0:
64,192,60448,1,0,0:0:0:0:
192,192,60625,1,8,0:0:0:0:
448,192,60625,1,0,0:0:0:0:
320,192,60625,128,0,60801:0:0:0:0:
64,192,60801,1,2,0:0:0:0:
192,192,60801,1,0,0:0:0:0:
320,192,60978,1,4,0:0:0:0:
64,192,60978,128,8,62036:0:0:0:0:
448,192,60978,128,0,62036:0:0:0:0:
192,192,61331,1,0,0:0:0:0:
320,192,61507,1,0,0:0:0:70:tom01.wav
192,192,61683,1,0,0:0:0:50:soft-hitclap.wav
320,192,61860,1,0,0:0:0:70:tom02.wav
192,192,62036,1,0,0:0:0:50:soft-hitclap.wav
320,192,62095,1,0,0:0:0:0:
448,192,62213,1,0,0:0:0:70:tom03.wav
64,192,62213,1,0,0:0:0:0:
448,192,62566,1,0,0:0:0:0:
320,192,62566,1,0,0:0:0:0:
64,192,62566,1,0,0:0:0:0:
64,192,62742,1,0,0:0:0:0:
448,192,62742,1,0,0:0:0:0:
320,192,62742,1,0,0:0:0:0:
192,192,62919,1,2,0:0:0:0:
448,192,63007,1,0,0:0:0:40:soft-hitclap.wav
320,192,63051,1,0,0:0:0:40:soft-hitclap.wav
64,192,63095,1,0,0:0:0:70:tom02.wav
192,192,63095,1,0,0:0:0:0:
448,192,63272,1,2,0:0:0:0:
320,192,63272,1,0,0:0:0:0:
448,192,63448,1,0,0:0:0:50:snare.wav
64,192,63448,1,0,0:0:0:0:
192,192,63448,128,0,63801:0:0:0:0:
320,192,63625,1,0,0:0:0:0:
448,192,63801,1,2,0:0:0:0:
64,192,63801,1,4,0:0:0:0:
320,192,63801,128,0,64154:0:0:0:0:
64,192,64154,1,8,0:0:0:0:
192,192,64154,1,0,0:0:0:0:
448,192,64154,1,0,0:0:0:0:
320,192,64331,1,0,0:0:0:0:
192,192,64419,1,0,0:0:0:0:
64,192,64507,1,2,0:0:0:0:
448,192,64507,1,0,0:0:0:0:
448,192,64683,1,2,0:0:0:0:
192,192,64683,1,0,0:0:0:0:
64,192,64860,1,8,0:0:0:0:
192,192,64860,1,0,0:0:0:0:
320,192,64860,1,0,0:0:0:0:
448,192,65036,1,0,0:0:0:0:
64,192,65213,1,2,0:0:0:0:
320,192,65213,128,0,65566:0:0:0:0:
64,192,65566,1,8,0:0:0:0:
192,192,65566,1,0,0:0:0:0:
448,192,65566,1,0,0:0:0:0:
64,192,65742,128,2,66095:0:0:0:0:
320,192,65742,1,0,0:0:0:0:
448,192,65919,128,0,66095:0:0:0:0:
192,192,66095,128,2,66272:0:0:0:0:
320,192,66095,1,0,0:0:0:0:
64,192,66272,1,8,0:0:0:0:
448,192,66272,128,0,66625:0:0:0:0:
320,192,66448,128,0,66625:0:0:0:0:
64,192,66625,1,2,0:0:0:0:
192,192,66625,128,0,66978:0:0:0:0:
64,192,66978,1,8,0:0:0:0:
320,192,66978,1,0,0:0:0:0:
448,192,66978,1,0,0:0:0:0:
192,192,67154,1,0,0:0:0:0:
448,192,67331,1,2,0:0:0:0:
320,192,67331,1,0,0:0:0:0:
64,192,67507,1,2,0:0:0:0:
320,192,67507,1,0,0:0:0:0:
448,192,67683,1,8,0:0:0:0:
64,192,67683,1,0,0:0:0:0:
192,192,67683,1,0,0:0:0:0:
192,192,67860,1,2,0:0:0:0:
320,192,67860,1,0,0:0:0:0:
448,192,68036,128,0,68213:0:0:0:0:
320,192,68213,1,2,0:0:0:0:
64,192,68213,1,0,0:0:0:0:
192,192,68389,1,8,0:0:0:0:
448,192,68389,1,0,0:0:0:0:
64,192,68389,128,0,68566:0:0:0:0:
320,192,68566,1,2,0:0:0:0:
448,192,68566,1,0,0:0:0:0:
64,192,68742,128,0,69095:0:0:0:0:
320,192,68919,1,2,0:0:0:0:
448,192,68919,1,0,0:0:0:0:
192,192,69095,1,8,0:0:0:0:
448,192,69095,1,0,0:0:0:0:
320,192,69272,1,0,0:0:0:0:
64,192,69448,1,2,0:0:0:0:
448,192,69448,128,0,69801:0:0:0:0:
320,192,69801,1,8,0:0:0:0:
192,192,69801,1,0,0:0:0:0:
64,192,69801,128,0,69978:0:0:0:0:
320,192,69978,1,2,0:0:0:0:
448,192,69978,128,0,70154:0:0:0:0:
192,192,70154,128,0,70331:0:0:0:0:
64,192,70331,1,0,0:0:0:0:
448,192,70331,1,0,0:0:0:0:
320,192,70331,1,8,0:0:0:0:
192,192,70419,1,0,0:0:0:0:
64,192,70507,1,0,0:0:0:0:
448,192,70507,1,0,0:0:0:0:
320,192,70507,1,8,0:0:0:0:
192,192,70683,1,0,0:0:0:0:
64,192,70860,128,2,71213:0:0:0:0:
448,192,70860,1,0,0:0:0:0:
192,192,71213,1,8,0:0:0:0:
320,192,71213,1,0,0:0:0:0:
448,192,71213,128,0,71389:0:0:0:0:
192,192,71389,1,2,0:0:0:0:
64,192,71389,128,0,71566:0:0:0:0:
320,192,71566,128,0,71742:0:0:0:0:
448,192,71742,1,0,0:0:0:0:
64,192,71742,1,0,0:0:0:0:
192,192,71742,1,8,0:0:0:0:
320,192,71831,1,0,0:0:0:0:
448,192,71919,1,0,0:0:0:0:
64,192,71919,1,0,0:0:0:0:
192,192,71919,1,8,0:0:0:0:
320,192,72007,1,0,0:0:0:0:
64,192,72095,1,0,0:0:0:0:
192,192,72183,1,0,0:0:0:0:
320,192,72272,1,2,0:0:0:0:
448,192,72272,128,0,72625:0:0:0:0:
320,192,72625,1,8,0:0:0:0:
64,192,72625,1,0,0:0:0:0:
192,192,72625,128,0,72978:0:0:0:0:
448,192,72801,1,0,0:0:0:0:
320,192,72978,1,2,0:0:0:0:
64,192,72978,1,0,0:0:0:0:
192,192,73154,1,2,0:0:0:0:
320,192,73154,1,0,0:0:0:0:
64,192,73331,1,8,0:0:0:0:
192,192,73331,1,0,0:0:0:0:
448,192,73331,1,0,0:0:0:0:
64,192,73507,1,2,0:0:0:0:
448,192,73507,1,4,0:0:0:0:
320,192,73507,128,0,73860:0:0:0:0:
192,192,73860,1,2,0:0:0:0:
448,192,73860,1,0,0:0:0:0:
64,192,74036,1,8,0:0:0:0:
448,192,74036,1,0,0:0:0:0:
320,192,74036,1,0,0:0:0:0:
192,192,74213,1,0,0:0:0:0:
320,192,74301,1,2,0:0:0:0:
192,192,74389,1,8,0:0:0:0:
448,192,74389,1,4,0:0:0:0:
64,192,74389,1,0,0:0:0:0:
64,192,74566,1,2,0:0:0:0:
192,192,74566,1,0,0:0:0:0:
448,192,74742,1,0,0:0:0:50:snare.wav
64,192,74742,1,4,0:0:0:0:
320,192,74742,1,0,0:0:0:0:
320,192,74919,1,0,0:0:0:0:
192,192,75095,1,2,0:0:0:0:
448,192,75095,1,4,0:0:0:0:
64,192,75095,128,0,75448:0:0:0:0:
320,192,75448,1,8,0:0:0:0:
192,192,75448,1,0,0:0:0:0:
448,192,75448,1,0,0:0:0:0:
64,192,75625,1,0,0:0:0:0:
192,192,75713,1,0,0:0:0:0:
448,192,75801,1,2,0:0:0:0:
320,192,75801,1,0,0:0:0:0:
192,192,75978,1,2,0:0:0:0:
448,192,75978,1,0,0:0:0:0:
192,192,76154,1,8,0:0:0:0:
64,192,76154,1,0,0:0:0:0:
320,192,76154,1,0,0:0:0:0:
448,192,76331,1,0,0:0:0:0:
192,192,76507,128,2,76860:0:0:0:0:
320,192,76507,1,0,0:0:0:0:
448,192,76860,1,8,0:0:0:0:
64,192,76860,1,0,0:0:0:0:
320,192,76860,1,0,0:0:0:0:
448,192,77036,128,2,77389:0:0:0:0:
192,192,77036,1,0,0:0:0:0:
64,192,77213,128,0,77389:0:0:0:0:
320,192,77389,128,2,77566:0:0:0:0:
192,192,77389,1,0,0:0:0:0:
64,192,77566,128,8,77919:0:0:0:0:
448,192,77566,1,0,0:0:0:0:
192,192,77742,128,0,77919:0:0:0:0:
448,192,77919,1,2,0:0:0:0:
320,192,77919,128,0,78272:0:0:0:0:
64,192,78272,1,8,0:0:0:0:
192,192,78272,1,0,0:0:0:0:
448,192,78272,1,0,0:0:0:0:
320,192,78448,1,0,0:0:0:0:
192,192,78625,1,2,0:0:0:0:
64,192,78625,1,0,0:0:0:0:
192,192,78801,1,2,0:0:0:0:
448,192,78801,1,0,0:0:0:0:
448,192,78978,1,8,0:0:0:0:
320,192,78978,1,0,0:0:0:0:
64,192,78978,1,0,0:0:0:0:
192,192,79154,1,0,0:0:0:0:
448,192,79331,128,8,79507:0:0:0:0:
320,192,79331,128,0,79507:0:0:0:0:
64,192,79331,1,0,0:0:0:0:
192,192,79595,128,8,79772:0:0:0:0:
64,192,79595,128,0,79772:0:0:0:70:tom01.wav
448,192,79595,1,0,0:0:0:0:
448,192,79860,128,8,80036:0:0:0:0:
64,192,79860,128,0,80036:0:0:0:70:tom02.wav
320,192,79860,1,0,0:0:0:0:
192,192,80036,128,8,80213:0:0:0:0:
320,192,80036,128,0,80213:0:0:0:70:tom03.wav
64,192,80213,1,2,0:0:0:0:
448,192,80213,1,0,0:0:0:0:
320,192,80389,1,0,0:0:0:50:snare.wav
192,192,80389,1,0,0:0:0:0:
64,192,80389,128,0,80742:0:0:0:0:
448,192,80742,1,4,0:0:0:0:
320,192,80742,1,2,0:0:0:0:
192,192,80742,1,0,0:0:0:0:
448,192,80919,1,0,0:0:0:0:
320,192,81095,1,8,0:0:0:0:
64,192,81095,1,0,0:0:0:0:
192,192,81095,1,0,0:0:0:0:
448,192,81272,1,2,0:0:0:0:
192,192,81272,128,0,81625:0:0:0:0:
320,192,81625,1,2,0:0:0:0:
64,192,81625,1,0,0:0:0:0:
192,192,81801,1,8,0:0:0:0:
64,192,81801,1,0,0:0:0:0:
448,192,81801,1,0,0:0:0:0:
320,192,81978,1,2,0:0:0:0:
448,192,81978,128,0,82331:0:0:0:0:
192,192,82331,1,2,0:0:0:0:
64,192,82331,1,0,0:0:0:0:
320,192,82507,1,8,0:0:0:0:
448,192,82507,1,0,0:0:0:0:
192,192,82507,1,0,0:0:0:0:
64,192,82683,128,0,82860:0:0:0:0:
320,192,82860,1,2,0:0:0:0:
448,192,82860,1,0,0:0:0:0:
192,192,83036,1,2,0:0:0:0:
64,192,83036,1,0,0:0:0:0:
320,192,83125,1,0,0:0:0:0:
64,192,83213,1,8,0:0:0:0:
448,192,83213,1,0,0:0:0:0:
192,192,83213,1,0,0:0:0:0:
320,192,83301,1,0,0:0:0:0:
64,192,83389,1,0,0:0:0:0:
192,192,83478,1,0,0:0:0:0:
448,192,83566,1,8,0:0:0:0:
64,192,83566,1,0,0:0:0:0:
320,192,83566,1,0,0:0:0:0:
192,192,83742,1,2,0:0:0:0:
448,192,83742,1,0,0:0:0:0:
64,192,83919,1,8,0:0:0:0:
320,192,83919,1,0,0:0:0:0:
192,192,83919,1,0,0:0:0:0:
448,192,84095,1,2,0:0:0:0:
64,192,84095,1,0,0:0:0:0:
448,192,84272,1,8,0:0:0:0:
320,192,84272,1,0,0:0:0:0:
192,192,84272,1,0,0:0:0:0:
192,192,84448,1,8,0:0:0:0:
64,192,84448,1,0,0:0:0:0:
320,192,84536,1,8,0:0:0:0:
448,192,84536,1,0,0:0:0:0:
192,192,84625,1,8,0:0:0:0:
64,192,84625,1,0,0:0:0:0:
320,192,84713,1,8,0:0:0:0:
448,192,84713,1,0,0:0:0:0:
192,192,84801,1,8,0:0:0:0:
64,192,84801,1,0,0:0:0:0:
320,192,84889,1,8,0:0:0:0:
448,192,84978,1,4,0:0:0:0:
192,192,84978,1,2,0:0:0:0:
64,192,84978,128,0,85507:0:0:0:0:
320,192,85507,1,2,0:0:0:0:
448,192,85507,1,0,0:0:0:0:
192,192,85595,1,0,0:0:0:40:soft-hitclap.wav
320,192,85639,1,0,0:0:0:40:soft-hitclap.wav
64,192,85683,1,0,0:0:0:70:tom02.wav
448,192,85683,1,0,0:0:0:0:
320,192,85860,1,2,0:0:0:0:
192,192,85860,1,0,0:0:0:0:
64,192,86036,1,0,0:0:0:50:snare.wav
192,192,86036,1,0,0:0:0:0:
448,192,86036,1,0,0:0:0:0:
64,192,86389,1,4,0:0:0:0:
448,192,86389,128,2,88683:0:0:0:0:
320,192,86389,128,0,88683:0:0:0:0:
