osu file format v14

[General]
AudioFilename: audio.mp3
AudioLeadIn: 0
PreviewTime: 62919
Countdown: 0
SampleSet: Normal
StackLeniency: 0.7
Mode: 1
LetterboxInBreaks: 0
WidescreenStoryboard: 1

[Editor]
DistanceSpacing: 1.2
BeatDivisor: 4
GridSize: 8
TimelineZoom: 1.2

[Metadata]
Title:God Save The Girls (TV Size)
TitleUnicode:God Save The Girls (TV Size)
Artist:Shimoji Shino
ArtistUnicode:下地紫野
Creator:Maimaing
Version:Oni
Source:ステラのまほう
Tags:pop jpop j-pop animation theme op opening magic of stella sutera no mahou japanese anime アニメ kz livetune VTCL-35241
BeatmapID:3215927
BeatmapSetID:1575096

[Difficulty]
HPDrainRate:5.5
CircleSize:5
OverallDifficulty:5.5
ApproachRate:5
SliderMultiplier:1.4
SliderTickRate:1

[Events]
//Background and Video events
0,0,"bg.jpg",0,90
//Break Periods
//Storyboard Layer 0 (Background)
//Storyboard Layer 1 (Fail)
//Storyboard Layer 2 (Pass)
//Storyboard Layer 3 (Foreground)
//Storyboard Layer 4 (Overlay)
//Storyboard Sound Samples

[TimingPoints]
1687,352.941176470588,4,1,0,70,1,0
12981,-100,4,1,0,80,0,0
27098,-100,4,1,0,70,0,0
63804,-100,4,1,0,80,0,1
86392,-100,4,1,0,70,0,0

[HitObjects]
285,242,1687,5,0,0:0:0:0:
233,157,2392,1,0,0:0:0:0:
285,242,3098,1,8,0:0:0:0:
292,216,3628,1,0,0:0:0:0:
176,147,3804,1,8,0:0:0:0:
262,130,3981,1,8,0:0:0:0:
176,147,4157,1,0,0:0:0:0:
271,121,4334,1,8,0:0:0:0:
254,150,4510,1,0,0:0:0:0:
254,150,5216,1,8,0:0:0:0:
292,216,5745,1,8,0:0:0:0:
356,159,5922,1,0,0:0:0:0:
254,122,6186,1,0,0:0:0:0:
175,144,6451,1,0,0:0:0:0:
236,104,6628,1,8,0:0:0:0:
254,150,7334,1,8,0:0:0:0:
213,163,7510,1,8,0:0:0:0:
190,97,7686,1,0,0:0:0:0:
353,101,7863,1,0,0:0:0:0:
260,108,8216,1,0,0:0:0:0:
297,251,8392,1,8,0:0:0:0:
260,108,8569,1,8,0:0:0:0:
353,101,8922,1,8,0:0:0:0:
87,127,9098,1,0,0:0:0:0:
353,101,9275,1,8,0:0:0:0:
184,239,9981,1,0,0:0:0:0:
256,192,10157,12,0,11569,0:0:0:0:
147,189,12098,5,0,0:0:0:0:
119,161,12186,1,0,0:0:0:0:
147,189,12275,1,8,0:0:0:0:
147,189,12451,1,0,0:0:0:0:
147,189,12628,1,8,0:0:0:0:
285,143,12981,5,4,0:0:0:0:
119,125,13157,1,8,0:0:0:0:
119,125,13245,1,8,0:0:0:0:
172,99,13334,1,8,0:0:0:0:
370,172,13510,1,4,0:0:0:0:
141,162,13863,1,0,0:0:0:0:
141,162,13951,1,0,0:0:0:0:
141,162,14039,1,0,0:0:0:0:
370,172,14392,1,12,0:0:0:0:
153,113,14569,1,0,0:0:0:0:
141,162,14745,1,0,0:0:0:0:
370,172,14922,1,12,0:0:0:0:
75,166,15275,1,0,0:0:0:0:
75,166,15363,1,0,0:0:0:0:
75,166,15451,1,8,0:0:0:0:
451,192,15804,1,4,0:0:0:0:
116,152,16157,1,8,0:0:0:0:
281,220,16334,1,0,0:0:0:0:
210,147,16422,1,0,0:0:0:0:
210,147,16510,1,0,0:0:0:0:
281,220,16686,1,0,0:0:0:0:
281,220,16863,1,8,0:0:0:0:
281,220,17039,1,0,0:0:0:0:
175,180,17392,1,0,0:0:0:0:
101,142,17569,1,8,0:0:0:0:
211,145,17745,1,8,0:0:0:0:
150,108,17834,1,8,0:0:0:0:
211,145,17922,1,0,0:0:0:0:
175,180,18098,1,0,0:0:0:0:
175,180,18275,1,8,0:0:0:0:
211,178,18628,1,0,0:0:0:0:
147,174,18804,1,8,0:0:0:0:
128,185,18892,1,8,0:0:0:0:
227,164,18981,1,8,0:0:0:0:
227,164,19157,1,0,0:0:0:0:
227,164,19510,1,8,0:0:0:0:
227,164,19863,1,4,0:0:0:0:
164,84,20216,1,8,0:0:0:0:
164,84,20392,1,8,0:0:0:0:
227,164,20569,1,0,0:0:0:0:
220,136,20922,1,0,0:0:0:0:
430,84,21010,1,0,0:0:0:0:
227,164,21098,1,8,0:0:0:0:
208,195,21451,1,4,0:0:0:0:
311,144,21804,1,8,0:0:0:0:
96,187,21981,1,0,0:0:0:0:
96,187,22334,1,0,0:0:0:0:
96,187,22510,1,8,0:0:0:0:
276,146,22686,1,0,0:0:0:0:
276,146,22775,1,0,0:0:0:0:
276,146,22863,1,0,0:0:0:0:
173,193,23039,1,0,0:0:0:0:
173,193,23216,1,0,0:0:0:0:
173,193,23392,1,8,0:0:0:0:
86,192,23745,1,12,0:0:0:0:
16,153,24098,1,0,0:0:0:0:
16,153,24186,1,0,0:0:0:0:
134,83,24275,1,0,0:0:0:0:
16,153,24451,1,0,0:0:0:0:
134,83,24628,1,8,0:0:0:0:
134,83,24804,1,0,0:0:0:0:
134,83,25157,1,8,0:0:0:0:
226,163,25245,1,8,0:0:0:0:
226,163,25334,1,0,0:0:0:0:
134,83,25510,1,12,0:0:0:0:
123,203,26216,1,0,0:0:0:0:
141,127,26569,1,0,0:0:0:0:
141,127,26657,1,0,0:0:0:0:
103,75,26745,1,8,0:0:0:0:
150,214,27098,1,4,0:0:0:0:
150,214,27451,1,0,0:0:0:0:
249,143,27628,1,0,0:0:0:0:
150,214,27804,1,8,0:0:0:0:
267,240,28157,1,8,0:0:0:0:
110,149,28334,1,0,0:0:0:0:
110,149,28686,1,0,0:0:0:0:
110,149,28863,1,8,0:0:0:0:
249,143,29039,1,8,0:0:0:0:
90,122,29216,1,0,0:0:0:0:
90,122,29392,1,0,0:0:0:0:
150,214,29569,1,8,0:0:0:0:
150,214,29922,1,0,0:0:0:0:
150,214,30275,1,0,0:0:0:0:
211,143,30628,1,8,0:0:0:0:
211,143,30981,1,8,0:0:0:0:
163,117,31157,5,0,0:0:0:0:
163,117,31510,1,0,0:0:0:0:
163,117,31686,1,8,0:0:0:0:
333,143,31863,1,0,0:0:0:0:
150,214,32039,1,8,0:0:0:0:
181,129,32216,1,8,0:0:0:0:
46,184,32392,1,0,0:0:0:0:
150,214,32745,1,0,0:0:0:0:
150,214,33098,1,8,0:0:0:0:
150,214,33451,1,0,0:0:0:0:
255,156,33804,1,0,0:0:0:0:
241,122,33981,1,0,0:0:0:0:
150,214,34157,1,8,0:0:0:0:
241,122,34510,1,8,0:0:0:0:
241,122,34686,1,0,0:0:0:0:
241,122,35039,1,8,0:0:0:0:
241,122,35392,1,8,0:0:0:0:
181,138,35569,1,0,0:0:0:0:
181,138,35922,1,0,0:0:0:0:
181,138,36098,1,0,0:0:0:0:
150,214,36275,1,8,0:0:0:0:
347,206,36628,1,0,0:0:0:0:
181,138,36804,1,8,0:0:0:0:
181,138,36892,1,8,0:0:0:0:
115,197,36981,1,8,0:0:0:0:
115,197,37157,1,0,0:0:0:0:
271,208,37334,1,8,0:0:0:0:
115,197,37510,1,0,0:0:0:0:
177,133,37863,1,0,0:0:0:0:
115,197,38039,1,8,0:0:0:0:
115,197,38392,1,4,0:0:0:0:
53,99,38745,1,8,0:0:0:0:
37,156,39098,1,8,0:0:0:0:
119,138,39275,1,0,0:0:0:0:
229,145,39451,1,0,0:0:0:0:
37,156,39628,1,8,0:0:0:0:
240,129,39981,1,8,0:0:0:0:
37,156,40157,1,0,0:0:0:0:
240,129,40334,1,8,0:0:0:0:
37,156,40510,1,0,0:0:0:0:
109,162,40598,1,0,0:0:0:0:
37,156,40686,1,8,0:0:0:0:
37,156,40863,1,8,0:0:0:0:
37,156,41216,1,0,0:0:0:0:
304,178,41569,1,0,0:0:0:0:
37,156,41922,1,8,0:0:0:0:
157,142,42098,1,0,0:0:0:0:
240,129,42275,1,0,0:0:0:0:
233,136,42451,1,8,0:0:0:0:
287,128,42804,1,8,0:0:0:0:
197,108,42981,1,0,0:0:0:0:
310,104,43157,1,0,0:0:0:0:
197,108,43334,1,8,0:0:0:0:
197,196,43422,1,8,0:0:0:0:
197,196,43510,1,0,0:0:0:0:
197,108,43686,1,8,0:0:0:0:
195,153,44039,1,0,0:0:0:0:
103,92,44392,1,8,0:0:0:0:
195,153,44745,1,0,0:0:0:0:
200,168,44922,1,0,0:0:0:0:
195,153,45275,1,0,0:0:0:0:
195,153,45451,1,8,0:0:0:0:
169,160,45804,1,8,0:0:0:0:
195,153,45981,1,0,0:0:0:0:
36,191,46069,1,8,0:0:0:0:
169,160,46157,1,0,0:0:0:0:
169,160,46334,1,0,0:0:0:0:
169,160,46510,1,8,0:0:0:0:
95,153,46863,1,0,0:0:0:0:
241,129,47039,1,0,0:0:0:0:
95,153,47216,1,8,0:0:0:0:
95,153,47569,1,8,0:0:0:0:
95,153,47745,1,0,0:0:0:0:
95,153,48098,1,12,0:0:0:0:
133,229,48451,1,0,0:0:0:0:
133,229,48628,1,8,0:0:0:0:
133,229,48804,1,0,0:0:0:0:
133,229,48981,1,8,0:0:0:0:
231,122,49157,1,0,0:0:0:0:
231,122,49245,1,0,0:0:0:0:
182,75,49334,1,8,0:0:0:0:
182,75,49422,1,8,0:0:0:0:
182,75,49510,1,8,0:0:0:0:
208,188,49686,1,4,0:0:0:0:
136,147,50039,1,0,0:0:0:0:
153,200,50216,1,0,0:0:0:0:
153,200,50745,1,8,0:0:0:0:
196,161,51098,1,0,0:0:0:0:
274,104,51451,1,0,0:0:0:0:
254,148,51628,1,0,0:0:0:0:
259,189,51981,1,0,0:0:0:0:
254,148,52157,1,8,0:0:0:0:
254,148,52510,1,0,0:0:0:0:
136,147,52863,1,8,0:0:0:0:
136,147,53039,1,0,0:0:0:0:
254,148,53569,1,8,0:0:0:0:
254,148,53922,1,0,0:0:0:0:
322,241,54186,1,0,0:0:0:0:
102,145,54451,1,0,0:0:0:0:
102,145,54628,1,8,0:0:0:0:
283,212,54804,1,0,0:0:0:0:
283,212,54892,1,0,0:0:0:0:
254,148,54981,1,8,0:0:0:0:
254,148,55334,1,0,0:0:0:0:
278,208,55510,1,0,0:0:0:0:
173,150,55686,1,8,0:0:0:0:
173,150,55863,1,0,0:0:0:0:
254,148,56216,1,8,0:0:0:0:
131,124,56392,1,8,0:0:0:0:
264,162,56569,1,0,0:0:0:0:
131,183,56922,1,0,0:0:0:0:
131,183,57098,1,8,0:0:0:0:
250,149,57275,1,0,0:0:0:0:
131,183,57451,1,0,0:0:0:0:
250,149,57804,1,8,0:0:0:0:
218,87,58069,1,8,0:0:0:0:
131,183,58157,1,0,0:0:0:0:
251,133,58334,1,8,0:0:0:0:
131,183,58510,1,0,0:0:0:0:
299,149,58686,1,0,0:0:0:0:
299,149,58775,1,0,0:0:0:0:
131,183,58863,1,8,0:0:0:0:
145,124,59039,1,0,0:0:0:0:
131,183,59216,1,8,0:0:0:0:
131,183,59569,1,0,0:0:0:0:
145,124,59745,1,0,0:0:0:0:
131,183,59922,1,8,0:0:0:0:
283,174,60098,1,8,0:0:0:0:
283,174,60186,1,8,0:0:0:0:
131,183,60275,1,0,0:0:0:0:
116,160,60451,1,0,0:0:0:0:
131,183,60628,1,8,0:0:0:0:
136,198,60981,1,12,0:0:0:0:
131,145,61334,1,0,0:0:0:0:
131,145,61510,1,0,0:0:0:0:
123,170,61686,1,8,0:0:0:0:
123,170,61863,1,0,0:0:0:0:
123,170,62039,1,0,0:0:0:0:
119,173,62216,1,8,0:0:0:0:
119,173,62569,1,8,0:0:0:0:
119,173,62745,1,8,0:0:0:0:
220,144,62922,1,0,0:0:0:0:
44,81,63010,1,0,0:0:0:0:
220,144,63098,1,8,0:0:0:0:
220,144,63275,1,0,0:0:0:0:
220,144,63451,1,8,0:0:0:0:
129,217,63804,1,4,0:0:0:0:
221,108,64157,1,8,0:0:0:0:
129,217,64422,1,8,0:0:0:0:
129,217,64510,1,0,0:0:0:0:
146,156,64686,1,0,0:0:0:0:
129,217,64863,1,8,0:0:0:0:
129,217,65216,1,0,0:0:0:0:
136,186,65392,1,0,0:0:0:0:
172,194,65569,1,8,0:0:0:0:
129,217,65745,1,0,0:0:0:0:
212,163,65834,1,0,0:0:0:0:
158,163,65922,1,8,0:0:0:0:
158,163,66010,1,8,0:0:0:0:
129,217,66098,1,0,0:0:0:0:
129,217,66275,1,8,0:0:0:0:
227,171,66451,1,8,0:0:0:0:
129,217,66628,1,0,0:0:0:0:
200,141,66981,1,8,0:0:0:0:
194,177,67245,1,0,0:0:0:0:
129,217,67334,1,0,0:0:0:0:
236,154,67510,1,0,0:0:0:0:
76,150,67686,1,8,0:0:0:0:
129,217,67863,1,0,0:0:0:0:
358,194,68039,1,0,0:0:0:0:
129,217,68392,1,8,0:0:0:0:
221,185,68569,1,0,0:0:0:0:
193,159,68657,1,8,0:0:0:0:
193,159,68745,1,0,0:0:0:0:
193,159,68922,1,0,0:0:0:0:
65,123,69098,1,8,0:0:0:0:
129,217,69451,1,0,0:0:0:0:
129,217,69804,1,8,0:0:0:0:
129,217,69981,1,8,0:0:0:0:
172,233,70069,1,8,0:0:0:0:
129,217,70157,1,0,0:0:0:0:
202,108,70334,1,8,0:0:0:0:
202,108,70510,1,8,0:0:0:0:
129,217,70863,1,0,0:0:0:0:
129,217,71216,1,8,0:0:0:0:
211,153,71392,1,0,0:0:0:0:
411,166,71481,1,0,0:0:0:0:
129,217,71569,1,0,0:0:0:0:
211,153,71745,1,8,0:0:0:0:
211,153,71922,1,8,0:0:0:0:
129,217,72275,1,0,0:0:0:0:
129,217,72628,1,8,0:0:0:0:
89,97,72804,1,0,0:0:0:0:
300,103,72892,1,8,0:0:0:0:
165,175,72981,5,0,0:0:0:0:
129,217,73157,1,0,0:0:0:0:
184,80,73334,1,0,0:0:0:0:
129,217,73510,1,12,0:0:0:0:
127,131,73863,1,8,0:0:0:0:
127,131,74039,1,0,0:0:0:0:
129,217,74392,1,12,0:0:0:0:
129,217,74745,1,12,0:0:0:0:
129,217,75098,1,4,0:0:0:0:
221,108,75451,1,8,0:0:0:0:
129,217,75716,1,8,0:0:0:0:
129,217,75804,1,0,0:0:0:0:
146,156,75980,1,0,0:0:0:0:
129,217,76157,1,8,0:0:0:0:
129,217,76510,1,0,0:0:0:0:
136,186,76686,1,0,0:0:0:0:
172,194,76863,1,8,0:0:0:0:
129,217,77039,1,0,0:0:0:0:
212,163,77128,1,0,0:0:0:0:
158,163,77216,1,8,0:0:0:0:
158,163,77304,1,8,0:0:0:0:
129,217,77392,1,0,0:0:0:0:
129,217,77569,1,8,0:0:0:0:
227,171,77745,1,8,0:0:0:0:
129,217,77922,1,0,0:0:0:0:
200,141,78275,1,8,0:0:0:0:
194,177,78539,1,0,0:0:0:0:
129,217,78628,1,0,0:0:0:0:
236,154,78804,1,0,0:0:0:0:
76,150,78980,1,8,0:0:0:0:
370,198,79157,1,8,0:0:0:0:
71,146,79334,1,0,0:0:0:0:
71,146,79598,1,0,0:0:0:0:
71,146,79863,1,0,0:0:0:0:
71,146,80039,1,8,0:0:0:0:
261,122,80392,1,12,0:0:0:0:
254,150,80745,1,0,0:0:0:0:
241,195,80922,1,8,0:0:0:0:
190,97,81097,1,8,0:0:0:0:
353,101,81274,1,0,0:0:0:0:
260,108,81627,1,0,0:0:0:0:
297,251,81803,1,8,0:0:0:0:
260,108,81980,1,8,0:0:0:0:
353,101,82333,1,8,0:0:0:0:
87,127,82509,1,0,0:0:0:0:
353,101,82686,1,8,0:0:0:0:
363,242,82863,1,0,0:0:0:0:
363,242,82951,1,0,0:0:0:0:
228,153,83039,1,8,0:0:0:0:
228,153,83215,1,8,0:0:0:0:
86,186,83569,1,8,0:0:0:0:
86,186,83745,1,0,0:0:0:0:
86,186,83922,1,8,0:0:0:0:
60,185,84098,1,0,0:0:0:0:
111,131,84186,1,0,0:0:0:0:
86,186,84275,1,8,0:0:0:0:
86,186,84451,1,0,0:0:0:0:
84,174,84628,1,8,0:0:0:0:
83,174,84716,1,8,0:0:0:0:
78,160,84804,1,0,0:0:0:0:
78,160,84892,1,0,0:0:0:0:
78,160,84981,1,8,0:0:0:0:
147,189,85509,5,0,0:0:0:0:
119,161,85597,1,0,0:0:0:0:
147,189,85686,1,8,0:0:0:0:
147,189,85862,1,0,0:0:0:0:
147,189,86039,1,8,0:0:0:0:
87,77,86392,1,4,0:0:0:0:
