osu file format v14

[General]
AudioFilename: audio.mp3
AudioLeadIn: 0
PreviewTime: 62232
Countdown: 0
SampleSet: Soft
StackLeniency: 0.7
Mode: 0
LetterboxInBreaks: 0
WidescreenStoryboard: 1

[Editor]
DistanceSpacing: 0.2
BeatDivisor: 4
GridSize: 4
TimelineZoom: 2.2

[Metadata]
Title:God Save The Girls
TitleUnicode:God Save The Girls
Artist:Shimoji Shino
ArtistUnicode:下地紫野
Creator:RepL4y
Version:Magic
Source:ステラのまほう
Tags:Stella no Mahou kz livetune Magic Asuka_- joker- Meg iMage--
BeatmapID:1369110
BeatmapSetID:645201

[Difficulty]
HPDrainRate:7
CircleSize:4
OverallDifficulty:7.5
ApproachRate:9
SliderMultiplier:1.5
SliderTickRate:1

[Events]
//Background and Video events
0,0,"BGstella.jpg",0,0
//Break Periods
//Storyboard Layer 0 (Background)
//Storyboard Layer 1 (Fail)
//Storyboard Layer 2 (Pass)
//Storyboard Layer 3 (Foreground)
//Storyboard Sound Samples

[TimingPoints]
1085,352.941176470588,4,2,2,40,1,0
1085,-200,4,2,2,40,0,0
5320,-133.333333333333,4,2,2,40,0,0
8673,-200,4,2,2,40,0,0
11496,-83.3333333333333,4,2,1,60,0,0
14849,-133.333333333333,4,2,1,60,0,0
15202,-83.3333333333333,4,2,1,60,0,0
24908,-100,4,2,1,60,0,0
25261,-100,4,2,2,50,0,0
25967,-83.3333333333333,4,2,1,60,0,0
26143,-133.333333333333,4,2,1,60,0,0
26496,-100,4,2,1,60,0,0
36202,-83.3333333333333,4,2,1,60,0,0
36908,-100,4,2,1,60,0,0
37790,-83.3333333333333,4,2,1,60,0,0
49084,-111.111111111111,4,2,1,60,0,0
51555,-83.3333333333333,4,2,1,60,0,0
51908,-111.111111111111,4,2,1,60,0,0
52967,-83.3333333333333,4,2,1,60,0,0
53320,-90.9090909090909,4,2,1,60,0,0
54379,-83.3333333333333,4,2,1,60,0,0
54732,-76.9230769230769,4,2,1,60,0,0
57555,-71.4285714285714,4,2,1,60,0,0
60379,-100,4,2,1,60,0,0
61614,-76.9230769230769,4,2,1,60,0,0
62849,-200,4,2,1,60,0,0
63202,-66.6666666666667,4,2,1,60,0,1
68849,-83.3333333333333,4,2,1,60,0,1
71496,-66.6666666666667,4,2,1,60,0,1
71673,-83.3333333333333,4,2,1,60,0,1
74143,-200,4,2,1,60,0,0
74496,-66.6666666666667,4,2,1,60,0,1
76437,-83.3333333333333,4,2,1,60,0,1
76790,-66.6666666666667,4,2,1,60,0,1
78732,-76.9230769230769,4,2,1,60,0,1
79261,-66.6666666666667,4,2,1,60,0,1
79790,-100,4,2,1,60,0,1
80143,-66.6666666666667,4,2,1,60,0,0
84379,-133.333333333333,4,2,1,60,0,0
85084,-66.6666666666667,4,2,1,60,0,0
85437,-100,4,2,1,60,0,0
88084,-200,4,2,2,5,0,0

[Colours]
Combo1 : 255,255,128
Combo2 : 128,255,128
Combo3 : 255,128,128
Combo4 : 0,128,255

[HitObjects]
328,132,202,5,2,0:0:0:0:
231,163,379,1,2,0:0:0:0:
328,295,555,1,2,0:0:0:0:
387,213,732,1,2,0:0:0:0:
231,264,908,1,2,0:0:0:0:
387,213,1085,6,0,P|424:155|417:89,1,131.25,2|0,0:0|0:0,0:0:0:0:
357,44,1790,2,0,P|294:51|222:54,1,131.25,2|0,0:0|0:0,0:0:0:0:
153,50,2496,1,2,0:0:0:0:
153,50,3026,5,2,0:0:0:0:
184,149,3202,1,2,0:0:0:0:
39,233,3379,1,2,0:0:0:0:
77,130,3555,1,2,0:0:0:0:
184,319,3732,1,2,0:0:0:0:
260,76,3908,6,0,P|322:86|396:85,1,131.25,2|0,0:0|0:0,0:0:0:0:
454,30,4614,2,0,P|434:79|465:136,1,112.5,2|2,0:0|0:0,0:0:0:0:
413,249,5320,6,0,L|327:238,2,84.3750032186509,2|2|2,0:0|0:0|0:0,0:0:0:0:
369,142,6026,2,0,L|251:156,1,112.500004291535,2|0,0:0|0:0,0:0:0:0:
257,155,6732,5,2,0:0:0:0:
350,53,6908,1,2,0:0:0:0:
390,224,7084,1,0,0:0:0:0:
255,58,7261,2,0,P|199:51|146:74,1,112.500004291535,2|2,0:0|0:0,0:0:0:0:
80,159,7790,1,2,0:0:0:0:
80,159,7967,6,0,P|87:212|91:276,1,112.500004291535,2|2,0:0|0:0,0:0:0:0:
91,368,8496,1,2,0:0:0:0:
217,233,8673,2,0,P|303:217|376:288,1,187.5,2|0,0:0|0:0,0:0:0:0:
256,192,9643,12,2,10967,0:0:0:0:
152,135,11496,5,2,0:0:0:0:
152,135,11584,1,2,0:0:0:0:
152,135,11673,1,8,0:0:0:0:
229,305,11849,1,0,0:0:0:0:
350,161,12026,1,8,0:0:0:0:
346,133,12114,1,8,0:0:0:0:
342,105,12202,1,2,0:0:0:0:
338,77,12290,1,2,0:0:0:0:
334,49,12378,1,12,0:0:0:0:
152,135,12555,5,0,0:0:0:0:
178,153,12643,1,8,0:0:0:0:
209,163,12731,1,8,0:0:0:0:
242,164,12819,1,2,0:0:0:0:
274,156,12907,1,6,0:0:0:0:
454,70,13261,5,2,0:0:0:0:
451,101,13349,1,2,0:0:0:0:
447,132,13437,1,8,0:0:0:0:
443,163,13525,1,8,0:0:0:0:
439,194,13613,1,2,0:0:0:0:
435,225,13702,1,2,0:0:0:0:
432,256,13790,6,0,L|445:346,1,89.9999972534181,12|2,0:0|0:0,0:0:0:0:
315,210,14143,1,2,0:0:0:0:
135,266,14320,2,0,P|196:284|268:255,1,134.999995880127,12|0,0:0|0:0,0:0:0:0:
315,210,14673,5,2,0:0:0:0:
309,183,14761,1,2,0:0:0:0:
303,156,14849,2,0,L|309:62,1,84.3750032186509,8|0,0:0|0:0,0:0:0:0:
250,23,15202,6,0,L|156:32,1,89.9999972534181,6|0,0:0|0:0,0:0:0:0:
31,43,15555,1,8,0:0:0:0:
196,161,15732,2,0,P|151:169|108:156,1,89.9999972534181,2|0,0:0|0:0,0:0:0:0:
31,43,16084,1,2,0:0:0:0:
297,111,16261,1,8,0:0:0:0:
109,156,16437,6,0,L|118:257,1,89.9999972534181,2|0,0:0|0:0,0:0:0:0:
126,354,16790,1,2,0:0:0:0:
209,193,16967,1,8,0:0:0:0:
37,311,17143,5,2,0:0:0:0:
37,311,17232,1,0,0:0:0:0:
37,311,17320,1,0,0:0:0:0:
223,328,17496,1,2,0:0:0:0:
112,174,17673,2,0,L|129:81,1,89.9999972534181,8|0,0:0|0:0,0:0:0:0:
297,111,18026,6,0,L|207:142,1,89.9999972534181,6|0,0:0|0:0,0:0:0:0:
285,13,18379,1,8,0:0:0:0:
397,100,18555,2,0,L|388:211,1,89.9999972534181,2|0,0:0|0:0,0:0:0:0:
373,351,18908,1,2,0:0:0:0:
480,230,19084,1,8,0:0:0:0:
321,264,19261,6,0,P|256:256|178:253,1,134.999995880127,6|0,0:0|0:0,0:0:0:0:
141,274,19614,2,0,P|148:228|149:181,1,89.9999972534181,2|8,0:0|0:0,0:0:0:0:
133,39,19967,1,2,0:0:0:0:
133,39,20055,1,0,0:0:0:0:
133,39,20143,1,0,0:0:0:0:
49,214,20320,1,2,0:0:0:0:
211,102,20496,5,12,0:0:0:0:
244,103,20584,1,0,0:0:0:0:
278,105,20672,1,0,0:0:0:0:
312,106,20760,1,8,0:0:0:0:
345,108,20849,6,0,L|454:91,1,89.9999972534181,6|0,0:0|0:0,0:0:0:0:
281,18,21202,1,8,0:0:0:0:
403,181,21379,2,0,P|407:225|389:279,1,89.9999972534181,2|0,0:0|0:0,0:0:0:0:
268,370,21732,1,2,0:0:0:0:
300,212,21908,1,8,0:0:0:0:
85,319,22084,6,0,L|174:311,1,89.9999972534181,2|0,0:0|0:0,0:0:0:0:
346,298,22437,1,2,0:0:0:0:
198,219,22614,1,8,0:0:0:0:
446,250,22790,6,0,P|434:188|431:101,1,134.999995880127,12|0,0:0|0:0,0:0:0:0:
475,31,23143,2,0,P|426:93|367:22,1,179.999994506836,12|0,0:0|0:0,0:0:0:0:
364,38,23584,1,2,0:0:0:0:
364,38,23673,5,2,0:0:0:0:
297,136,23849,1,8,3:0:0:0:
402,189,24026,1,2,0:0:0:0:
231,235,24202,2,0,L|137:222,1,89.9999972534181,6|0,0:0|0:0,0:0:0:0:
299,311,24555,5,2,0:0:0:0:
319,284,24643,1,2,0:0:0:0:
329,252,24731,1,2,0:0:0:0:
329,218,24819,1,2,0:0:0:0:
318,186,24908,6,0,P|308:112|346:49,1,150,6|2,0:0|0:0,0:0:0:0:
418,134,25437,1,0,0:0:0:0:
233,58,25614,2,0,P|177:68|108:74,1,112.5,2|0,0:0|0:0,0:0:0:0:
69,127,25967,6,0,L|81:187,1,44.999998626709,2|2,0:0|0:0,0:0:0:0:
151,209,26143,6,0,L|131:317,1,84.3750032186509,8|0,0:0|0:0,0:0:0:0:
77,360,26496,6,0,P|144:329|222:346,1,150,6|2,0:0|0:0,0:0:0:0:
331,369,27026,1,0,0:0:0:0:
331,369,27202,2,0,L|320:280,1,75,2|0,0:0|0:0,0:0:0:0:
301,156,27555,1,2,0:0:0:0:
453,185,27732,6,0,P|426:206|382:214,1,75,0|2,0:0|0:0,0:0:0:0:
407,38,28084,2,0,P|438:50|467:84,1,75,0|2,0:0|0:0,0:0:0:0:
301,156,28437,2,0,P|296:122|311:80,1,75,0|2,0:0|0:0,0:0:0:0:
386,214,28790,1,0,0:0:0:0:
261,292,28967,2,0,L|169:283,1,75,2|0,0:0|0:0,0:0:0:0:
143,297,29232,1,0,0:0:0:0:
143,297,29320,6,0,P|158:241|161:183,1,112.5,6|0,0:0|0:0,0:0:0:0:
155,148,29673,2,0,P|188:161|238:162,1,75,2|0,0:0|0:0,0:0:0:0:
332,99,30026,2,0,L|324:23,1,75,2|0,0:0|0:0,0:0:0:0:
343,201,30379,1,2,0:0:0:0:
192,300,30555,6,0,P|230:298|267:277,1,75,0|2,0:0|0:0,0:0:0:0:
194,82,30908,2,0,P|177:116|176:159,1,75,0|2,0:0|0:0,0:0:0:0:
388,188,31261,2,0,P|367:156|331:134,1,75,0|2,0:0|0:0,0:0:0:0:
175,152,31614,1,0,0:0:0:0:
262,281,31790,1,2,0:0:0:0:
388,188,31967,1,2,0:3:0:0:
135,225,32143,6,0,P|192:217|246:252,1,112.5,6|0,0:0|0:0,0:0:0:0:
262,281,32496,2,0,L|252:369,1,75,2|0,0:0|0:0,0:0:0:0:
361,234,32849,2,0,L|371:322,1,75,2|0,0:0|0:0,0:0:0:0:
449,157,33202,5,2,0:0:0:0:
482,238,33379,1,0,0:0:0:0:
333,138,33555,1,2,0:0:0:0:
362,55,33732,1,0,0:0:0:0:
361,234,33908,6,0,P|325:237|284:225,1,75,2|0,0:0|0:0,0:0:0:0:
191,164,34261,2,0,P|155:161|114:173,1,75,2|0,0:0|0:0,0:0:0:0:
82,336,34614,2,0,P|118:339|159:327,1,75,2|0,0:0|0:0,0:0:0:0:
287,226,34967,6,0,P|282:149|270:61,1,150,2|2,0:0|0:0,0:0:0:0:
155,167,35496,1,0,0:0:0:0:
258,310,35673,2,0,P|297:314|332:303,1,75,2|0,0:0|0:0,0:0:0:0:
434,207,36026,1,2,0:0:0:0:
262,33,36202,6,0,P|267:54|272:77,1,44.999998626709,0|0,1:0|1:0,0:0:0:0:
329,143,36379,2,0,P|321:189|315:237,1,89.9999972534181,6|8,0:0|3:0,0:0:0:0:
409,381,36732,1,2,0:0:0:0:
149,306,36908,2,0,P|200:284|256:290,1,112.5,6|0,0:0|0:0,0:0:0:0:
315,231,37261,6,0,L|311:193,1,37.5,2|0,0:0|0:0,0:0:0:0:
238,146,37437,2,0,L|257:16,1,112.5,8|0,0:0|0:0,0:0:0:0:
264,1,37790,6,0,P|307:11|358:13,1,89.9999972534181,6|0,0:0|0:0,0:0:0:0:
498,142,38143,2,0,P|453:144|409:154,1,89.9999972534181,8|0,0:0|0:0,0:0:0:0:
261,219,38496,1,8,0:0:0:0:
381,358,38673,2,0,L|372:259,1,89.9999972534181,2|0,0:0|0:0,0:0:0:0:
277,84,39026,6,0,L|261:219,1,134.999995880127,8|0,0:0|0:0,0:0:0:0:
261,219,39379,1,2,0:0:0:0:
100,322,39555,2,0,L|190:310,1,89.9999972534181,8|0,0:0|0:0,0:0:0:0:
189,310,39820,1,8,0:0:0:0:
189,310,39908,5,2,0:0:0:0:
51,246,40084,1,2,0:0:0:0:
189,310,40261,2,0,L|281:299,1,89.9999972534181,8|0,0:0|0:0,0:0:0:0:
424,328,40614,6,0,L|411:223,1,89.9999972534181,6|0,0:0|0:0,0:0:0:0:
308,82,40967,2,0,P|304:126|321:171,1,89.9999972534181,8|0,0:0|0:0,0:0:0:0:
479,102,41320,2,0,L|387:118,1,89.9999972534181,8|2,0:0|0:0,0:0:0:0:
217,50,41673,1,0,0:0:0:0:
319,168,41849,6,0,L|310:271,1,89.9999972534181,8|0,0:0|0:0,0:0:0:0:
193,380,42202,1,2,0:0:0:0:
129,298,42379,2,0,P|168:278|216:279,1,89.9999972534181,8|0,0:0|0:0,0:0:0:0:
290,360,42643,1,8,0:0:0:0:
313,370,42731,2,0,L|368:361,2,44.999998626709,2|8|2,0:0|0:0|0:0,0:0:0:0:
472,278,43084,5,8,0:0:0:0:
452,267,43173,1,0,0:0:0:0:
431,260,43261,1,0,0:0:0:0:
408,257,43348,1,8,0:0:0:0:
386,258,43437,6,0,P|397:219|400:161,1,89.9999972534181,6|0,0:0|0:0,0:0:0:0:
251,7,43790,2,0,P|253:51|265:95,1,89.9999972534181,8|0,0:0|0:0,0:0:0:0:
386,258,44143,2,0,P|344:250|283:246,1,89.9999972534181,8|2,0:0|0:0,0:0:0:0:
148,252,44496,1,0,0:0:0:0:
119,49,44673,6,0,L|132:151,1,89.9999972534181,8|0,0:0|0:0,0:0:0:0:
148,252,45026,1,2,0:0:0:0:
334,204,45202,2,0,P|293:187|245:190,1,89.9999972534181,8|0,0:0|0:0,0:0:0:0:
248,189,45467,1,8,0:0:0:0:
248,189,45555,5,2,0:0:0:0:
321,315,45732,1,2,0:0:0:0:
441,241,45908,2,0,L|430:142,1,89.9999972534181,8|0,0:0|0:0,0:0:0:0:
342,63,46261,6,0,B|287:51|287:51|227:69|227:69|166:54,1,179.999994506836,6|8,0:0|0:0,0:0:0:0:
31,109,46790,1,0,0:0:0:0:
31,109,46879,1,8,0:0:0:0:
31,109,46967,1,2,0:0:0:0:
120,277,47143,6,0,P|141:240|143:186,1,89.9999972534181,8|0,0:0|0:0,0:0:0:0:
259,63,47496,2,0,L|287:252,1,179.999994506836,12|2,0:0|0:0,0:0:0:0:
305,369,48026,1,8,0:0:0:0:
470,302,48202,5,0,0:0:0:0:
436,297,48290,1,8,0:0:0:0:
403,292,48378,1,2,0:0:0:0:
188,243,48555,5,2,0:0:0:0:
207,220,48643,1,2,0:0:0:0:
231,203,48731,1,0,1:0:0:0:
260,193,48819,1,0,1:0:0:0:
290,192,48907,1,0,1:0:0:0:
319,199,48996,1,0,1:0:0:0:
345,213,49084,6,0,L|334:77,1,134.999995880127,6|2,0:0|0:0,0:0:0:0:
460,161,49614,2,0,L|448:295,1,134.999995880127,2|0,0:0|0:0,0:0:0:0:
295,344,50143,2,0,L|365:356,1,67.4999979400635,8|0,0:0|0:0,0:0:0:0:
343,249,50496,6,0,P|277:235|211:277,1,134.999995880127,2|2,0:0|0:0,0:0:0:0:
45,301,51026,2,0,P|103:331|168:317,1,134.999995880127,2|2,0:0|0:0,0:0:0:0:
220,265,51467,1,2,0:0:0:0:
220,265,51555,6,0,L|212:170,1,89.9999972534181,8|0,0:0|0:0,0:0:0:0:
229,49,51908,6,0,B|277:65|277:65|365:48,1,134.999995880127,6|2,0:0|0:0,0:0:0:0:
476,21,52437,2,0,L|465:182,1,134.999995880127,2|2,0:0|0:0,0:0:0:0:
450,322,52879,1,2,0:0:0:0:
450,322,52967,2,0,L|458:228,1,89.9999972534181,8|2,0:0|0:0,0:0:0:0:
466,155,53320,6,0,P|426:155|358:141,1,82.5000025177003,2|0,0:0|0:0,0:0:0:0:
353,173,53584,2,0,P|311:173|271:179,1,82.5000025177003,2|0,0:0|0:0,0:0:0:0:
239,193,53849,1,2,0:0:0:0:
457,232,54026,1,2,0:0:0:0:
380,333,54202,1,0,3:0:0:0:
380,333,54290,1,0,3:0:0:0:
380,333,54379,2,2,L|241:317,1,134.999995880127,10|0,0:0|0:0,0:0:0:0:
187,335,54732,6,0,P|197:286|199:233,1,97.4999955368044,6|0,0:0|0:0,0:0:0:0:
107,44,55084,2,0,P|109:92|119:140,1,97.4999955368044,2|0,0:0|0:0,0:0:0:0:
199,238,55437,2,0,L|308:221,1,97.4999955368044,2|0,0:0|0:0,0:0:0:0:
491,158,55790,2,0,L|382:141,1,97.4999955368044,2|0,0:0|0:0,0:0:0:0:
231,113,56143,5,2,0:0:0:0:
458,65,56320,1,0,0:0:0:0:
295,222,56496,1,2,0:0:0:0:
364,44,56673,1,0,0:0:0:0:
464,250,56849,6,0,L|448:357,1,97.4999955368044,2|0,0:0|0:0,0:0:0:0:
255,283,57202,2,0,P|297:266|349:273,1,97.4999955368044,2|0,0:0|0:0,0:0:0:0:
195,330,57467,1,10,0:0:0:0:
195,330,57555,6,0,L|207:215,1,104.999996795654,8|2,0:0|0:0,0:0:0:0:
306,54,57908,2,0,L|316:158,1,104.999996795654,8|2,0:0|0:0,0:0:0:0:
336,319,58261,5,8,0:0:0:0:
95,258,58437,1,2,0:0:0:0:
397,233,58614,1,8,0:0:0:0:
195,330,58790,1,2,0:0:0:0:
134,148,58967,6,0,L|152:37,1,104.999996795654,8|2,0:0|0:0,0:0:0:0:
371,104,59320,2,0,L|257:143,1,104.999996795654,8|2,0:0|0:0,0:0:0:0:
65,211,59673,5,8,0:0:0:0:
278,282,59849,1,2,0:0:0:0:
243,42,60026,1,8,0:0:0:0:
133,291,60202,1,2,0:0:0:0:
319,346,60379,6,0,P|325:296|340:219,1,112.5,6|0,0:0|0:0,0:0:0:0:
351,153,60732,5,8,0:0:0:0:
254,219,60908,1,8,0:0:0:0:
327,31,61084,1,8,0:0:0:0:
448,190,61261,1,8,0:0:0:0:
186,82,61437,1,8,2:0:0:0:
347,290,61614,6,0,P|295:332|210:331,1,146.249993305207,8|0,0:0|0:0,0:0:0:0:
161,270,61967,6,0,L|168:216,1,48.7499977684022,8|0,0:0|0:0,0:0:0:0:
186,82,62143,1,8,0:0:0:0:
349,143,62320,5,2,0:0:0:0:
349,143,62408,1,2,0:0:0:0:
349,143,62496,2,0,P|341:174|323:199,1,48.7499977684022,8|0,0:0|0:0,0:0:0:0:
251,297,62673,2,0,P|229:274|216:246,1,48.7499977684022,2|0,0:0|0:0,0:0:0:0:
168,135,62849,6,0,P|195:129|234:129,1,56.25,8|0,0:0|0:0,0:0:0:0:
332,188,63202,6,0,L|321:304,1,112.500004291535,6|0,0:0|0:0,0:0:0:0:
470,204,63555,1,8,0:0:0:0:
414,64,63732,1,0,0:0:0:0:
414,64,63820,1,0,0:0:0:0:
414,64,63908,2,0,L|297:88,1,112.500004291535,2|2,0:0|0:0,0:0:0:0:
89,154,64261,2,0,L|206:178,1,112.500004291535,8|0,0:0|0:0,0:0:0:0:
373,211,64614,5,2,0:0:0:0:
187,291,64790,1,0,0:0:0:0:
216,90,64967,1,8,0:0:0:0:
373,211,65143,6,0,P|360:289|354:378,1,168.750006437302,2|0,0:0|0:0,0:0:0:0:
310,322,65496,2,0,P|295:300|270:274,1,56.2500021457673,2|0,0:0|0:0,0:0:0:0:
161,205,65673,1,8,0:0:0:0:
337,118,65849,1,0,0:0:0:0:
337,118,65937,1,0,0:0:0:0:
337,118,66026,6,0,L|458:142,1,112.500004291535,2|0,0:0|0:0,0:0:0:0:
371,13,66379,2,0,P|315:10|261:36,1,112.500004291535,8|0,0:0|0:0,0:0:0:0:
179,181,66732,1,2,0:0:0:0:
337,118,66908,1,2,0:0:0:0:
125,103,67084,1,8,0:0:0:0:
273,212,67261,6,0,P|277:266|252:326,1,112.500004291535,2|0,0:0|0:0,0:0:0:0:
146,243,67614,1,2,0:0:0:0:
224,109,67790,2,0,L|337:118,1,112.500004291535,8|0,0:0|0:0,0:0:0:0:
399,177,68055,2,0,L|466:167,1,56.2500021457673,8|2,0:0|0:0,0:0:0:0:
390,41,68320,1,2,0:0:0:0:
274,193,68496,2,0,L|291:312,1,112.500004291535,8|0,0:0|0:0,0:0:0:0:
106,266,68849,6,0,L|131:78,1,179.999994506836,6|8,0:0|0:0,0:0:0:0:
274,193,69379,1,2,0:0:0:0:
274,193,69732,5,8,1:0:0:0:
411,77,69908,1,8,1:0:0:0:
411,77,70261,6,0,P|332:117|244:94,1,179.999994506836,6|8,0:0|0:0,0:0:0:0:
111,207,70790,1,2,0:0:0:0:
111,207,71143,5,8,1:0:0:0:
344,236,71320,1,8,1:0:0:0:
207,346,71496,2,0,L|218:289,1,56.2500021457673
263,224,71673,6,0,L|248:77,1,134.999995880127,6|0,0:0|0:0,0:0:0:0:
243,17,72026,5,8,0:0:0:0:
327,100,72202,1,0,0:0:0:0:
162,169,72379,1,2,0:0:0:0:
369,270,72555,1,2,0:0:0:0:
369,270,72643,1,2,0:0:0:0:
369,270,72732,1,8,0:0:0:0:
91,338,72908,6,0,P|144:303|217:322,1,134.999995880127,6|0,0:0|0:0,0:0:0:0:
319,371,73261,2,0,P|295:371|271:365,1,44.999998626709,2|2,0:0|0:0,0:0:0:0:
210,316,73437,5,8,0:0:0:0:
213,276,73525,1,0,0:0:0:0:
217,237,73613,1,0,0:0:0:0:
221,198,73701,1,2,0:0:0:0:
225,159,73790,6,0,L|231:97,1,44.999998626709,8|0,0:0|0:0,0:0:0:0:
368,214,73967,2,0,L|311:240,1,44.999998626709,8|0,0:0|0:0,0:0:0:0:
351,40,74143,6,0,L|402:76,1,56.25,12|0,0:0|0:0,0:0:0:0:
468,167,74496,6,0,L|458:297,1,112.500004291535,6|0,0:0|0:0,0:0:0:0:
262,236,74849,2,0,P|309:210|374:216,1,112.500004291535,8|0,0:0|0:0,0:0:0:0:
366,212,75114,1,8,0:0:0:0:
366,212,75202,1,2,0:0:0:0:
296,361,75379,1,2,0:0:0:0:
161,284,75555,2,0,L|176:170,1,112.500004291535,8|0,0:0|0:0,0:0:0:0:
277,30,75908,6,0,L|291:141,1,112.500004291535,2|0,0:0|0:0,0:0:0:0:
291,141,76173,1,0,0:0:0:0:
291,141,76261,1,8,0:0:0:0:
313,329,76437,6,0,P|262:283|193:280,1,134.999995880127,2|0,0:0|0:0,0:0:0:0:
80,321,76790,6,0,P|106:330|136:328,1,56.2500021457673,2|0,0:0|0:0,0:0:0:0:
198,278,76967,2,0,L|188:208,1,56.2500021457673,8|0,0:0|0:0,0:0:0:0:
128,169,77143,2,0,L|138:99,1,56.2500021457673,0|8,0:0|0:0,0:0:0:0:
181,36,77320,6,0,P|238:30|287:52,1,112.500004291535,6|0,0:0|0:0,0:0:0:0:
393,199,77673,1,8,0:0:0:0:
217,141,77849,1,0,0:0:0:0:
217,141,77937,1,8,0:0:0:0:
217,141,78026,5,2,0:0:0:0:
372,295,78202,1,2,0:0:0:0:
287,52,78379,1,8,0:0:0:0:
120,233,78555,1,2,0:0:0:0:
120,233,78643,1,2,0:0:0:0:
120,233,78732,6,0,P|171:239|220:222,1,97.4999955368044,8|0,0:0|0:0,0:0:0:0:
287,52,78996,2,0,P|256:93|246:144,1,97.4999955368044,8|0,0:0|0:0,0:0:0:0:
333,263,79261,2,0,P|323:235|301:211,1,56.2500021457673,8|0,0:0|0:0,0:0:0:0:
253,312,79437,5,8,0:0:0:0:
281,342,79525,1,8,0:0:0:0:
320,358,79613,1,2,0:0:0:0:
361,354,79701,1,2,0:0:0:0:
397,332,79790,6,0,P|419:301|421:219,1,112.5,8|0,0:0|0:0,0:0:0:0:
358,160,80143,6,0,L|241:170,1,112.500004291535,6|0,0:0|0:0,0:0:0:0:
90,181,80496,1,2,0:0:0:0:
291,280,80673,2,0,L|164:267,1,112.500004291535,8|0,0:0|0:0,0:0:0:0:
3,252,81026,1,2,0:0:0:0:
132,366,81202,1,8,0:0:0:0:
291,280,81379,6,0,L|278:169,1,112.500004291535,8|0,0:0|0:0,0:0:0:0:
264,31,81732,1,2,0:0:0:0:
191,238,81908,1,8,0:0:0:0:
347,91,82084,1,0,0:0:0:0:
347,91,82173,1,8,0:0:0:0:
347,91,82261,5,2,0:0:0:0:
396,243,82437,1,2,0:0:0:0:
231,130,82614,2,0,L|109:146,1,112.500004291535,8|0,0:0|0:0,0:0:0:0:
119,144,82879,1,8,0:0:0:0:
119,144,82967,5,8,0:0:0:0:
187,236,83143,1,2,0:0:0:0:
268,25,83320,1,8,0:0:0:0:
312,341,83496,1,2,0:0:0:0:
347,94,83673,1,8,0:0:0:0:
202,341,83849,5,2,0:0:0:0:
186,317,83937,1,2,0:0:0:0:
164,300,84025,1,8,0:0:0:0:
138,289,84113,1,8,0:0:0:0:
110,287,84201,1,2,0:0:0:0:
83,294,84290,1,2,0:0:0:0:
59,308,84379,6,0,P|71:227|81:132,1,168.750006437302,6|2,0:0|0:0,0:0:0:0:
34,76,84996,5,2,0:0:0:0:
34,76,85084,2,0,P|85:101|142:82,1,112.500004291535,8|2,0:0|0:0,0:0:0:0:
285,160,85437,5,8,0:0:0:0:
277,187,85525,1,0,3:0:0:0:
270,214,85613,1,0,3:0:0:0:
265,242,85701,1,0,3:0:0:0:
261,269,85789,1,6,0:0:0:0:
256,192,85879,12,0,88084,0:0:0:0:
