osu file format v14

[General]
AudioFilename: audio.mp3
AudioLeadIn: 0
PreviewTime: 62320
Countdown: 0
SampleSet: Normal
StackLeniency: 0.3
Mode: 0
LetterboxInBreaks: 0
WidescreenStoryboard: 1

[Editor]
DistanceSpacing: 1.8
BeatDivisor: 4
GridSize: 32
TimelineZoom: 1

[Metadata]
Title:God Save The Girls
TitleUnicode:God Save The Girls
Artist:Shimoji Shino
ArtistUnicode:下地紫野
Creator:No_Gu
Version:Normal
Source:ステラのまほう
Tags:Stella no Mahou kz livetune Magic Azure Momochikun
BeatmapID:1099057
BeatmapSetID:517164

[Difficulty]
HPDrainRate:4
CircleSize:3
OverallDifficulty:3
ApproachRate:6
SliderMultiplier:1
SliderTickRate:1

[Events]
//Background and Video events
0,0,"GSGBG.png",0,0
Video,-397,"video.flv"
//Break Periods
//Storyboard Layer 0 (Background)
//Storyboard Layer 1 (Fail)
//Storyboard Layer 2 (Pass)
//Storyboard Layer 3 (Foreground)
//Storyboard Sound Samples

[TimingPoints]
1085,352.941176470588,4,2,1,70,1,0
26496,-100,4,1,1,70,0,0
37790,-100,4,2,2,70,0,0
39555,-100,4,2,1,70,0,0
40614,-100,4,2,2,70,0,0
42202,-100,4,2,1,70,0,0
43437,-100,4,2,2,70,0,0
45026,-100,4,2,1,70,0,0
46261,-100,4,2,2,70,0,0
47496,-100,4,2,1,70,0,0
49084,-100,4,2,2,70,0,0
54732,-100,4,1,1,70,0,0
60732,-100,4,2,1,30,0,0
60908,-100,4,2,1,40,0,0
61084,-100,4,2,1,50,0,0
61261,-100,4,2,1,60,0,0
61437,-100,4,2,1,70,0,0
63202,-100,4,1,1,70,0,1
69732,-100,4,1,1,90,0,1
70084,-100,4,1,1,70,0,1
71143,-100,4,1,1,90,0,1
71496,-100,4,1,1,70,0,1
74408,-100,4,1,1,70,0,0
74496,-100,4,1,1,70,0,1
85790,-100,4,1,1,70,0,0
85879,-100,4,2,1,5,0,0

[Colours]
Combo1 : 128,255,128
Combo2 : 255,255,128
Combo3 : 255,128,128
Combo4 : 128,255,255

[HitObjects]
72,65,1085,6,0,L|66:165,1,100,2|0,0:0|0:0,0:0:0:0:
117,239,1615,1,2,0:0:0:0:
195,194,1791,2,0,P|286:166|361:239,1,200,2|2,0:0|0:0,0:0:0:0:
58,341,3909,6,0,L|57:177,1,150,2|0,0:0|0:0,0:0:0:0:
116,122,4615,2,0,P|182:98|254:125,1,150,2|0,0:0|0:0,0:0:0:0:
334,164,5321,2,0,L|419:157,2,75,0|2|2,0:0|0:0|0:0,0:0:0:0:
262,218,6026,1,2,0:0:0:0:
445,57,6732,6,0,L|334:47,1,100,2|0,0:0|0:0,0:0:0:0:
264,89,7262,2,0,P|251:139|260:189,1,100,2|0,0:0|0:0,0:0:0:0:
310,260,7791,1,0,0:0:0:0:
220,269,7968,2,0,P|233:319|224:369,1,100,2|0,0:0|0:0,0:0:0:0:
136,349,8497,1,0,0:0:0:0:
50,375,8673,1,2,0:0:0:0:
256,192,9556,12,2,10968,0:0:0:0:
102,112,11673,6,0,L|98:42,2,50,8|0|0,0:0|1:0|0:0,0:0:0:0:
159,283,12379,6,0,L|155:353,2,50,4|0|8,1:2|0:0|0:0,0:0:0:0:
223,218,12909,2,0,P|271:209|332:228,1,100,4|0,1:2|1:0,0:0:0:0:
385,284,13438,1,8,0:0:0:0:
453,117,13791,6,0,L|449:47,2,50,4|0|0,1:2|1:0|1:0,0:0:0:0:
500,194,14321,2,0,P|453:208|400:190,1,100,4|0,1:2|1:0,0:0:0:0:
360,115,14850,1,8,0:3:0:0:
202,200,15202,6,0,L|197:321,1,100,4|8,1:2|0:0,0:0:0:0:
265,361,15732,2,0,P|313:374|364:359,1,100,0|0,1:0|1:0,0:0:0:0:
440,320,16262,1,8,0:0:0:0:
476,237,16438,2,0,P|479:187|472:137,1,100,0|0,1:0|1:0,0:0:0:0:
399,84,16968,1,8,0:0:0:0:
325,135,17144,2,0,L|221:133,1,100,0|0,1:0|1:0,0:0:0:0:
134,130,17673,1,8,0:0:0:0:
50,289,18026,6,0,L|43:225,2,50,0|0|8,1:0|0:0|0:0,0:0:0:0:
117,349,18556,2,0,P|166:356|225:351,1,100,0|0,1:0|1:0,0:0:0:0:
355,237,19262,2,0,L|350:123,1,100,4|0,1:2|1:0,0:0:0:0:
292,67,19791,1,8,0:0:0:0:
261,151,19968,2,0,P|211:156|142:144,1,100,0|0,1:0|1:0,0:0:0:0:
78,117,20497,1,8,0:0:0:0:
31,290,20850,6,0,L|138:286,1,100,4|8,1:2|0:0,0:0:0:0:
207,333,21379,2,0,L|314:329,1,100,0|0,1:0|1:0,0:0:0:0:
388,370,21909,1,8,0:0:0:0:
463,321,22085,2,0,P|470:275|460:215,1,100,0|0,1:0|1:0,0:0:0:0:
422,140,22615,1,8,0:0:0:0:
367,211,22791,2,0,L|254:208,1,100,0|4,1:0|1:2,0:0:0:0:
87,222,23497,1,4,3:0:0:0:
159,169,23673,6,0,L|157:107,2,50,0|4|4,1:0|3:0|3:0,0:0:0:0:
170,259,24203,2,0,P|163:313|171:367,1,100,0|0,1:0|1:0,0:0:0:0:
347,335,24909,2,0,L|463:341,1,100,4|2,1:2|0:0,0:0:0:0:
507,273,25438,1,0,0:0:0:0:
418,253,25615,2,0,P|414:207|421:146,1,100,2|0,0:0|1:0,0:0:0:0:
457,71,26144,1,8,0:0:0:0:
294,146,26496,5,4,0:2:0:0:
119,103,26849,2,0,L|8:109,2,100
181,169,27732,2,0,P|184:200|178:239,1,50,0|0,2:0|0:0,0:0:0:0:
166,307,28084,2,0,P|163:338|169:377,1,50,0|0,2:0|0:0,0:0:0:0:
344,340,28614,2,0,L|408:346,2,50,0|0|0,0:0|2:0|0:0,0:0:0:0:
246,187,29320,5,2,0:2:0:0:
405,102,29673,2,0,P|416:147|407:207,2,100
321,68,30555,2,0,L|256:71,1,50,0|0,2:0|0:0,0:0:0:0:
184,96,30908,2,0,L|119:93,1,50,0|0,2:0|0:0,0:0:0:0:
33,243,31437,2,0,P|29:273|28:297,2,50,0|0|0,0:0|2:0|0:0,0:0:0:0:
211,266,32143,6,0,L|324:265,1,100,2|0,0:2|0:0,0:0:0:0:
481,325,32849,2,0,P|498:277|480:221,1,100
419,169,33379,1,0,2:0:0:0:
329,170,33555,2,0,L|326:49,1,100,2|0,0:2|0:0,0:0:0:0:
240,42,34084,1,0,2:0:0:0:
172,102,34261,2,0,P|118:113|56:98,1,100
22,278,34967,6,0,P|76:267|138:282,1,100,2|0,0:2|0:0,0:0:0:0:
185,335,35496,1,0,2:0:0:0:
265,294,35673,2,0,L|259:190,1,100
123,75,36379,2,0,L|126:23,2,50,8|4|4,0:2|3:0|3:0,0:0:0:0:
166,153,36908,2,0,P|118:164|66:142,1,100,4|0,0:2|0:0,0:0:0:0:
31,65,37437,1,8,2:3:0:0:
47,244,37790,6,0,L|38:355,2,100,4|8|8,1:2|0:2|0:0,0:0:0:0:
117,186,38673,2,0,P|163:176|218:199,1,100,0|8,1:0|0:0,0:0:0:0:
336,324,39379,1,0,1:0:0:0:
405,267,39555,2,0,L|403:164,1,100,8|0,0:0|1:0,0:0:0:0:
474,111,40084,2,0,L|475:59,1,50,0|8,1:0|0:0,0:0:0:0:
294,59,40614,6,0,P|245:48|193:64,2,100,0|8|8,1:0|0:0|0:0,0:0:0:0:
347,131,41496,2,0,L|341:251,1,100,0|8,1:0|0:0,0:0:0:0:
176,159,42202,2,0,L|179:219,1,50,0|8,1:0|0:0,0:0:0:0:
1,172,42732,2,0,L|-2:232,2,50,0|0|8,1:0|1:0|0:0,0:0:0:0:
140,57,43437,6,0,P|203:52|251:75,1,100,0|8,1:0|0:0,0:0:0:0:
355,200,44143,2,0,L|415:196,1,50,8|0,0:0|1:0,0:0:0:0:
236,261,44673,2,0,P|219:217|232:162,1,100,8|0,0:0|1:0,0:0:0:0:
144,136,45202,2,0,P|114:172|60:188,1,100,8|0,0:0|1:0,0:0:0:0:
58,98,45732,1,0,1:0:0:0:
132,47,45908,1,8,0:0:0:0:
246,186,46261,6,0,L|349:184,1,100,0|8,1:0|0:0,0:0:0:0:
481,303,46967,2,0,P|486:330|486:361,1,50,8|0,0:0|1:0,0:0:0:0:
443,178,47496,2,0,P|433:124|433:62,1,100,12|0,0:0|1:0,0:0:0:0:
342,92,48026,2,0,L|226:86,1,100,8|8,0:0|0:0,0:0:0:0:
110,210,48732,1,8,0:0:0:0:
286,244,49084,6,0,P|297:299|284:352,1,100,4|0,1:2|0:0,0:0:0:0:
201,366,49614,2,0,L|96:361,1,100,0|0,1:0|0:0,0:0:0:0:
11,355,50143,1,8,0:0:0:0:
110,210,50496,2,0,P|119:157|108:101,1,100,0|0,1:0|1:0,0:0:0:0:
178,50,51026,2,0,L|286:53,1,100,0|0,1:0|1:0,0:0:0:0:
368,56,51555,1,8,0:0:0:0:
455,212,51908,6,0,P|462:270|454:321,1,100,0|0,1:0|1:0,0:0:0:0:
375,349,52437,2,0,L|274:345,1,100,0|0,1:0|0:0,0:0:0:0:
185,360,52967,1,8,0:0:0:0:
29,269,53320,2,0,P|26:234|29:194,2,75,0|2|0,1:0|0:0|1:0,0:0:0:0:
116,246,54026,2,0,L|221:251,1,100,0|8,0:0|0:0,0:0:0:0:
388,305,54732,6,0,P|398:254|391:200,1,100,2|0,0:2|0:0,0:0:0:0:
340,133,55261,1,0,2:0:0:0:
258,171,55437,2,0,L|144:168,1,100
90,335,56143,2,0,L|204:338,1,100,2|0,0:2|0:0,0:0:0:0:
275,366,56673,1,0,2:0:0:0:
358,333,56849,2,0,P|369:283|361:227,1,100,2|0,0:2|0:0,0:0:0:0:
274,77,57555,6,8,L|268:187,1,100,8|8,2:0|2:0,0:0:0:0:
89,197,58261,2,8,L|199:203,1,100,8|8,2:0|2:0,0:0:0:0:
215,381,58967,2,8,L|221:271,1,100,8|8,2:0|2:0,0:0:0:0:
400,261,59673,2,8,L|290:255,1,100,8|8,2:0|2:0,0:0:0:0:
120,238,60379,5,0,0:0:0:0:
229,95,60732,2,0,P|230:70|228:42,2,50,8|8|8,0:0|0:0|0:0,0:0:0:0:
250,182,61261,2,0,P|249:207|251:235,1,50,8|8,0:0|0:0,0:0:0:0:
309,300,61614,2,0,L|429:298,1,100,2|2,1:2|1:2,0:0:0:0:
499,294,62143,1,2,0:0:0:0:
228,56,62849,1,8,0:3:0:0:
172,227,63202,6,0,P|117:235|71:225,1,100,4|8,1:2|2:0,0:0:0:0:
242,161,63908,2,0,L|295:173,2,50,0|0|8,1:0|1:0|2:0,0:0:0:0:
422,157,64614,2,0,P|439:206|424:266,1,100,0|8,1:0|2:0,0:0:0:0:
357,304,65143,2,0,L|255:296,1,100
170,323,65673,1,8,2:0:0:0:
45,193,66026,6,0,P|33:138|45:80,1,100,0|8,0:0|2:0,0:0:0:0:
218,78,66732,2,0,L|210:20,2,50,0|0|8,0:0|0:0|2:0,0:0:0:0:
213,168,67261,2,0,L|335:160,1,100
382,104,67790,1,8,2:0:0:0:
463,144,67967,2,0,P|477:189|466:254,1,100
426,319,68496,1,8,2:0:0:0:
256,379,68849,5,0,0:0:0:0:
84,323,69202,2,0,L|28:330,1,50,8|0,2:0|0:0,0:0:0:0:
200,258,69732,2,0,P|203:235|201:209,1,50,8|8,2:1|2:1,0:0:0:0:
256,379,70261,1,0,0:0:0:0:
428,323,70614,2,0,L|484:330,1,50,8|0,2:0|0:0,0:0:0:0:
312,258,71144,2,0,P|309:235|311:209,1,50,8|8,2:1|2:1,0:0:0:0:
437,80,71673,6,0,L|329:84,1,100,0|8,0:0|2:0,0:0:0:0:
157,104,72379,2,0,P|155:75|157:46,2,50,0|0|8,0:0|0:0|2:0,0:0:0:0:
185,189,72908,2,0,P|189:247|185:305,1,100,4|0,0:2|0:0,0:0:0:0:
154,372,73437,1,8,2:0:0:0:
308,279,73790,2,0,L|372:284,2,50,8|0|8,2:0|0:0|2:3,0:0:0:0:
292,99,74496,6,0,P|236:81|187:92,1,100,4|8,0:2|2:0,0:0:0:0:
58,204,75202,2,0,L|6:197,2,50,0|0|8,0:0|0:0|2:0,0:0:0:0:
164,350,75908,2,0,P|220:368|269:357,1,100,0|8,0:0|2:0,0:0:0:0:
338,318,76437,2,0,P|394:300|443:311,1,100
507,359,76967,1,8,2:0:0:0:
423,199,77320,6,0,L|431:87,1,100,0|8,0:0|2:0,0:0:0:0:
256,146,78026,2,0,L|252:90,2,50,0|0|8,0:0|0:0|2:0,0:0:0:0:
184,311,78732,2,0,P|136:322|96:314,2,75,0|4|4,0:0|3:0|3:0,0:0:0:0:
264,271,79437,2,0,L|371:277,1,100,0|8,0:0|2:3,0:0:0:0:
457,122,80143,6,0,P|459:96|454:60,2,50,4|0|8,0:2|2:0|0:2,0:0:0:0:
383,174,80673,2,0,L|261:174,1,100
208,224,81202,1,8,2:0:0:0:
126,185,81379,2,0,P|118:133|131:78,1,100
195,28,81908,1,8,2:0:0:0:
341,132,82261,2,0,L|406:132,2,50,0|0|8,0:0|0:0|2:0,0:0:0:0:
222,268,82967,6,0,P|221:298|222:327,1,50,8|0,2:0|0:0,0:0:0:0:
309,338,83320,2,0,P|310:308|309:279,1,50,8|0,2:0|0:0,0:0:0:0:
382,235,83673,2,0,L|504:241,2,100,8|8|4,2:0|2:0|1:2,0:0:0:0:
42,115,85084,2,0,L|46:176,1,50,8|0,2:0|0:0,0:0:0:0:
54,254,85437,1,8,2:3:0:0:
223,316,85790,1,4,0:2:0:0:
256,192,85879,12,0,88084,0:0:0:0:
