osu file format v14

[General]
AudioFilename: audio.mp3
AudioLeadIn: 0
PreviewTime: 62320
Countdown: 0
SampleSet: Soft
StackLeniency: 0.3
Mode: 0
LetterboxInBreaks: 0
WidescreenStoryboard: 0

[Editor]
DistanceSpacing: 0.8
BeatDivisor: 4
GridSize: 32
TimelineZoom: 1

[Metadata]
Title:God Save The Girls
TitleUnicode:God Save The Girls
Artist:Shimoji Shino
ArtistUnicode:下地紫野
Creator:No_Gu
Version:Insane
Source:ステラのまほう
Tags:Stella no Mahou kz livetune Magic Azure Momochikun
BeatmapID:1098931
BeatmapSetID:517164

[Difficulty]
HPDrainRate:7
CircleSize:4
OverallDifficulty:8
ApproachRate:9
SliderMultiplier:1.6
SliderTickRate:1

[Events]
//Background and Video events
0,0,"GSGBG.png",0,0
Video,-397,"video.flv"
//Break Periods
//Storyboard Layer 0 (Background)
//Storyboard Layer 1 (Fail)
//Storyboard Layer 2 (Pass)
//Storyboard Layer 3 (Foreground)
//Storyboard Sound Samples

[TimingPoints]
1085,352.941176470588,4,2,1,70,1,0
1085,-133.333333333333,4,2,1,70,0,0
12026,-100,4,2,1,70,0,0
12555,-100,4,2,1,20,0,0
12908,-100,4,2,1,70,0,0
13261,-100,4,2,1,20,0,0
13437,-100,4,2,1,70,0,0
13526,-100,4,2,1,20,0,0
13790,-100,4,2,1,70,0,0
24555,-100,4,2,1,20,0,0
24908,-100,4,2,1,70,0,0
37790,-100,4,2,2,70,0,0
39555,-100,4,2,1,70,0,0
40614,-100,4,2,2,70,0,0
42379,-100,4,2,1,70,0,0
43437,-100,4,2,2,70,0,0
44849,-100,4,2,1,70,0,0
49084,-133.333333333333,4,2,2,70,0,0
51379,-133.333333333333,4,1,0,30,0,0
51555,-133.333333333333,4,2,2,70,0,0
52790,-133.333333333333,4,1,0,30,0,0
52967,-133.333333333333,4,2,2,70,0,0
54202,-133.333333333333,4,1,0,30,0,0
54379,-133.333333333333,4,2,2,70,0,0
54732,-100,4,2,1,70,0,0
60732,-100,4,2,1,30,0,0
60908,-100,4,2,1,40,0,0
61084,-100,4,2,1,50,0,0
61261,-100,4,2,1,60,0,0
61437,-100,4,2,1,70,0,0
61614,-66.6666666666667,4,2,1,70,0,0
62320,-100,4,2,1,70,0,0
63202,-100,4,2,1,70,0,1
69732,-100,4,2,1,90,0,1
69820,-100,4,2,1,70,0,1
69908,-100,4,2,1,90,0,1
69996,-100,4,2,1,70,0,1
71143,-100,4,2,1,90,0,1
71232,-100,4,2,1,70,0,1
71320,-100,4,2,1,90,0,1
71408,-100,4,2,1,70,0,1
74408,-100,4,2,1,70,0,0
74496,-100,4,2,1,70,0,1
85790,-100,4,2,1,70,0,0
85879,-100,4,2,1,5,0,0

[Colours]
Combo1 : 128,255,128
Combo2 : 255,255,128
Combo3 : 255,128,128
Combo4 : 128,255,255

[HitObjects]
181,191,203,5,0,0:0:0:0:
89,161,379,1,2,0:0:0:0:
89,65,556,1,2,0:0:0:0:
181,35,732,1,2,0:0:0:0:
237,113,909,1,2,0:0:0:0:
100,248,1085,6,0,L|35:244,1,60.0000022888184,2|0,0:0|0:0,0:0:0:0:
190,284,1437,2,0,L|255:280,1,60.0000022888184,0|2,0:0|0:0,0:0:0:0:
112,339,1791,1,2,0:0:0:0:
112,339,2496,5,2,0:0:0:0:
112,339,3026,1,0,0:0:0:0:
68,252,3202,1,2,0:0:0:0:
136,184,3379,1,2,0:0:0:0:
222,228,3555,1,2,0:0:0:0:
206,323,3732,1,2,0:0:0:0:
281,132,3908,6,0,P|257:64|217:135,1,180.000006866455,2|0,0:0|0:0,0:0:0:0:
111,135,4614,2,0,P|66:116|83:168,1,120.000004577637,2|0,0:0|0:0,0:0:0:0:
27,252,5143,1,2,0:0:0:0:
256,216,5320,6,0,L|356:220,2,90.0000034332277,0|2|2,0:0|0:0|0:0,0:0:0:0:
165,208,6026,1,2,0:0:0:0:
165,208,6732,5,2,0:0:0:0:
218,288,6908,1,2,0:0:0:0:
312,262,7084,1,2,0:0:0:0:
314,166,7261,1,2,0:0:0:0:
224,132,7614,1,0,0:0:0:0:
314,166,7791,1,0,0:0:0:0:
399,122,7967,1,2,0:0:0:0:
224,132,8320,5,2,0:0:0:0:
336,141,8497,1,0,0:0:0:0:
423,64,8673,1,2,0:0:0:0:
423,64,9026,2,0,L|498:70,2,60.0000022888184,0|2|0,0:0|0:0|0:0,0:0:0:0:
256,192,9555,12,2,10967,0:0:0:0:
63,76,11496,5,0,1:0:0:0:
63,76,11584,1,0,1:0:0:0:
63,76,11673,2,0,L|56:153,1,60.0000022888184,8|0,1:2|1:0,0:0:0:0:
340,297,12026,2,8,L|395:299,1,40,8|8,0:3|0:3,0:0:0:0:
191,270,12202,2,8,L|136:272,1,40,8|8,0:3|0:3,0:0:0:0:
278,225,12379,6,0,P|285:185|275:136,1,80,4|8,1:2|0:0,0:0:0:0:
271,121,12643,1,8,0:0:0:0:
261,96,12731,1,8,0:0:0:0:
252,71,12819,1,8,0:0:0:0:
243,46,12907,1,4,1:2:0:0:
105,228,13261,1,8,0:0:0:0:
105,228,13349,1,8,0:0:0:0:
105,228,13437,2,0,P|106:251|114:278,1,40,12|8,3:0|0:0,0:0:0:0:
233,306,13614,2,0,P|245:325|265:344,1,40,8|8,0:0|0:0,0:0:0:0:
381,307,13790,6,0,P|419:320|461:318,1,80,4|0,1:2|1:0,0:0:0:0:
512,249,14143,1,0,1:0:0:0:
283,352,14320,2,0,P|191:360|99:339,1,160,4|0,1:2|1:0,0:0:0:0:
35,68,14849,1,8,0:3:0:0:
71,52,14937,1,8,0:3:0:0:
110,54,15025,1,8,0:3:0:0:
145,74,15113,1,8,0:3:0:0:
167,107,15202,6,0,P|181:148|169:193,1,80,4|0,1:2|0:0,0:0:0:0:
85,149,15555,1,8,0:0:0:0:
258,233,15732,2,0,P|340:240|391:185,1,160,0|0,1:0|1:0,0:0:0:0:
301,154,16261,1,8,0:0:0:0:
376,318,16437,1,2,1:2:0:0:
376,318,16526,1,2,0:0:0:0:
376,318,16614,6,0,L|462:313,1,80,0|0,0:0|1:0,0:0:0:0:
298,351,16967,1,8,0:0:0:0:
510,249,17143,1,2,1:2:0:0:
416,132,17320,2,0,P|412:175|423:217,1,80,2|0,0:0|1:0,0:0:0:0:
498,167,17673,1,8,0:0:0:0:
343,75,17849,1,0,0:0:0:0:
343,75,17937,1,0,0:0:0:0:
343,75,18026,6,0,L|262:80,1,80,2|0,1:2|0:0,0:0:0:0:
429,43,18379,1,8,0:0:0:0:
185,132,18555,2,0,P|161:213|201:276,1,160,2|0,1:2|1:0,0:0:0:0:
253,198,19084,1,8,0:0:0:0:
129,62,19261,6,0,B|72:48|17:59|17:59|76:75,1,160,4|0,1:2|1:0,0:0:0:0:
266,115,19790,1,8,0:0:0:0:
40,146,19967,2,0,P|18:219|68:279,1,160,2|0,1:2|1:0,0:0:0:0:
67,278,20408,1,0,1:0:0:0:
67,278,20496,1,12,0:0:0:0:
240,210,20673,1,8,0:3:0:0:
240,210,20761,1,8,0:3:0:0:
240,210,20849,6,0,L|321:215,1,80,4|0,1:2|0:0,0:0:0:0:
413,223,21202,1,8,0:0:0:0:
187,135,21379,2,0,P|147:202|182:273,1,160,0|0,1:0|1:0,0:0:0:0:
258,312,21908,1,8,0:0:0:0:
415,273,22084,1,2,1:2:0:0:
415,273,22173,1,0,0:0:0:0:
415,273,22261,6,0,P|376:261|327:265,1,80,0|0,0:0|1:0,0:0:0:0:
372,351,22614,1,8,0:0:0:0:
455,196,22790,1,2,1:2:0:0:
286,331,22967,1,0,0:0:0:0:
267,328,23055,1,0,0:0:0:0:
248,326,23143,2,0,L|82:330,1,160,4|4,1:2|3:0,0:0:0:0:
47,136,23673,6,0,P|88:131|133:136,1,80,4|4,1:2|3:0,0:0:0:0:
209,181,24026,1,4,3:0:0:0:
290,133,24202,2,0,L|295:48,1,80,4|0,1:2|0:0,0:0:0:0:
294,225,24555,1,8,0:0:0:0:
295,254,24643,1,8,0:0:0:0:
297,284,24731,1,8,0:0:0:0:
299,314,24819,1,8,0:0:0:0:
301,344,24908,6,0,B|332:373|332:373|398:387|430:328,1,160,4|2,1:2|0:0,0:0:0:0:
417,240,25437,1,0,0:0:0:0:
216,353,25614,2,0,L|69:348,1,120,2|0,0:0|0:0,0:0:0:0:
56,359,25967,2,0,L|49:330,4,20,0|2|0|2|8,1:0|0:0|1:0|0:0|0:0,0:0:0:0:
129,74,26496,5,4,1:0:0:0:
129,74,26849,2,0,P|166:68|211:75,1,80,0|0,1:0|0:0,0:0:0:0:
298,100,27202,2,0,P|335:106|380:99,1,80,0|2,1:0|0:0,0:0:0:0:
450,42,27555,1,0,1:0:0:0:
464,212,27732,6,0,L|472:131,1,80,2|0,0:0|1:0,0:0:0:0:
392,276,28084,2,0,L|400:357,1,80,2|0,0:0|1:0,0:0:0:0:
307,325,28437,1,0,0:0:0:0:
307,229,28613,1,0,1:0:0:0:
399,199,28790,1,0,0:0:0:0:
455,277,28967,2,0,P|458:319|451:364,1,80,0|0,1:0|0:0,0:0:0:0:
323,131,29320,5,2,1:2:0:0:
323,131,29673,2,0,L|403:128,1,80,0|0,1:0|0:0,0:0:0:0:
238,188,30026,2,0,L|158:185,1,80,0|2,1:0|0:0,0:0:0:0:
325,222,30379,1,0,1:0:0:0:
239,102,30555,6,0,P|234:65|241:21,1,80,2|0,0:0|1:0,0:0:0:0:
325,222,30908,2,0,P|330:259|323:303,1,80,0|0,0:0|1:0,0:0:0:0:
245,348,31261,1,0,0:0:0:0:
241,257,31437,1,0,1:0:0:0:
326,384,31614,1,0,0:0:0:0:
161,304,31790,2,0,L|82:304,1,80,0|0,1:0|0:0,0:0:0:0:
323,300,32143,5,2,1:2:0:0:
323,300,32496,2,0,P|382:284|437:312,1,120,0|0,1:0|0:0,0:0:0:0:
452,324,32849,2,0,L|460:235,1,80,0|0,1:0|0:0,0:0:0:0:
396,173,33202,1,0,1:0:0:0:
300,177,33379,1,0,0:0:0:0:
231,242,33555,6,0,P|226:283|242:329,1,80,2|0,1:2|0:0,0:0:0:0:
317,276,33908,1,0,1:0:0:0:
143,285,34084,2,0,L|34:290,1,80,0|0,0:0|1:0,0:0:0:0:
316,361,34437,2,0,L|425:356,1,80,0|0,0:0|1:0,0:0:0:0:
168,365,34790,1,0,0:0:0:0:
257,234,34967,6,0,P|266:160|256:72,1,160,2|0,1:2|1:0,0:0:0:0:
170,105,35496,1,2,0:0:0:0:
351,123,35673,2,0,P|391:127|434:122,1,80,0|0,1:0|0:0,0:0:0:0:
492,61,36026,1,0,1:0:0:0:
465,202,36202,1,2,0:0:0:0:
465,202,36290,1,2,0:0:0:0:
465,202,36379,6,0,L|474:291,1,80,8|4,1:2|3:0,0:0:0:0:
509,126,36732,1,2,0:2:0:0:
415,351,36908,2,4,P|340:370|275:320,1,160,4|0,1:2|1:0,0:2:0:0:
217,145,37437,1,8,0:3:0:0:
217,145,37526,1,8,0:3:0:0:
217,145,37614,1,8,0:3:0:0:
217,145,37702,1,8,0:3:0:0:
217,145,37790,6,0,L|304:142,1,80,4|0,1:2|0:0,0:0:0:0:
132,186,38143,2,0,P|120:143|124:109,1,80,8|2,0:0|0:0,0:0:0:0:
198,55,38496,1,8,0:0:0:0:
219,233,38673,1,0,1:0:0:0:
219,233,39026,1,8,0:0:0:0:
219,233,39379,5,0,1:0:0:0:
314,250,39555,1,8,0:0:0:0:
256,326,39732,1,0,0:0:0:0:
256,326,39820,1,0,0:0:0:0:
256,326,39908,2,0,P|214:330|169:320,1,80,0|0,1:0|1:0,0:0:0:0:
339,366,40261,1,8,0:0:0:0:
421,315,40437,1,2,0:0:0:0:
421,315,40526,1,0,0:0:0:0:
421,315,40614,6,0,P|426:277|422:230,1,80,0|2,1:0|0:0,0:0:0:0:
255,272,40967,2,0,L|343:270,1,80,8|2,0:0|0:0,0:0:0:0:
177,322,41320,1,8,0:0:0:0:
345,181,41496,1,0,1:0:0:0:
345,181,41849,1,8,0:0:0:0:
345,181,42202,5,0,1:0:0:0:
263,127,42379,1,8,0:0:0:0:
244,227,42555,1,0,0:0:0:0:
244,227,42643,1,0,0:0:0:0:
244,227,42732,2,0,L|249:308,1,80,0|0,1:0|1:0,0:0:0:0:
335,75,43084,1,8,0:0:0:0:
306,47,43172,1,0,0:0:0:0:
268,35,43260,1,2,0:0:0:0:
229,41,43348,1,0,0:0:0:0:
196,64,43437,6,0,P|155:68|102:62,1,80,0|0,1:0|0:0,0:0:0:0:
260,205,43790,2,0,P|268:163|261:122,1,80,8|2,0:0|0:0,0:0:0:0:
176,161,44143,1,8,0:0:0:0:
354,175,44320,1,0,1:0:0:0:
354,175,44673,1,8,0:0:0:0:
372,267,44849,5,0,1:0:0:0:
448,212,45025,1,0,1:0:0:0:
279,236,45201,1,8,0:0:0:0:
462,304,45379,1,2,0:0:0:0:
462,304,45467,1,8,0:0:0:0:
462,304,45555,1,0,1:0:0:0:
431,122,45732,2,0,P|430:85|433:38,1,80,0|8,1:0|0:0,0:0:0:0:
512,84,46084,1,2,0:0:0:0:
345,74,46261,6,0,P|264:72|180:75,1,160,0|8,1:0|0:0,0:0:0:0:
112,137,46790,1,0,0:0:0:0:
112,137,46879,1,0,0:0:0:0:
112,137,46967,1,0,1:0:0:0:
173,289,47143,2,0,L|175:209,1,80,0|0,1:0|0:0,0:0:0:0:
98,335,47496,6,0,P|159:377|238:343,1,160,4|0,1:2|1:0,0:0:0:0:
291,185,48026,1,2,0:0:0:0:
293,277,48202,1,0,1:0:0:0:
225,121,48379,1,8,0:0:0:0:
379,229,48555,1,0,1:0:0:0:
418,228,48643,1,8,0:0:0:0:
455,213,48731,1,8,0:0:0:0:
483,185,48819,1,8,0:0:0:0:
499,148,48907,1,8,0:0:0:0:
499,108,48996,1,8,0:0:0:0:
484,71,49084,6,0,L|493:196,1,120.000004577637,4|0,1:2|0:0,0:0:0:0:
436,263,49614,2,0,P|386:285|320:263,1,120.000004577637,0|0,1:0|0:0,0:0:0:0:
186,70,50143,2,0,L|257:64,1,60.0000022888184,8|0,0:0|1:0,0:0:0:0:
157,148,50496,6,0,P|114:122|102:54,1,120.000004577637,0|0,1:0|1:0,0:0:0:0:
244,147,51026,2,0,L|241:268,1,120.000004577637,0|0,1:0|0:0,0:0:0:0:
241,266,51467,1,0,0:0:0:0:
292,334,51555,1,8,0:0:0:0:
403,212,51732,1,4,3:0:0:0:
283,100,51908,6,0,P|236:92|196:110,1,90.0000034332277,0|0,1:0|0:0,0:0:0:0:
198,108,52261,1,0,1:0:0:0:
145,173,52437,2,0,P|83:187|25:162,1,120.000004577637,0|0,1:0|0:0,0:0:0:0:
31,167,52879,1,0,0:0:0:0:
15,97,52967,2,0,L|19:31,1,60.0000022888184,8|0,0:0|1:0,0:0:0:0:
236,212,53320,6,0,L|342:209,1,90.0000034332277,0|2,1:0|0:0,0:0:0:0:
347,226,53673,1,0,1:0:0:0:
227,298,53849,1,0,1:0:0:0:
169,172,54026,2,0,P|168:144|172:103,1,60.0000022888184,2|0,0:0|0:0,0:0:0:0:
170,112,54290,1,0,0:0:0:0:
210,44,54379,1,8,0:0:0:0:
321,294,54555,1,2,0:0:0:0:
321,294,54643,1,2,0:0:0:0:
321,294,54732,6,0,L|239:291,1,80,0|0,1:0|0:0,0:0:0:0:
395,347,55084,1,0,1:0:0:0:
465,213,55261,2,0,P|470:255|465:298,1,80,0|0,0:0|1:0,0:0:0:0:
386,157,55614,2,0,P|381:115|386:72,1,80,0|0,0:0|1:0,0:0:0:0:
307,204,55967,1,2,0:0:0:0:
307,204,56055,1,2,0:0:0:0:
307,204,56143,6,0,L|219:203,1,80,0|0,1:0|0:0,0:0:0:0:
147,258,56496,2,0,B|122:218|139:161|139:161|109:171|101:212,1,160,0|0,1:0|1:0,0:0:0:0:
219,118,57026,1,0,1:0:0:0:
219,118,57114,1,2,0:0:0:0:
219,118,57202,2,0,P|226:73|213:25,1,80,0|0,1:0|0:0,0:0:0:0:
301,63,57467,1,8,0:0:0:0:
301,63,57555,6,0,L|391:59,1,80,8|0,0:0|1:0,0:0:0:0:
413,240,57908,2,0,P|374:249|330:237,1,80,8|0,0:0|1:0,0:0:0:0:
284,80,58261,2,0,L|374:76,1,80,8|0,0:0|1:0,0:0:0:0:
268,292,58614,2,0,P|229:280|197:247,1,80,8|0,0:0|1:0,0:0:0:0:
266,100,58967,6,0,L|356:96,1,80,8|0,0:0|1:0,0:0:0:0:
120,245,59320,2,0,P|92:215|81:171,1,80,8|0,0:0|1:0,0:0:0:0:
248,121,59673,2,0,L|338:117,1,80,8|0,0:0|1:0,0:0:0:0:
9,128,60026,1,8,0:0:0:0:
8,98,60114,1,2,0:0:0:0:
18,69,60202,1,0,1:0:0:0:
37,46,60290,1,2,0:0:0:0:
63,31,60378,5,0,1:0:0:0:
63,31,60732,1,8,0:0:0:0:
239,57,60908,1,8,0:0:0:0:
41,118,61084,1,8,0:0:0:0:
261,143,61260,1,8,0:0:0:0:
14,204,61437,1,2,0:0:0:0:
17,238,61526,1,2,0:0:0:0:
20,272,61614,6,0,P|93:318|87:212,1,240.000009155274,0|0,1:0|1:0,0:0:0:0:
3,191,62143,1,10,0:0:0:0:
212,239,62320,1,0,1:0:0:0:
212,239,62408,1,8,0:0:0:0:
212,239,62496,2,0,L|303:235,1,80,0|0,1:0|1:0,0:0:0:0:
87,81,62849,1,8,0:3:0:0:
87,81,62937,1,8,0:3:0:0:
87,81,63026,1,8,0:3:0:0:
87,81,63114,1,8,0:3:0:0:
87,81,63202,6,0,P|76:143|91:203,1,120,4|0,1:2|0:0,0:0:0:0:
88,197,63555,2,0,L|170:196,1,80,8|0,0:2|0:0,0:0:0:0:
230,243,63820,1,8,0:0:0:0:
230,243,63908,2,0,L|312:244,1,80,0|0,1:0|1:0,0:0:0:0:
377,177,64261,1,8,0:0:0:0:
407,293,64437,1,2,0:0:0:0:
407,293,64526,1,0,0:0:0:0:
407,293,64614,6,0,P|413:333|404:379,1,80,2|0,1:2|0:2,0:0:0:0:
316,329,64967,1,8,0:0:0:0:
483,243,65143,2,0,P|502:194|476:127,1,120,2|0,1:2|0:0,0:0:0:0:
417,90,65496,1,0,1:0:0:0:
409,190,65673,1,10,0:0:0:0:
499,47,65849,1,0,0:0:0:0:
333,139,66026,6,0,L|210:134,1,120,2|0,1:2|0:0,0:0:0:0:
213,134,66379,2,0,P|207:176|213:218,1,80,8|0,0:0|0:0,0:0:0:0:
242,282,66643,1,8,0:0:0:0:
242,282,66732,2,0,P|247:324|241:366,1,80,0|0,1:0|1:0,0:0:0:0:
155,318,67084,1,8,0:0:0:0:
336,329,67261,2,0,L|422:327,1,80,2|0,1:2|0:0,0:0:0:0:
155,318,67614,5,0,1:0:0:0:
323,244,67790,2,0,P|331:205|323:162,1,80,8|0,0:0|1:0,0:0:0:0:
245,117,68143,1,0,0:0:0:0:
245,117,68232,1,0,0:0:0:0:
245,117,68320,1,0,1:0:0:0:
88,175,68496,2,0,L|177:177,1,80,8|0,0:0|0:0,0:0:0:0:
236,239,68761,1,8,0:0:0:0:
236,239,68849,6,0,B|256:296|235:347|235:347|232:323|208:303,1,160,2|8,1:2|0:0,0:0:0:0:
126,278,69379,1,0,1:0:0:0:
126,278,69732,2,0,L|177:275,1,40,8|2,0:1|0:0,0:0:0:0:
327,258,69908,1,8,0:1:0:0:
327,258,70261,6,0,B|307:315|328:366|328:366|331:342|355:322,1,160,2|8,1:2|0:0,0:0:0:0:
437,297,70791,1,0,1:0:0:0:
437,297,71143,2,0,L|386:294,1,40,8|2,0:1|0:0,0:0:0:0:
236,277,71320,2,0,L|287:274,1,40,8|2,0:1|0:0,0:0:0:0:
363,186,71496,2,0,P|366:165|363:139,1,40,2|0,0:0|0:0,0:0:0:0:
302,80,71673,6,0,P|224:74|142:77,1,160,2|8,1:2|0:0,0:0:0:0:
142,76,72114,1,0,0:0:0:0:
142,76,72202,1,0,0:0:0:0:
195,245,72379,2,0,L|194:166,1,80,0|0,1:0|1:0,0:0:0:0:
125,310,72732,1,8,0:0:0:0:
285,252,72908,6,0,P|362:238|434:277,1,160,4|0,1:2|1:0,0:0:0:0:
467,357,73437,1,8,0:0:0:0:
484,201,73614,1,0,1:0:0:0:
484,201,73702,1,8,0:0:0:0:
484,201,73790,2,0,L|490:104,1,80,0|0,1:0|1:0,0:0:0:0:
353,347,74143,1,8,0:3:0:0:
353,347,74232,1,8,0:3:0:0:
353,347,74320,1,8,0:3:0:0:
353,347,74408,1,8,0:3:0:0:
353,347,74496,6,0,P|280:354|201:346,1,120,4|0,1:2|0:0,0:0:0:0:
233,351,74849,2,0,L|227:254,1,80,8|0,0:0|0:0,0:0:0:0:
175,212,75114,1,8,0:0:0:0:
175,212,75202,2,0,L|181:115,1,80,0|0,1:0|1:0,0:0:0:0:
254,73,75555,1,8,0:0:0:0:
396,142,75732,1,0,0:0:0:0:
396,142,75820,1,0,0:0:0:0:
396,142,75908,6,0,P|355:150|306:141,1,80,2|0,1:2|0:0,0:0:0:0:
357,63,76261,1,8,0:0:0:0:
435,230,76437,2,0,P|360:244|270:228,1,160,2|0,1:2|1:0,0:0:0:0:
219,99,76967,2,0,L|222:45,1,40,8|0,0:0|0:0,0:0:0:0:
187,168,77143,2,0,L|190:222,1,40
142,104,77320,6,0,P|83:99|21:103,1,120,2|0,1:2|0:0,0:0:0:0:
22,102,77673,2,0,L|17:194,1,80,8|0,0:0|0:0,0:0:0:0:
0,255,77937,1,0,0:0:0:0:
0,255,78026,2,0,L|4:347,1,80,0|0,1:0|1:0,0:0:0:0:
83,376,78379,1,8,0:0:0:0:
316,330,78555,1,0,0:0:0:0:
316,330,78643,1,0,0:0:0:0:
316,330,78732,5,8,0:0:0:0:
257,95,78996,1,4,0:3:0:0:
83,264,79261,1,4,0:3:0:0:
219,230,79437,2,0,L|307:236,1,80,2|0,0:0|1:0,0:0:0:0:
150,166,79790,2,0,P|148:144|148:124,1,40,8|8,0:3|0:3,0:0:0:0:
337,74,79967,2,0,P|339:96|339:116,1,40,8|8,0:3|0:3,0:0:0:0:
262,264,80143,6,0,L|257:180,1,80,4|0,1:2|0:0,0:0:0:0:
346,316,80496,1,8,0:0:0:0:
174,322,80673,2,0,L|164:154,1,160,2|2,1:2|1:2,0:0:0:0:
222,92,81202,1,8,0:0:0:0:
394,179,81379,6,0,P|324:214|256:177,1,160,2|2,1:2|1:2,0:0:0:0:
328,128,81908,1,8,0:0:0:0:
459,262,82084,1,10,0:0:0:0:
459,262,82173,1,8,0:0:0:0:
459,262,82261,2,0,L|452:355,1,80,0|0,1:0|1:0,0:0:0:0:
405,110,82614,2,0,P|381:103|357:101,1,40,8|0,0:0|0:0,0:0:0:0:
252,58,82790,2,0,P|227:63|205:74,1,40,2|0,0:0|0:0,0:0:0:0:
87,86,82967,6,0,L|80:167,1,80,8|0,0:0|1:0,0:0:0:0:
267,238,83320,2,0,L|260:157,1,80,8|0,0:0|1:0,0:0:0:0:
148,273,83673,1,8,0:0:0:0:
378,299,83849,1,0,0:0:0:0:
413,281,83937,1,8,0:0:0:0:
440,252,84025,1,8,0:0:0:0:
456,215,84113,1,8,0:0:0:0:
458,175,84201,1,8,0:0:0:0:
447,137,84290,1,8,0:0:0:0:
423,106,84378,5,4,1:2:0:0:
423,106,84908,1,0,1:0:0:0:
423,106,84996,1,0,1:0:0:0:
423,106,85084,1,8,0:0:0:0:
305,187,85261,1,0,1:0:0:0:
166,160,85438,1,8,0:3:0:0:
162,130,85526,1,8,0:3:0:0:
159,100,85614,1,8,0:3:0:0:
156,70,85702,1,8,0:3:0:0:
153,40,85790,5,4,1:2:0:0:
256,192,85879,12,0,88084,0:0:0:0:
