osu file format v14

[General]
AudioFilename: audio.mp3
AudioLeadIn: 0
PreviewTime: 52416
Countdown: 0
SampleSet: Normal
StackLeniency: 0.7
Mode: 1
LetterboxInBreaks: 0
WidescreenStoryboard: 0

[Editor]
DistanceSpacing: 0.8
BeatDivisor: 4
GridSize: 4
TimelineZoom: 0.6999999

[Metadata]
Title:YUME Biyori
TitleUnicode:YUME日和
Artist:Shimatani Hitomi
ArtistUnicode:島谷ひとみ
Creator:Charlotte
Version:Futsuu
Source:映画ドラえもん のび太のワンニャン時空伝
Tags:Doraemon the movie nobita in the wan-nyan spacetime odyssey ending ed anime pop jpop j-pop japanese Delicious! ~The Best of Hitomi Shimatani~ -15th Anniversary- SUPER BEST HITOMI Shimatani theme song tv size short [R] Ron wmfchris
BeatmapID:2302773
BeatmapSetID:882041

[Difficulty]
HPDrainRate:8
CircleSize:5
OverallDifficulty:3
ApproachRate:5
SliderMultiplier:1.4
SliderTickRate:1

[Events]
//Background and Video events
0,0,"BG.jpg",0,50
//Break Periods
//Storyboard Layer 0 (Background)
//Storyboard Layer 1 (Fail)
//Storyboard Layer 2 (Pass)
//Storyboard Layer 3 (Foreground)
//Storyboard Layer 4 (Overlay)
//Storyboard Sound Samples

[TimingPoints]
-1714,652.173913043478,4,1,0,50,1,0
32199,-100,4,1,0,60,0,0
53068,-100,4,1,0,70,0,1
73938,-100,4,1,0,50,0,0
74427,-100,4,1,0,60,0,0

[HitObjects]
254,192,894,5,8,0:0:0:0:
254,192,1872,1,0,0:0:0:0:
254,192,2199,1,8,0:0:0:0:
254,192,2851,1,0,0:0:0:0:
254,192,3503,1,8,0:0:0:0:
254,192,4481,1,8,0:0:0:0:
254,192,4807,1,0,0:0:0:0:
254,192,5459,1,8,0:0:0:0:
254,192,6112,1,4,0:0:0:0:
254,192,7090,1,0,0:0:0:0:
254,192,7416,1,8,0:0:0:0:
254,192,8068,1,8,0:0:0:0:
254,192,8720,1,0,0:0:0:0:
254,192,9046,1,0,0:0:0:0:
254,192,9372,1,8,0:0:0:0:
254,192,9862,1,0,0:0:0:0:
254,192,11329,1,12,0:0:0:0:
254,192,11981,1,0,0:0:0:0:
254,192,12633,1,8,0:0:0:0:
254,192,13285,1,0,0:0:0:0:
254,192,13612,1,8,0:0:0:0:
254,192,13938,1,0,0:0:0:0:
254,192,14590,1,0,0:0:0:0:
254,192,15242,1,8,0:0:0:0:
254,192,16546,1,8,0:0:0:0:
254,192,17199,1,0,0:0:0:0:
254,192,17851,1,8,0:0:0:0:
254,192,18503,1,0,0:0:0:0:
254,192,18829,1,8,0:0:0:0:
254,192,19481,1,8,0:0:0:0:
254,192,19807,1,8,0:0:0:0:
254,192,20785,1,0,0:0:0:0:
254,192,21112,1,0,0:0:0:0:
254,192,21764,1,8,0:0:0:0:
254,192,22416,1,0,0:0:0:0:
254,192,23068,1,8,0:0:0:0:
254,192,23720,1,8,0:0:0:0:
254,192,24046,1,0,0:0:0:0:
254,192,24372,1,8,0:0:0:0:
254,192,25025,1,0,0:0:0:0:
254,192,25677,1,8,0:0:0:0:
256,192,26981,12,0,28285,0:0:0:0:
255,191,28938,5,8,0:0:0:0:
255,191,29590,1,0,0:0:0:0:
255,191,30894,1,8,0:0:0:0:
255,191,32199,1,4,0:0:0:0:
255,191,32851,1,8,0:0:0:0:
255,191,33503,1,8,0:0:0:0:
255,191,33829,1,8,0:0:0:0:
255,191,34155,1,0,0:0:0:0:
255,191,34807,1,8,0:0:0:0:
255,191,35459,1,0,0:0:0:0:
255,191,35785,1,0,0:0:0:0:
255,191,36112,1,8,0:0:0:0:
255,191,37416,1,8,0:0:0:0:
255,191,38068,1,0,0:0:0:0:
255,191,38720,1,8,0:0:0:0:
255,191,39046,1,8,0:0:0:0:
255,191,39372,1,0,0:0:0:0:
255,191,40025,1,8,0:0:0:0:
255,191,40677,1,0,0:0:0:0:
255,191,41003,1,8,0:0:0:0:
255,191,41655,1,8,0:0:0:0:
255,191,41981,1,0,0:0:0:0:
255,191,42633,1,8,0:0:0:0:
255,191,43285,1,8,0:0:0:0:
255,191,43938,1,0,0:0:0:0:
255,191,44264,1,0,0:0:0:0:
255,191,44590,1,8,0:0:0:0:
255,191,45242,1,0,0:0:0:0:
255,191,45894,1,8,0:0:0:0:
255,191,46546,1,0,0:0:0:0:
255,191,46872,1,0,0:0:0:0:
255,191,47199,1,8,0:0:0:0:
255,191,47851,1,0,0:0:0:0:
255,191,48503,1,8,0:0:0:0:
255,191,49155,1,0,0:0:0:0:
255,191,49481,1,0,0:0:0:0:
255,191,49807,1,8,0:0:0:0:
255,191,50133,1,8,0:0:0:0:
255,191,50459,1,0,0:0:0:0:
255,191,53068,1,4,0:0:0:0:
255,191,53720,1,8,0:0:0:0:
255,191,54372,1,0,0:0:0:0:
255,191,54699,1,0,0:0:0:0:
255,191,55025,1,8,0:0:0:0:
255,191,55677,1,0,0:0:0:0:
255,191,56329,1,8,0:0:0:0:
255,191,56981,1,0,0:0:0:0:
255,191,57633,1,8,0:0:0:0:
255,191,57959,1,8,0:0:0:0:
255,191,58285,1,0,0:0:0:0:
255,191,58938,1,8,0:0:0:0:
255,191,59590,1,8,0:0:0:0:
255,191,59916,1,0,0:0:0:0:
255,191,60242,1,8,0:0:0:0:
255,191,60894,1,0,0:0:0:0:
255,191,61546,1,8,0:0:0:0:
255,191,62199,1,0,0:0:0:0:
255,191,62525,1,8,0:0:0:0:
255,191,62851,1,0,0:0:0:0:
255,191,63177,1,8,0:0:0:0:
255,191,63503,1,4,0:0:0:0:
255,191,64155,1,8,0:0:0:0:
255,191,64807,1,0,0:0:0:0:
255,191,65133,1,0,0:0:0:0:
255,191,65459,1,8,0:0:0:0:
255,191,66112,1,0,0:0:0:0:
255,191,66764,1,0,0:0:0:0:
255,191,67416,1,8,0:0:0:0:
255,191,68720,1,8,0:0:0:0:
255,191,69046,1,0,0:0:0:0:
255,191,69699,1,0,0:0:0:0:
255,191,70025,1,8,0:0:0:0:
255,191,70351,1,0,0:0:0:0:
255,191,71003,1,0,0:0:0:0:
255,191,71329,1,8,0:0:0:0:
255,191,71981,1,8,0:0:0:0:
255,191,72633,1,0,0:0:0:0:
255,191,72959,1,8,0:0:0:0:
255,191,73285,1,0,0:0:0:0:
255,191,73612,1,0,0:0:0:0:
255,191,73938,1,12,0:0:0:0:
254,192,74916,1,0,0:0:0:0:
254,192,75242,1,8,0:0:0:0:
254,192,75894,1,0,0:0:0:0:
254,192,76546,1,8,0:0:0:0:
254,192,77525,1,8,0:0:0:0:
254,192,77851,1,0,0:0:0:0:
254,192,78503,1,8,0:0:0:0:
254,192,79155,1,0,0:0:0:0:
254,192,80133,1,0,0:0:0:0:
254,192,80459,1,8,0:0:0:0:
254,192,81112,1,8,0:0:0:0:
254,192,81764,1,0,0:0:0:0:
254,192,82090,1,0,0:0:0:0:
254,192,82416,1,8,0:0:0:0:
254,192,82905,1,0,0:0:0:0:
