osu file format v14

[General]
AudioFilename: audio.mp3
AudioLeadIn: 0
PreviewTime: 50486
Countdown: 0
SampleSet: Soft
StackLeniency: 0.7
Mode: 0
LetterboxInBreaks: 0
EpilepsyWarning: 1
WidescreenStoryboard: 1

[Editor]
Bookmarks: 936,11722,33295,44082,50823,69700,80486,85879,93969,99362
DistanceSpacing: 0.9
BeatDivisor: 2
GridSize: 32
TimelineZoom: 0.9999999

[Metadata]
Title:S(mile)ING!
TitleUnicode:S(mile)ING!
Artist:Shimamura Uzuki (CV:Ayaka Ohashi)
ArtistUnicode:島村 卯月 (CV:大橋 彩香)
Creator:Vanillas
Version:Regular
Source:アイドルマスター シンデレラガールズ
Tags:idolmaster Starlight Stage i@mas ANIMATION PROJECT 00 ST@RTER BEST smileing deresute THE IDOLM@STER CINDERELLA GIRLS Setz
BeatmapID:924374
BeatmapSetID:428243

[Difficulty]
HPDrainRate:3.5
CircleSize:3.5
OverallDifficulty:4
ApproachRate:5
SliderMultiplier:1
SliderTickRate:1

[Events]
//Background and Video events
0,0,"background.jpg",0,0
//Break Periods
2,70037,79138
2,94169,97488
2,131922,134567
//Storyboard Layer 0 (Background)
//Storyboard Layer 1 (Fail)
//Storyboard Layer 2 (Pass)
//Storyboard Layer 3 (Foreground)
//Storyboard Sound Samples

[TimingPoints]
936,337.078651685393,4,2,1,70,1,0
50823,-100,4,2,1,80,0,1
61525,-100,4,2,1,80,0,0
61610,-100,4,2,1,80,0,1
69700,-100,4,2,1,70,0,0
99362,-100,4,2,1,80,0,1
99447,-100,4,2,1,80,0,0
104756,-100,4,2,1,80,0,1
104840,-100,4,2,1,80,0,0
112846,-100,4,2,1,90,0,1
123548,-100,4,2,1,90,0,0
123632,-100,4,2,1,90,0,1
131722,-100,4,2,1,75,0,0

[Colours]
Combo1 : 250,158,5
Combo2 : 255,34,95
Combo3 : 18,124,255
Combo4 : 174,245,10
SliderBorder : 255,255,255

[HitObjects]
61,155,11722,6,0,P|119:167|171:148,1,100,2|8,0:0|0:0,0:0:0:0:
244,133,12396,1,0,0:0:0:0:
222,220,12733,1,8,0:0:0:0:
135,246,13070,2,0,P|125:301|149:345,1,100,2|8,0:0|0:0,0:0:0:0:
228,367,13744,2,0,P|281:354|334:366,1,100,2|8,0:0|0:0,0:0:0:0:
368,373,14250,1,8,0:0:0:0:
410,357,14419,6,0,P|452:272|420:177,1,200,2|0,0:0|0:0,0:0:0:0:
355,113,15430,1,8,0:0:0:0:
333,200,15767,2,0,P|296:198|260:203,1,50
238,204,16104,2,0,P|164:214|83:202,1,150,8|8,0:0|0:0,0:0:0:0:
50,183,16778,1,8,0:0:0:0:
10,263,17115,6,0,P|13:319|34:365,1,100,2|8,0:0|0:0,0:0:0:0:
70,378,17621,1,8,0:0:0:0:
113,369,17789,2,0,P|163:355|216:363,1,100
297,339,18464,6,0,P|309:290|297:239,1,100,2|0,0:0|0:0,0:0:0:0:
256,225,18969,2,0,P|239:178|259:115,1,100,8|8,0:0|0:0,0:0:0:0:
268,89,19475,1,8,0:0:0:0:
215,16,19812,6,0,P|165:29|109:28,1,100,2|8,0:0|0:0,0:0:0:0:
74,43,20318,2,0,P|84:97|77:148,1,100
59,181,20823,1,8,0:0:0:0:
39,221,20992,6,0,P|21:265|46:324,2,100,8|0|8,0:0|0:0|0:0,0:0:0:0:
128,217,22003,2,0,P|158:224|183:222,1,50,8|8,0:0|0:0,0:0:0:0:
222,224,22340,1,8,0:0:0:0:
267,225,22509,6,0,P|314:219|371:223,1,100,2|8,0:0|0:0,0:0:0:0:
449,188,23183,1,0,0:0:0:0:
495,110,23520,1,8,0:0:0:0:
453,30,23857,2,0,B|401:15|310:59|250:28,1,200,2|0,0:0|0:0,0:0:0:0:
167,7,24868,5,8,0:0:0:0:
167,7,25037,2,0,P|148:83|179:170,1,150,2|8,0:0|0:0,0:0:0:0:
145,238,25879,2,0,P|207:233|237:196,1,100,0|8,0:0|0:0,0:0:0:0:
263,176,26385,6,0,P|285:137|330:102,1,100,8|0,0:0|0:0,0:0:0:0:
369,86,26891,1,8,0:0:0:0:
446,131,27228,2,0,P|448:189|444:230,1,100,0|8,0:0|0:0,0:0:0:0:
419,317,27902,6,0,P|326:334|215:315,1,200,2|0,0:0|0:0,0:0:0:0:
137,288,28913,1,8,0:0:0:0:
79,218,29250,2,0,P|61:173|77:111,1,100,2|8,0:0|0:0,0:0:0:0:
149,165,29924,2,0,P|199:177|248:161,1,100,2|8,0:0|0:0,0:0:0:0:
332,143,30598,6,0,P|416:132|491:141,2,150,2|2|10,0:0|0:0|0:0,0:0:0:0:
246,171,31947,1,2,0:0:0:0:
157,152,32284,2,0,P|157:185|150:217,1,50,8|8,0:0|0:0,0:0:0:0:
144,245,32621,1,8,0:0:0:0:
100,323,32958,1,8,0:0:0:0:
181,362,33295,6,0,P|236:367|290:362,1,100,4|2,0:0|0:0,0:0:0:0:
366,341,33969,1,2,0:0:0:0:
452,367,34306,1,0,0:0:0:0:
491,286,34643,6,0,P|505:236|498:178,1,100,0|2,0:0|0:0,0:0:0:0:
472,102,35318,1,2,0:0:0:0:
399,48,35655,1,0,0:0:0:0:
384,136,35992,6,0,P|336:154|283:159,1,100,4|2,0:0|0:0,0:0:0:0:
198,150,36666,1,2,0:0:0:0:
117,110,37003,1,8,0:0:0:0:
36,151,37340,2,0,P|28:200|35:264,1,100,2|0,0:0|0:0,0:0:0:0:
75,328,38014,2,0,P|126:314|175:326,1,100,2|0,0:0|0:0,0:0:0:0:
207,241,38688,5,0,0:0:0:0:
251,319,39025,2,0,P|296:236|225:150,2,200,2|0|2,0:0|0:0|0:0,0:0:0:0:
164,344,40711,1,0,0:0:0:0:
95,285,41048,6,0,P|70:246|68:177,1,100,8|0,0:0|0:0,0:0:0:0:
106,113,41722,2,0,P|62:104|11:124,2,100,0|0|8,0:0|0:0|0:0,0:0:0:0:
192,136,42733,2,0,P|246:152|304:139,1,100,0|8,0:0|0:0,0:0:0:0:
362,94,43407,2,0,P|380:143|365:195,1,100,0|8,0:0|0:0,0:0:0:0:
346,227,43913,1,8,0:0:0:0:
316,261,44082,6,0,L|214:275,1,100,4|8,0:0|0:0,0:0:0:0:
213,229,44587,1,8,0:0:0:0:
216,184,44756,2,0,L|112:178,1,100,2|8,0:0|0:0,0:0:0:0:
34,216,45430,2,0,P|25:167|45:121,1,100
81,93,45935,2,0,P|130:85|180:63,1,100,8|0,0:0|0:0,0:0:0:0:
212,38,46441,1,8,0:0:0:0:
301,32,46778,5,12,0:0:0:0:
386,61,47115,1,4,0:0:0:0:
111,247,48127,5,4,0:0:0:0:
111,247,48464,2,0,P|197:294|272:229,2,200,4|0|0,0:0|0:0|0:0,0:0:0:0:
68,167,50149,2,0,L|52:109,2,50,8|8|0,0:0|0:0|0:0,0:0:0:0:
156,150,50823,6,0,L|269:144,1,100,4|8,0:0|0:0,0:0:0:0:
291,117,51329,1,8,0:0:0:0:
326,89,51497,2,0,P|348:144|332:193,1,100,0|8,0:0|0:0,0:0:0:0:
311,265,52171,2,0,P|268:263|211:281,2,100,0|8|0,0:0|0:0|0:0,0:0:0:0:
346,348,53183,6,0,P|397:289|357:186,1,200
316,164,54025,2,0,P|287:152|266:138,1,50,8|2,0:0|0:0,0:0:0:0:
181,151,54531,2,0,P|193:94|225:66,2,100,8|2|8,0:0|0:0|0:0,0:0:0:0:
210,236,55542,1,2,0:0:0:0:
147,301,55879,2,0,L|77:300,1,50,8|8,0:0|0:0,0:0:0:0:
52,293,56216,6,0,P|45:241|51:177,1,100,4|8,0:0|0:0,0:0:0:0:
91,114,56891,2,0,P|66:115|41:113,2,50,0|8|8,0:0|0:0|0:0,0:0:0:0:
181,110,57565,1,0,0:0:0:0:
254,162,57902,2,0,P|271:115|261:67,2,100,8|2|8,0:0|0:0|0:0,0:0:0:0:
248,251,58913,5,6,0:0:0:0:
335,271,59250,1,12,0:0:0:0:
405,327,59587,2,0,P|423:281|414:227,2,100,6|4|0,0:0|0:0|0:0,0:0:0:0:
323,366,60598,1,8,0:0:0:0:
241,328,60935,2,0,P|232:355|231:378,2,50,0|0|8,0:0|0:0|0:0,0:0:0:0:
252,238,61610,5,4,0:0:0:0:
163,254,61947,2,0,P|106:265|60:255,1,100,0|2,0:0|0:0,0:0:0:0:
22,177,62621,1,10,0:0:0:0:
98,129,62958,2,0,P|81:75|92:25,2,100,2|8|0,0:0|0:0|0:0,0:0:0:0:
166,70,63969,6,0,P|212:59|269:62,1,100,8|0,0:0|0:0,0:0:0:0:
344,101,64643,2,0,L|349:51,2,50,8|0|0,0:0|0:0|0:0,0:0:0:0:
336,191,65318,1,8,0:0:0:0:
413,144,65655,2,0,P|426:193|408:246,1,100,2|8,0:0|0:0,0:0:0:0:
356,309,66329,1,2,0:0:0:0:
266,318,66666,1,8,0:0:0:0:
190,268,67003,6,0,P|185:218|193:168,1,100,6|8,0:0|0:0,0:0:0:0:
276,135,67677,2,0,P|281:185|273:235,1,100,6|8,0:0|0:0,0:0:0:0:
294,321,68351,2,0,P|342:339|407:318,1,100,4|8,0:0|0:0,0:0:0:0:
459,274,69025,1,2,0:0:0:0:
497,192,69362,1,8,0:0:0:0:
476,104,69700,1,4,0:0:0:0:
37,105,80486,6,0,P|25:153|37:205,1,100,0|8,0:0|0:0,0:0:0:0:
80,204,80992,1,8,0:0:0:0:
124,204,81160,2,0,L|191:211,1,50,0|8,0:0|0:0,0:0:0:0:
188,251,81497,2,0,L|251:263,1,50,2|8,0:0|0:0,0:0:0:0:
254,300,81834,2,0,P|344:357|420:321,1,200,2|0,0:0|0:0,0:0:0:0:
471,245,82846,1,8,0:0:0:0:
419,170,83183,6,0,P|394:118|387:66,1,100,4|8,0:0|0:0,0:0:0:0:
388,31,83688,1,8,0:0:0:0:
345,16,83857,2,0,L|286:28,1,50,0|8,0:0|0:0,0:0:0:0:
289,70,84194,2,0,B|221:92|221:92|226:96,1,50,2|8,0:0|0:0,0:0:0:0:
197,96,84531,2,0,P|147:111|94:98,1,100,2|0,0:0|0:0,0:0:0:0:
57,113,85037,2,0,P|24:178|60:244,1,150,2|8,0:0|0:0,0:0:0:0:
142,268,85879,6,0,P|186:236|197:190,1,100,6|8,0:0|0:0,0:0:0:0:
192,103,86553,2,0,P|249:115|281:165,1,100,2|8,0:0|0:0,0:0:0:0:
292,186,87059,1,8,0:0:0:0:
294,275,87396,2,0,P|318:271|343:271,2,50,0|8|0,0:0|0:0|0:0,0:0:0:0:
212,312,88070,1,0,0:0:0:0:
212,312,88239,1,8,0:0:0:0:
121,302,88576,5,4,0:0:0:0:
67,229,88913,2,0,P|67:202|63:167,1,50,8|8,0:0|0:0,0:0:0:0:
87,139,89250,2,0,P|136:145|194:130,1,100,2|8,0:0|0:0,0:0:0:0:
241,64,89924,2,0,P|277:124|247:203,1,150,4|4,0:0|0:0,0:0:0:0:
125,235,90935,5,4,0:0:0:0:
256,192,92621,12,4,93969,0:0:0:0:
54,155,98688,6,0,L|56:212,1,50,8|8,0:0|0:0,0:0:0:0:
59,249,99025,1,8,0:0:0:0:
89,333,99362,6,0,P|146:338|192:362,1,100,4|0,0:0|0:0,0:0:0:0:
228,365,99868,2,0,P|254:369|285:365,1,50,8|0,0:0|0:0,0:0:0:0:
367,359,100374,2,0,P|406:325|458:309,1,100,8|0,0:0|0:0,0:0:0:0:
493,293,100879,1,0,0:0:0:0:
506,249,101048,2,0,P|503:199|478:156,1,100,8|0,0:0|0:0,0:0:0:0:
440,181,101553,2,0,P|419:185|391:180,1,50,8|8,0:0|0:0,0:0:0:0:
425,96,102059,6,0,P|438:46|419:-1,1,100,4|8,0:0|0:0,0:0:0:0:
345,50,102733,2,0,P|295:44|248:60,1,100,4|8,0:0|0:0,0:0:0:0:
198,134,103407,1,0,0:0:0:0:
111,159,103744,1,0,0:0:0:0:
84,245,104082,2,8,P|87:277|85:307,2,50
111,159,104756,6,0,P|165:169|223:159,1,100,4|8,0:0|0:0,0:0:0:0:
249,143,105261,1,8,0:0:0:0:
291,129,105430,2,0,P|354:111|413:119,1,100,0|8,0:0|0:0,0:0:0:0:
461,164,106104,2,0,P|471:217|460:268,1,100,0|8,0:0|0:0,0:0:0:0:
421,342,106778,1,0,0:0:0:0:
366,272,107115,6,0,P|316:263|261:272,1,100,8|2,0:0|0:0,0:0:0:0:
178,262,107789,2,0,P|181:227|177:193,2,50,8|8|0,0:0|0:0|0:0,0:0:0:0:
163,351,108464,2,0,P|108:363|61:341,1,100,2|2,0:0|0:0,0:0:0:0:
3,286,109138,1,8,0:0:0:0:
67,224,109475,6,0,P|79:178|72:115,1,100,0|8,0:0|0:0,0:0:0:0:
134,58,110149,2,0,P|186:66|240:55,1,100,4|8,0:0|0:0,0:0:0:0:
310,13,110823,2,0,P|319:63|301:110,1,100,4|8,0:0|0:0,0:0:0:0:
233,165,111497,6,0,P|281:196|326:191,1,100,4|8,0:0|0:0,0:0:0:0:
395,141,112171,1,4,0:0:0:0:
482,162,112509,1,4,0:0:0:0:
510,257,112846,5,4,0:0:0:0:
422,278,113183,2,0,L|424:333,2,50,8|0|0,0:0|0:0|0:0,0:0:0:0:
415,188,113857,1,8,0:0:0:0:
338,235,114194,2,0,P|291:237|237:217,1,100,2|8,0:0|0:0,0:0:0:0:
171,163,114868,1,0,0:0:0:0:
92,119,115205,6,0,P|81:170|101:221,1,100,2|0,0:0|0:0,0:0:0:0:
114,255,115711,1,0,0:0:0:0:
151,279,115879,2,0,P|183:281|215:299,1,50,8|8,0:0|0:0,0:0:0:0:
239,307,116216,2,0,P|327:334|376:255,1,200,2|0,0:0|0:0,0:0:0:0:
384,166,117228,1,8,0:0:0:0:
350,82,117565,2,0,L|294:67,1,50,8|0,0:0|0:0,0:0:0:0:
285,111,117902,2,0,L|220:97,1,50,8|0,0:0|0:0,0:0:0:0:
193,84,118239,6,0,P|144:93|96:79,1,100,4|8,0:0|0:0,0:0:0:0:
56,160,118913,2,8,P|54:186|57:213,1,50
63,254,119250,1,8,0:0:0:0:
122,321,119587,2,0,B|172:306|231:317,1,100,2|8,0:0|0:0,0:0:0:0:
266,316,120093,2,0,P|300:316|336:308,1,50,8|0,0:0|0:0,0:0:0:0:
389,262,120598,1,8,0:0:0:0:
449,195,120935,6,0,L|438:78,1,100,4|4,0:0|0:0,0:1:0:0:
373,32,121610,1,4,0:0:0:0:
283,20,121947,1,4,0:0:0:0:
198,49,122284,1,2,0:0:0:0:
121,2,122621,2,0,P|104:45|122:100,1,100,8|0,0:0|0:0,0:0:0:0:
143,132,123127,2,0,P|161:151|175:174,1,50,8|0,0:0|0:0,0:0:0:0:
224,96,123632,6,0,P|281:101|329:92,1,100,4|8,0:0|0:0,0:0:0:0:
362,71,124138,1,0,0:0:0:0:
401,50,124306,2,0,P|411:98|398:146,1,100,2|8,0:0|0:0,0:0:0:0:
373,232,124980,2,0,L|275:258,2,100,0|8|0,0:0|0:0|0:0,0:0:0:0:
408,149,125992,6,0,P|464:230|412:312,1,200,2|8,0:0|0:0,0:0:0:0:
331,332,127003,1,2,0:0:0:0:
331,242,127340,2,0,L|231:247,2,100,8|2|8,0:0|0:0|0:0,0:0:0:0:
370,162,128351,1,2,0:0:0:0:
294,113,128688,1,8,0:0:0:0:
208,140,129025,6,0,P|162:153|107:144,1,100,4|8,0:0|0:0,0:0:0:0:
65,67,129700,2,0,P|30:102|24:162,1,100,4|8,0:0|0:0,0:0:0:0:
45,236,130374,2,0,P|93:224|144:241,1,100,4|8,0:0|0:0,0:0:0:0:
217,284,131048,1,4,0:0:0:0:
304,264,131385,1,4,0:0:0:0:
389,290,131722,5,4,0:0:0:0:
407,126,135767,6,0,P|417:181|403:233,2,100,4|0|8,0:0|0:0|0:0,0:0:0:0:
359,49,136778,1,0,0:0:0:0:
314,53,136947,2,0,L|210:58,1,100,0|8,0:0|0:0,0:0:0:0:
124,64,137621,1,8,0:0:0:0:
63,185,138127,1,8,0:0:0:0:
110,261,138464,6,4,P|164:279|214:266,1,100,4|0,0:0|0:0,0:0:0:0:
290,298,139138,1,0,0:0:0:0:
376,271,139475,1,8,0:0:0:0:
385,227,139643,2,0,P|381:178|393:123,2,100,8|0|8,0:0|0:0|0:0,0:0:0:0:
250,220,140823,1,8,0:0:0:0:
186,155,141160,6,0,L|78:163,2,100,4|0|0,0:0|0:0|0:0,0:0:0:0:
250,220,142171,2,0,L|247:269,1,50
315,328,142677,1,0,0:0:0:0:
342,292,142846,6,0,L|401:273,1,50,8|0,0:0|0:0,0:0:0:0:
387,231,143183,2,0,L|439:210,1,50,8|0,0:0|0:0,0:0:0:0:
426,167,143520,2,0,L|469:140,1,50,8|8,0:0|0:0,0:0:0:0:
357,62,144194,5,4,0:0:0:0:
