osu file format v14

[General]
AudioFilename: audio.mp3
AudioLeadIn: 0
PreviewTime: 50486
Countdown: 0
SampleSet: Soft
StackLeniency: 0.3
Mode: 0
LetterboxInBreaks: 0
EpilepsyWarning: 1
WidescreenStoryboard: 1

[Editor]
Bookmarks: 936,11722,33295,44082,61610,69700,85879,93969,99362
DistanceSpacing: 1.8
BeatDivisor: 2
GridSize: 32
TimelineZoom: 2

[Metadata]
Title:S(mile)ING!
TitleUnicode:S(mile)ING!
Artist:Shimamura Uzuki (CV:Ayaka Ohashi)
ArtistUnicode:島村 卯月 (CV:大橋 彩香)
Creator:Vanillas
Version:Master
Source:アイドルマスター シンデレラガールズ
Tags:idolmaster Starlight Stage i@mas ANIMATION PROJECT 00 ST@RTER BEST smileing deresute THE IDOLM@STER CINDERELLA GIRLS Setz
BeatmapID:924372
BeatmapSetID:428243

[Difficulty]
HPDrainRate:6
CircleSize:4
OverallDifficulty:7
ApproachRate:8.5
SliderMultiplier:1.4
SliderTickRate:1

[Events]
//Background and Video events
0,0,"background.jpg",0,0
//Break Periods
2,94169,98013
2,131922,133332
//Storyboard Layer 0 (Background)
//Storyboard Layer 1 (Fail)
//Storyboard Layer 2 (Pass)
//Storyboard Layer 3 (Foreground)
//Storyboard Sound Samples

[TimingPoints]
936,337.078651685393,4,2,1,60,1,0
936,-125,4,2,1,60,0,0
11722,-100,4,2,1,70,0,0
33295,-125,4,2,1,60,0,0
44082,-100,4,2,1,70,0,0
48464,-125,4,2,1,70,0,0
49643,-100,4,2,1,70,0,0
50823,-83.3333333333333,4,2,1,80,0,1
61525,-83.3333333333333,4,2,1,80,0,0
61610,-83.3333333333333,4,2,1,80,0,1
69700,-100,4,2,1,70,0,0
85879,-125,4,2,1,70,0,0
93969,-100,4,2,1,70,0,0
99362,-100,4,2,1,80,0,1
99447,-100,4,2,1,80,0,0
104756,-100,4,2,1,80,0,1
104840,-100,4,2,1,80,0,0
112846,-83.3333333333333,4,2,1,90,0,1
123548,-83.3333333333333,4,2,1,90,0,0
123632,-83.3333333333333,4,2,1,90,0,1
131722,-100,4,2,1,75,0,0

[Colours]
Combo1 : 250,158,5
Combo2 : 255,34,95
Combo3 : 18,124,255
Combo4 : 174,245,10
SliderBorder : 255,255,255

[HitObjects]
108,92,936,6,0,L|109:156,1,56,2|0,0:0|0:0,0:0:0:0:
204,181,1273,2,0,L|205:122,1,56,2|0,0:0|0:0,0:0:0:0:
227,26,1610,2,0,P|286:22|354:33,1,112,2|0,0:0|0:0,0:0:0:0:
436,49,2115,1,2,0:0:0:0:
349,230,2452,2,0,P|349:202|344:174,2,56,2|0|2,0:0|0:0|0:0,0:0:0:0:
436,49,3127,1,2,0:0:0:0:
436,49,3295,1,2,0:0:0:0:
448,250,3632,6,0,P|447:277|448:305,1,56,2|0,0:0|0:0,0:0:0:0:
362,359,3969,2,0,P|361:331|358:303,1,56,2|0,0:0|0:0,0:0:0:0:
319,210,4306,2,0,P|263:217|207:215,1,112,2|0,0:0|0:0,0:0:0:0:
107,198,4812,1,2,0:0:0:0:
219,30,5149,2,0,P|218:57|220:85,2,56,2|0|2,0:0|0:0|0:0,0:0:0:0:
372,160,5823,2,0,L|432:156,1,56,2|0,0:0|0:0,0:0:0:0:
322,328,6329,6,0,P|294:326|266:329,1,56,2|0,0:0|0:0,0:0:0:0:
208,246,6666,2,0,P|235:250|263:250,1,56,2|0,0:0|0:0,0:0:0:0:
359,219,7003,2,0,P|356:163|361:107,1,112,2|0,0:0|0:0,0:0:0:0:
381,8,7509,1,2,0:0:0:0:
210,115,7846,2,0,P|182:118|154:117,2,56,2|0|2,0:0|0:0|0:0,0:0:0:0:
210,115,8520,1,0,0:0:0:0:
297,164,8688,1,2,0:0:0:0:
324,261,8857,1,0,0:0:0:0:
180,328,9025,6,0,P|188:273|183:213,1,112,2|0,0:0|0:0,0:0:0:0:
157,119,9531,1,0,0:0:0:0:
157,119,9700,2,0,P|212:115|266:100,1,112,2|0,0:0|0:0,0:0:0:0:
364,70,10205,1,0,0:0:0:0:
364,70,10289,1,0,0:0:0:0:
364,70,10374,5,2,0:0:0:0:
428,225,10542,1,0,0:0:0:0:
491,132,10711,1,0,0:0:0:0:
287,87,10879,1,0,0:0:0:0:
362,269,11048,1,0,0:0:0:0:
445,60,11216,1,0,0:0:0:0:
240,221,11385,2,0,L|242:155,1,56,8|0,0:0|0:0,0:0:0:0:
479,179,11722,6,0,P|401:190|334:175,1,140,4|8,0:0|0:0,0:0:0:0:
381,4,12228,1,8,0:0:0:0:
344,109,12396,2,0,P|340:143|342:178,1,70,2|0,0:0|0:0,0:0:0:0:
399,319,12733,2,0,P|362:320|329:325,1,70,8|8,0:0|0:0,0:0:0:0:
192,330,13070,6,0,P|261:337|330:326,1,140,2|8,0:0|0:0,0:0:0:0:
453,299,13576,1,8,0:0:0:0:
368,206,13744,2,0,L|371:127,1,70,2|0,0:0|0:0,0:0:0:0:
253,85,14082,2,0,L|246:169,1,70,8|8,0:0|0:0,0:0:0:0:
109,154,14419,6,0,P|178:163|247:155,1,140,2|8,0:0|0:0,0:0:0:0:
371,136,14924,1,8,0:0:0:0:
462,222,15093,1,2,0:0:0:0:
346,284,15261,2,0,P|326:243|334:203,2,70,0|8|8,0:0|0:0|0:0,0:0:0:0:
240,332,15767,6,0,P|199:331|159:341,1,70,2|0,0:0|0:0,0:0:0:0:
45,356,16104,1,8,0:0:0:0:
45,356,16273,1,8,0:0:0:0:
93,243,16441,2,0,L|100:170,1,70,2|0,0:0|0:0,0:0:0:0:
202,218,16778,1,8,0:0:0:0:
323,289,17115,6,0,P|396:289|472:278,1,140,4|8,0:0|0:0,0:0:0:0:
500,159,17621,1,8,0:0:0:0:
386,106,17789,2,0,L|374:36,1,70,2|0,0:0|0:0,0:0:0:0:
239,12,18127,2,0,L|255:81,1,70,8|8,0:0|0:0,0:0:0:0:
348,190,18464,6,0,P|297:232|223:228,1,140,0|8,0:0|0:0,0:0:0:0:
108,184,18969,1,8,0:0:0:0:
213,113,19138,2,0,P|226:73|223:36,1,70,2|0,0:0|0:0,0:0:0:0:
102,14,19475,1,8,0:0:0:0:
13,103,19643,1,8,0:0:0:0:
7,229,19812,6,0,L|155:219,1,140,2|8,0:0|0:0,0:0:0:0:
272,208,20318,1,8,0:0:0:0:
146,219,20486,2,0,P|142:181|143:144,1,70,2|0,0:0|0:0,0:0:0:0:
247,79,20823,1,8,0:0:0:0:
369,108,20992,1,8,0:0:0:0:
369,108,21329,6,0,P|367:142|358:176,1,70,0|8,0:0|0:0,0:0:0:0:
236,147,21666,2,0,P|237:112|246:78,1,70,8|0,0:0|0:0,0:0:0:0:
253,262,22003,2,0,P|217:263|183:257,1,70,0|8,0:0|0:0,0:0:0:0:
60,230,22340,1,0,0:0:0:0:
60,230,22424,1,8,0:0:0:0:
60,230,22509,6,0,B|34:161|59:90,1,140,0|8,0:0|0:0,0:0:0:0:
145,2,23014,1,8,0:0:0:0:
205,112,23183,2,0,L|283:105,1,70,2|0,0:0|0:0,0:0:0:0:
297,242,23520,2,0,L|371:225,1,70,8|8,0:0|0:0,0:0:0:0:
243,185,23857,6,0,P|218:241|248:305,1,131.25,0|8,0:0|0:0,0:0:0:0:
379,341,24362,1,8,0:0:0:0:
463,246,24531,2,0,P|463:212|462:176,1,70,2|0,0:0|0:0,0:0:0:0:
451,50,24868,1,8,0:0:0:0:
350,133,25037,6,0,P|301:172|224:146,1,140,8|0,0:0|0:0,0:0:0:0:
126,84,25542,1,8,0:0:0:0:
126,84,25711,1,8,0:0:0:0:
44,210,25879,2,0,L|114:209,1,70,2|0,0:0|0:0,0:0:0:0:
149,315,26216,1,8,0:0:0:0:
284,286,26385,6,0,P|265:219|281:147,1,140,2|0,0:0|0:0,0:0:0:0:
325,49,26891,1,8,0:0:0:0:
325,49,27059,1,8,0:0:0:0:
227,21,27228,2,0,P|193:28|141:27,1,70
31,20,27565,1,8,0:0:0:0:
31,20,27733,6,0,B|5:72|41:116|28:171,1,140
45,283,28239,1,8,0:0:0:0:
45,283,28407,1,8,0:0:0:0:
145,206,28576,2,0,L|214:211,2,70,2|0|8,0:0|0:0|0:0,0:0:0:0:
45,283,29082,6,0,P|91:343|171:350,1,140
276,341,29587,1,8,0:0:0:0:
276,341,29756,1,8,0:0:0:0:
183,256,29924,2,0,L|175:185,1,70,2|0,0:0|0:0,0:0:0:0:
309,201,30261,2,0,L|313:131,1,70,8|8,0:0|0:0,0:0:0:0:
199,45,30598,6,0,P|141:21|63:60,1,140,0|8,0:0|0:0,0:0:0:0:
10,158,31104,1,8,0:0:0:0:
113,275,31273,1,2,0:0:0:0:
175,120,31441,1,0,0:0:0:0:
19,231,31610,1,8,0:0:0:0:
72,48,31778,1,8,0:0:0:0:
186,214,31947,6,0,P|259:202|331:218,1,140,0|8,0:0|0:0,0:0:0:0:
435,269,32452,1,8,0:0:0:0:
412,144,32621,2,0,P|423:109|422:68,1,70,0|8,0:0|0:0,0:0:0:0:
297,62,32958,1,8,0:0:0:0:
262,56,33042,1,8,0:0:0:0:
226,56,33127,1,8,0:0:0:0:
192,63,33211,1,8,0:0:0:0:
168,78,33295,6,0,B|151:132|164:197,1,112,4|2,0:0|0:0,0:0:0:0:
199,272,33801,1,0,0:0:0:0:
248,197,33969,2,0,P|278:199|303:193,1,56,2|0,0:0|0:0,0:0:0:0:
317,281,34306,2,0,P|357:284|391:280,1,56,2|0,0:0|0:0,0:0:0:0:
462,272,34643,5,2,0:0:0:0:
401,205,34812,2,0,P|397:178|396:149,2,56,0|2|0,0:0|0:0|0:0,0:0:0:0:
317,281,35318,2,0,B|260:295|195:287,1,112,2|2,0:0|0:0,0:0:0:0:
124,251,35823,1,2,0:0:0:0:
71,164,35992,6,0,P|122:147|189:173,1,112,4|0,0:0|0:0,0:0:0:0:
254,225,36497,1,0,0:0:0:0:
277,126,36666,1,2,0:0:0:0:
277,126,36834,1,2,0:0:0:0:
371,93,37003,2,0,B|377:128|369:172|369:170,1,56,0|2,0:0|0:0,0:0:0:0:
429,220,37340,6,0,P|380:240|319:222,1,112,2|2,0:0|0:0,0:0:0:0:
231,186,37846,1,2,0:0:0:0:
231,286,38014,2,0,P|237:317|233:362,1,56,2|0,0:0|0:0,0:0:0:0:
145,297,38351,2,0,P|142:263|150:229,1,56,2|0,0:0|0:0,0:0:0:0:
202,131,38688,6,0,L|146:128,1,56,6|0,0:0|0:0,0:0:0:0:
49,156,39025,2,0,B|34:96|50:26,2,112,2|0|2,0:0|0:0|0:0,0:0:0:0:
62,256,39868,1,0,0:0:0:0:
147,202,40037,2,0,P|174:197|202:196,1,56,2|0,0:0|0:0,0:0:0:0:
218,296,40374,6,0,P|254:296|289:290,1,56,2|0,0:0|0:0,0:0:0:0:
373,276,40711,1,2,0:0:0:0:
373,276,40879,1,0,0:0:0:0:
432,195,41048,2,0,B|442:138|415:78,1,112,2|2,0:0|0:0,0:0:0:0:
356,6,41553,1,0,0:0:0:0:
314,98,41722,6,0,L|255:95,1,56,2|0,0:0|0:0,0:0:0:0:
275,191,42059,2,0,L|219:194,1,56,2|0,0:0|0:0,0:0:0:0:
118,203,42396,1,8,0:0:0:0:
219,194,42565,1,0,0:0:0:0:
154,116,42733,2,0,P|148:69|161:4,2,112,2|0|0,0:0|0:0|0:0,0:0:0:0:
183,209,43576,1,2,0:0:0:0:
407,201,43744,1,8,0:0:0:0:
413,179,43829,1,8,0:0:0:0:
415,156,43913,1,8,0:0:0:0:
411,134,43997,1,8,0:0:0:0:
406,106,44082,6,0,B|363:78|314:120|265:98,1,140,4|8,0:0|0:0,0:0:0:0:
145,80,44587,1,8,0:0:0:0:
24,117,44756,2,0,P|20:82|23:47,1,70
145,80,45093,1,8,0:0:0:0:
106,199,45261,1,8,0:0:0:0:
60,339,45430,6,0,B|132:316|202:336,1,140,4|8,0:0|0:0,0:0:0:0:
319,362,45935,1,8,0:0:0:0:
283,240,46104,2,0,P|291:203|290:170,1,70
266,46,46441,1,8,0:0:0:0:
290,171,46610,1,8,0:0:0:0:
175,119,46778,5,4,0:0:0:0:
425,84,47115,1,4,0:0:0:0:
175,119,48127,5,4,0:0:0:0:
351,149,48464,2,0,B|385:208|330:278|357:341,1,196,4|0,0:0|0:0,0:0:0:0:
311,341,49138,2,0,P|230:315|146:335,1,168,4|8,0:0|0:0,0:0:0:0:
45,371,49812,1,8,0:0:0:0:
69,262,49980,1,8,0:0:0:0:
25,158,50149,5,8,0:0:0:0:
10,126,50233,1,8,0:0:0:0:
7,90,50318,1,8,0:0:0:0:
22,58,50402,1,8,0:0:0:0:
50,37,50486,1,8,0:0:0:0:
84,38,50570,1,8,0:0:0:0:
117,49,50655,1,8,0:0:0:0:
151,54,50739,1,8,0:0:0:0:
192,59,50823,6,0,B|246:81|297:25|360:60,1,167.999994873047,4|8,0:0|0:0,0:0:0:0:
484,29,51329,1,8,0:0:0:0:
454,159,51497,2,0,P|465:192|466:244,1,83.9999974365235,2|0,0:0|0:0,0:0:0:0:
331,246,51834,1,8,0:0:0:0:
331,246,52003,1,8,0:0:0:0:
223,325,52171,6,0,B|138:297|52:329,1,167.999994873047,0|8,0:0|0:0,0:0:0:0:
1,204,52677,1,8,0:0:0:0:
126,155,52846,2,0,P|132:199|129:239,2,83.9999974365235,2|0|8,0:0|0:0|0:0,0:0:0:0:
102,23,53351,1,8,0:0:0:0:
226,78,53520,6,0,P|311:38|397:89,1,167.999994873047,2|8,0:0|0:0,0:0:0:0:
461,165,54025,1,0,0:0:0:0:
309,158,54194,2,0,L|315:251,1,83.9999974365235
221,339,54531,1,8,0:0:0:0:
90,306,54700,1,8,0:0:0:0:
32,184,54868,6,0,P|28:143|35:101,1,83.9999974365235
159,49,55205,2,8,P|162:95|151:133,1,83.9999974365235
89,250,55542,1,0,0:0:0:0:
212,303,55711,1,0,0:0:0:0:
89,250,55879,2,0,P|132:235|186:234,1,83.9999974365235,8|8,0:0|0:0,0:0:0:0:
316,220,56216,6,0,B|272:151|341:118|303:53,1,167.999994873047,4|8,0:0|0:0,0:0:0:0:
305,58,56722,1,8,0:0:0:0:
175,22,56891,2,0,P|136:16|83:22,2,83.9999974365235,0|0|8,0:0|0:0|0:0,0:0:0:0:
305,58,57396,1,8,0:0:0:0:
201,144,57565,6,0,P|199:193|188:240,1,83.9999974365235
326,216,57902,2,0,P|321:277|325:320,1,83.9999974365235,8|8,0:0|0:0,0:0:0:0:
196,347,58239,2,0,P|158:343|111:348,2,83.9999974365235,0|0|8,0:0|0:0|0:0,0:0:0:0:
329,361,58744,1,8,0:0:0:0:
436,263,58913,6,0,P|431:216|434:171,1,83.9999974365235,4|2,0:0|0:0,0:0:0:0:
312,118,59250,2,0,P|317:164|310:208,1,83.9999974365235,4|0,0:0|0:0,0:0:0:0:
189,256,59587,2,0,P|183:209|185:155,1,83.9999974365235,4|0,0:0|0:0,0:0:0:0:
199,38,59924,6,0,P|120:44|59:105,1,167.999994873047,4|8,0:0|0:0,0:0:0:0:
21,233,60430,1,8,0:0:0:0:
81,352,60598,1,0,0:0:0:0:
143,195,60767,1,8,0:0:0:0:
262,312,60935,1,8,0:0:0:0:
70,248,61104,1,0,0:0:0:0:
262,312,61273,1,8,0:0:0:0:
295,313,61357,1,8,0:0:0:0:
328,310,61441,1,8,0:0:0:0:
359,299,61525,1,8,0:0:0:0:
387,281,61610,6,0,P|423:199|392:123,1,167.999994873047,4|8,0:0|0:0,0:0:0:0:
295,41,62115,1,8,0:0:0:0:
214,148,62284,2,0,P|260:143|312:147,2,83.9999974365235,0|0|8,0:0|0:0|0:0,0:0:0:0:
191,280,62789,1,8,0:0:0:0:
64,236,62958,6,0,P|33:160|63:82,1,167.999994873047,0|8,0:0|0:0,0:0:0:0:
174,8,63464,1,8,0:0:0:0:
199,138,63632,2,0,P|241:145|282:139,1,83.9999974365235
174,8,63969,1,8,0:0:0:0:
71,99,64138,1,8,0:0:0:0:
71,99,64306,6,0,P|86:187|63:268,1,167.999994873047,0|8,0:0|0:0,0:0:0:0:
1,379,64812,1,8,0:0:0:0:
134,368,64980,2,0,P|186:372|230:361,1,83.9999974365235
201,231,65318,2,0,P|242:224|283:228,1,83.9999974365235,8|0,0:0|0:0,0:0:0:0:
413,262,65655,6,0,L|407:345,2,83.9999974365235,0|0|8,0:0|0:0|0:0,0:0:0:0:
290,315,66160,1,8,0:0:0:0:
323,184,66329,2,0,P|283:192|237:187,1,83.9999974365235
290,315,66666,1,8,0:0:0:0:
159,285,66834,1,8,0:0:0:0:
105,106,67003,6,0,P|182:49|247:72,1,167.999994873047,4|8,0:0|0:0,0:0:0:0:
352,148,67509,1,8,0:0:0:0:
261,246,67677,2,0,P|254:201|263:150,2,83.9999974365235,4|0|8,0:0|0:0|0:0,0:0:0:0:
293,376,68183,1,0,0:0:0:0:
403,300,68351,6,0,P|447:301|485:288,1,83.9999974365235,4|0,0:0|0:0,0:0:0:0:
497,154,68688,2,0,P|505:111|499:63,1,83.9999974365235,8|8,0:0|0:0,0:0:0:0:
381,8,69025,1,0,0:0:0:0:
501,71,69194,1,8,0:0:0:0:
375,118,69362,1,8,0:0:0:0:
341,125,69447,1,8,0:0:0:0:
307,123,69531,1,8,0:0:0:0:
276,109,69615,1,8,0:0:0:0:
251,95,69700,6,0,B|219:149|274:191|246:253,1,140,4|8,0:0|0:0,0:0:0:0:
197,328,70205,2,0,P|160:326|122:332,1,70
16,350,70542,1,0,0:0:0:0:
50,243,70711,2,0,P|44:206|45:160,1,70,0|8,0:0|0:0,0:0:0:0:
96,64,71048,6,0,P|140:68|181:57,1,70
269,44,71385,1,8,0:0:0:0:
256,154,71553,2,0,P|248:198|257:229,1,70,8|0,0:0|0:0,0:0:0:0:
316,316,71891,1,8,0:0:0:0:
416,267,72059,1,8,0:0:0:0:
455,161,72228,1,8,0:0:0:0:
434,26,72396,6,0,P|476:25|511:22,2,70,4|0|8,0:0|0:0|0:0,0:0:0:0:
322,15,72902,1,8,0:0:0:0:
322,15,73070,1,0,0:0:0:0:
363,119,73239,2,0,P|365:160|358:206,1,70,0|8,0:0|0:0,0:0:0:0:
320,293,73576,6,0,P|268:331|198:297,1,140,8|0,0:0|0:0,0:0:0:0:
141,211,74082,1,8,0:0:0:0:
43,264,74250,2,0,P|27:205|69:130,1,140,8|8,0:0|0:0,0:0:0:0:
207,97,74756,5,8,0:0:0:0:
346,107,74924,2,0,P|370:108|399:107,2,35,8|0|0,0:0|0:0|0:0,0:0:0:0:
269,252,75261,6,0,L|273:171,1,70,0|8,0:0|0:0,0:0:0:0:
280,70,75598,1,8,0:0:0:0:
192,138,75767,2,0,P|129:158|60:129,1,140,0|8,0:0|0:0,0:0:0:0:
280,70,76273,6,0,B|309:106|309:106|304:208,1,140,4|8,0:0|0:0,0:0:0:0:
288,303,76778,1,2,0:0:0:0:
314,322,76862,1,0,0:0:0:0:
341,337,76947,2,0,P|412:352|487:335,1,140,0|8,0:0|0:0,0:0:0:0:
509,232,77452,2,0,P|519:189|512:141,1,70,8|8,0:0|0:0,0:0:0:0:
369,10,77789,6,0,B|322:16|322:16|273:3|228:8,1,140,4|8,0:0|0:0,0:0:0:0:
327,129,78295,1,8,0:0:0:0:
306,239,78464,2,0,P|270:251|225:256,1,70
197,148,78801,2,0,L|166:79,1,70,8|8,0:0|0:0,0:0:0:0:
56,15,79138,5,4,0:0:0:0:
20,121,79306,1,8,0:0:0:0:
20,121,79391,1,8,0:0:0:0:
20,121,79475,2,0,P|16:159|16:203,1,70,8|8,0:0|0:0,0:0:0:0:
49,297,79812,6,4,P|88:291|129:300,1,70,4|8,0:0|0:0,0:0:0:0:
152,303,80065,1,8,0:0:0:0:
184,314,80149,1,8,0:0:0:0:
217,324,80233,1,8,0:0:0:0:
252,324,80318,1,8,0:0:0:0:
285,314,80402,1,8,0:0:0:0:
316,298,80486,6,0,P|347:233|314:172,1,140,4|8,0:0|0:0,0:0:0:0:
233,103,80992,1,8,0:0:0:0:
193,207,81160,2,0,L|103:210,2,70,0|0|8,0:0|0:0|0:0,0:0:0:0:
305,200,81666,1,8,0:0:0:0:
397,262,81834,6,0,P|415:199|387:123,1,140,0|8,0:0|0:0,0:0:0:0:
305,200,82340,2,0,P|237:221|167:199,1,140,0|8,0:0|0:0,0:0:0:0:
81,136,82846,1,8,0:0:0:0:
81,136,83014,1,8,0:0:0:0:
154,21,83183,5,4,0:0:0:0:
235,97,83351,2,0,P|273:103|315:96,1,70,0|8,0:0|0:0,0:0:0:0:
415,84,83688,1,8,0:0:0:0:
391,193,83857,2,0,L|401:273,1,70
289,242,84194,2,8,L|293:311,1,70
182,329,84531,6,0,P|117:352|56:322,1,140,0|8,0:0|0:0,0:0:0:0:
129,236,85037,2,0,P|153:167|123:93,1,140,8|0,0:0|0:0,0:0:0:0:
62,19,85542,1,8,0:0:0:0:
94,5,85627,1,8,0:0:0:0:
128,5,85711,1,8,0:0:0:0:
159,20,85795,1,8,0:0:0:0:
184,31,85879,6,0,P|240:45|303:35,1,112,4|8,0:0|0:0,0:0:0:0:
377,6,86385,1,8,0:0:0:0:
455,47,86553,2,0,P|445:99|457:171,1,112,2|8,0:0|0:0,0:0:0:0:
420,240,87059,6,0,L|346:252,1,56,0|2,0:0|0:0,0:0:0:0:
350,160,87396,2,0,L|292:158,1,56,0|10,0:0|0:0,0:0:0:0:
204,153,87733,1,8,0:0:0:0:
204,153,88070,2,0,L|207:97,2,56,0|8|8,0:0|0:0|0:0,0:0:0:0:
267,265,88576,6,0,P|215:289|159:266,1,112,4|8,0:0|0:0,0:0:0:0:
90,223,89082,1,8,0:0:0:0:
166,176,89250,2,0,P|157:124|162:64,1,112,2|8,0:0|0:0,0:0:0:0:
322,144,89924,2,0,P|398:128|365:60,1,168,4|4,0:0|0:0,0:0:0:0:
256,192,90935,12,0,92452,0:0:0:0:
256,192,92621,12,4,93969,0:0:0:0:
269,33,98688,6,0,P|311:35|350:31,1,70
426,81,99025,1,8,0:0:0:0:
421,115,99109,1,8,0:0:0:0:
417,150,99193,1,8,0:0:0:0:
413,185,99277,1,8,0:0:0:0:
404,219,99362,6,0,P|328:206|263:225,1,140,4|8,0:0|0:0,0:0:0:0:
163,270,99868,1,0,0:0:0:0:
176,158,100037,2,0,P|164:116|165:75,2,70,0|0|8,0:0|0:0|0:0,0:0:0:0:
268,222,100542,1,8,0:0:0:0:
402,263,100711,6,0,P|425:188|394:122,1,140,0|8,0:0|0:0,0:0:0:0:
335,44,101216,1,8,0:0:0:0:
403,133,101385,1,0,0:0:0:0:
295,161,101553,1,0,0:0:0:0:
187,126,101723,2,0,P|152:130|117:130,1,70,8|8,0:0|0:0,0:0:0:0:
65,257,102059,6,0,P|63:302|70:338,1,70,4|0,0:0|0:0,0:0:0:0:
171,284,102396,2,8,P|174:240|166:198,1,70,4|0,0:0|0:0,0:0:0:0:
279,242,102733,2,0,P|275:281|282:311,1,70,4|0,0:0|0:0,0:0:0:0:
375,253,103070,6,0,P|356:178|305:144,1,140,4|8,0:0|0:0,0:0:0:0:
180,154,103576,1,8,0:0:0:0:
58,185,103744,1,0,0:0:0:0:
131,53,103913,1,0,0:0:0:0:
157,219,104082,1,8,0:0:0:0:
7,116,104250,1,8,0:0:0:0:
61,304,104419,1,8,0:0:0:0:
92,318,104503,1,8,0:0:0:0:
126,325,104587,1,8,0:0:0:0:
160,321,104671,1,8,0:0:0:0:
194,315,104756,6,0,P|261:301|340:316,1,140,4|8,0:0|0:0,0:0:0:0:
436,347,105261,1,8,0:0:0:0:
494,251,105430,2,0,P|498:220|494:181,1,70
482,69,105767,1,8,0:0:0:0:
482,69,105935,1,8,0:0:0:0:
395,140,106104,6,0,P|327:155|269:118,1,140,0|8,0:0|0:0,0:0:0:0:
216,20,106610,1,8,0:0:0:0:
159,115,106778,2,0,P|122:113|87:120,1,70
270,119,107115,2,0,P|296:187|263:244,2,140,8|0|8,0:0|0:0|0:0,0:0:0:0:
182,49,107958,1,8,0:0:0:0:
164,196,108127,6,0,L|156:265,1,70
265,241,108464,2,0,L|275:321,1,70,8|8,0:0|0:0,0:0:0:0:
374,261,108801,2,0,P|400:197|377:133,1,140,0|8,0:0|0:0,0:0:0:0:
278,81,109306,1,8,0:0:0:0:
267,192,109475,2,0,P|233:193|192:205,1,70
127,289,109812,1,8,0:0:0:0:
19,256,109980,1,8,0:0:0:0:
19,256,110065,1,0,0:0:0:0:
19,256,110149,6,0,P|30:199|20:115,1,140,4|8,0:0|0:0,0:0:0:0:
99,38,110655,1,8,0:0:0:0:
210,45,110823,2,0,P|278:59|355:40,1,140,4|8,0:0|0:0,0:0:0:0:
457,29,111329,1,8,0:0:0:0:
499,132,111497,6,0,L|490:220,1,70,4|0,0:0|0:0,0:0:0:0:
383,171,111834,2,0,L|385:250,1,70
389,353,112171,1,4,0:0:0:0:
172,293,112509,1,4,0:0:0:0:
384,240,112846,6,0,P|418:159|386:91,1,167.999994873047,4|8,0:0|0:0,0:0:0:0:
277,169,113351,1,8,0:0:0:0:
217,48,113520,2,0,P|270:52|319:42,2,83.9999974365235,0|0|8,0:0|0:0|0:0,0:0:0:0:
84,29,114025,1,8,0:0:0:0:
20,146,114194,6,0,P|11:233|39:320,1,167.999994873047,4|8,0:0|0:0,0:0:0:0:
33,309,114700,1,8,0:0:0:0:
144,234,114868,2,0,P|183:228|235:227,1,83.9999974365235
361,239,115205,1,8,0:0:0:0:
311,113,115374,1,0,0:0:0:0:
311,113,115458,1,8,0:0:0:0:
311,113,115542,6,8,P|365:44|438:83,1,167.999994873047,8|8,0:0|0:0,0:0:0:0:
500,182,116048,1,0,0:0:0:0:
389,257,116216,2,0,L|303:248,1,83.9999974365235
311,113,116553,2,0,L|218:120,1,83.9999974365235,8|8,0:0|0:0,0:0:0:0:
211,255,116891,6,0,P|130:280|80:226,1,167.999994873047,4|8,0:0|0:0,0:0:0:0:
103,93,117396,1,8,0:0:0:0:
121,60,117480,1,8,0:0:0:0:
149,41,117565,1,8,0:0:0:0:
284,58,117733,1,8,0:0:0:0:
205,173,117902,2,0,P|200:218|215:263,1,83.9999974365235,8|8,0:0|0:0,0:0:0:0:
396,337,118239,6,0,B|334:317|334:317|287:334|217:331,1,167.999994873047,4|8,0:0|0:0,0:0:0:0:
98,324,118744,1,8,0:0:0:0:
175,213,118913,2,0,P|180:175|179:129,2,83.9999974365235,0|0|8,0:0|0:0|0:0,0:0:0:0:
190,346,119419,1,8,0:0:0:0:
414,267,119587,6,0,P|454:197|415:127,1,167.999994873047,4|8,0:0|0:0,0:0:0:0:
296,62,120093,1,0,0:0:0:0:
227,176,120261,2,0,L|236:227,1,41.9999987182618
158,215,120430,2,0,L|162:256,1,41.9999987182618
89,236,120598,2,0,L|43:242,3,41.9999987182618
30,264,120935,6,0,B|18:311|34:358,1,83.9999974365235,4|0,0:0|0:0,0:0:0:0:
157,300,121273,2,8,P|198:287|250:289,1,83.9999974365235
372,298,121610,1,0,0:0:0:0:
372,298,121778,1,0,0:0:0:0:
465,201,121947,6,0,P|464:131|381:96,1,167.999994873047,4|0,0:0|0:0,0:0:0:0:
249,110,122452,1,0,0:0:0:0:
350,198,122621,1,0,0:0:0:0:
216,186,122789,1,8,0:0:0:0:
318,273,122958,1,8,0:0:0:0:
318,273,123042,1,8,0:0:0:0:
318,273,123127,1,8,0:0:0:0:
216,186,123295,2,0,L|203:281,1,83.9999974365235,8|8,0:0|0:0,0:0:0:0:
47,286,123632,6,0,P|88:355|176:331,1,167.999994873047,4|8,0:0|0:0,0:0:0:0:
250,238,124138,1,8,0:0:0:0:
124,191,124306,2,0,L|114:104,1,83.9999974365235
213,16,124643,2,0,L|308:18,1,83.9999974365235,8|8,0:0|0:0,0:0:0:0:
392,54,124980,6,0,P|468:88|478:168,1,167.999994873047,0|8,0:0|0:0,0:0:0:0:
452,297,125486,1,8,0:0:0:0:
359,199,125655,2,0,P|316:206|258:196,2,83.9999974365235,0|0|8,0:0|0:0|0:0,0:0:0:0:
359,199,126160,1,8,0:0:0:0:
209,287,126329,6,0,P|164:225|184:139,1,167.999994873047,0|8,0:0|0:0,0:0:0:0:
264,34,126834,1,8,0:0:0:0:
336,147,127003,2,0,P|386:154|432:149,1,83.9999974365235
390,19,127340,1,8,0:0:0:0:
336,147,127509,1,8,0:0:0:0:
257,38,127677,6,0,L|166:35,1,83.9999974365235
252,137,128014,2,0,L|339:147,1,83.9999974365235,8|8,0:0|0:0,0:0:0:0:
159,133,128351,6,0,P|173:171|167:217,1,83.9999974365235
34,184,128688,1,8,0:0:0:0:
33,226,128773,1,8,0:0:0:0:
38,267,128857,1,8,0:0:0:0:
57,304,128941,1,8,0:0:0:0:
83,336,129025,6,0,P|163:371|252:355,1,167.999994873047,4|8,0:0|0:0,0:0:0:0:
363,305,129531,1,8,0:0:0:0:
247,235,129700,2,0,P|232:197|227:145,1,83.9999974365235,4|0,0:0|0:0,0:0:0:0:
361,160,130037,2,0,P|358:115|342:68,1,83.9999974365235,8|8,0:0|0:0,0:0:0:0:
217,39,130374,6,0,P|138:60|48:46,1,167.999994873047,4|8,0:0|0:0,0:0:0:0:
53,48,130879,1,8,0:0:0:0:
15,194,131048,1,12,0:0:0:0:
316,216,131385,1,4,0:0:0:0:
132,87,131722,5,4,0:0:0:0:
256,192,134082,12,4,135767,0:0:0:0:
401,129,136104,6,8,P|394:168|398:205,1,70
337,293,136441,2,0,P|263:276|189:291,1,140,0|8,0:0|0:0,0:0:0:0:
93,319,136947,1,8,0:0:0:0:
93,319,137284,2,8,P|85:284|86:243,2,70,0|8|8,0:0|0:0|0:0,0:0:0:0:
184,383,137789,1,0,0:0:0:0:
277,321,137958,2,8,P|314:317|354:320,1,70
232,83,138464,6,0,P|270:85|303:79,1,70,4|0,0:0|0:0,0:0:0:0:
268,186,138801,2,8,P|231:181|190:183,1,70
109,113,139138,2,0,P|82:186|105:248,1,140,0|8,0:0|0:0,0:0:0:0:
184,316,139643,1,8,0:0:0:0:
184,316,139980,2,0,P|222:311|262:316,2,70,0|8|8,0:0|0:0|0:0,0:0:0:0:
75,346,140486,1,0,0:0:0:0:
97,235,140655,2,8,P|94:200|80:163,1,70
401,296,141160,6,0,P|405:255|396:214,1,70,4|0,0:0|0:0,0:0:0:0:
290,251,141497,2,8,P|286:211|290:172,1,70
217,94,141834,2,0,P|288:67|354:89,1,140,0|8,0:0|0:0,0:0:0:0:
424,165,142340,1,8,0:0:0:0:
147,208,142677,5,8,0:0:0:0:
313,184,142846,1,8,0:0:0:0:
200,326,143014,1,8,0:0:0:0:
252,136,143183,1,8,0:0:0:0:
252,136,143267,1,0,0:0:0:0:
252,136,143351,1,8,0:0:0:0:
382,283,143520,1,0,0:0:0:0:
175,251,143688,2,0,L|196:171,1,70
440,299,144194,5,4,0:0:0:0:
