osu file format v14

[General]
AudioFilename: audio.mp3
AudioLeadIn: 0
PreviewTime: 50576
Countdown: 0
SampleSet: Soft
StackLeniency: 0.4
Mode: 0
LetterboxInBreaks: 0
WidescreenStoryboard: 0

[Editor]
DistanceSpacing: 1.1
BeatDivisor: 4
GridSize: 4
TimelineZoom: 3.199999

[Metadata]
Title:S(mile)ING!
TitleUnicode:S(mile)ING!
Artist:Shimamura Uzuki (CV.Ayaka Ohashi)
ArtistUnicode:島村卯月 (CV.大橋彩香)
Creator:Hikan
Version:SING!
Source:アイドルマスター シンデレラガールズ
Tags:Idolmaster i@mas animation project 00 st@rter best master 010 the idolm@ster cinderella girls smileing smiling
BeatmapID:1314098
BeatmapSetID:623468

[Difficulty]
HPDrainRate:5
CircleSize:3.8
OverallDifficulty:8
ApproachRate:9
SliderMultiplier:1.7
SliderTickRate:1

[Events]
//Background and Video events
0,0,"Uzukiiii.jpg",0,0
//Break Periods
//Storyboard Layer 0 (Background)
//Storyboard Layer 1 (Fail)
//Storyboard Layer 2 (Pass)
//Storyboard Layer 3 (Foreground)
//Storyboard Sound Samples

[TimingPoints]
-491,337.078651685393,4,2,0,30,1,0
688,-166.666666666667,4,2,0,30,0,0
10295,-166.666666666667,4,2,0,40,0,0
11643,-125,4,2,0,35,0,0
48301,-125,4,2,0,5,0,0
48385,-125,4,2,0,20,0,0
49059,-125,4,2,0,30,0,0
50744,-83.3333333333333,4,2,0,40,0,1
50829,-100,4,2,0,40,0,1
59508,-125,4,2,0,40,0,1
59761,-125,4,2,0,5,0,1
59846,-76.9230769230769,4,2,0,40,0,1
60520,-100,4,2,0,40,0,1
61194,-200,4,2,0,40,0,1
61447,-200,4,2,0,5,0,1
61531,-83.3333333333333,4,2,0,40,0,1
61615,-100,4,2,0,40,0,1
68947,-66.6666666666667,4,2,0,40,0,1
69200,-66.6666666666667,4,2,0,5,0,1
69284,-66.6666666666667,4,2,0,40,0,1
69537,-66.6666666666667,4,2,0,5,0,1
69621,-200,4,2,0,45,0,0
69958,-111.111111111111,4,2,0,35,0,0
71475,-74.0740740740741,4,2,0,35,0,0
71812,-200,4,2,0,35,0,0
72317,-125,4,2,0,35,0,0
108975,-125,4,2,0,5,0,0
109059,-125,4,2,0,20,0,0
109733,-125,4,2,0,30,0,0
111419,-83.3333333333333,4,2,0,40,0,1
111503,-100,4,2,0,40,0,1
120183,-125,4,2,0,40,0,1
120435,-125,4,2,0,5,0,1
120520,-76.9230769230769,4,2,0,40,0,1
121194,-100,4,2,0,40,0,1
121868,-200,4,2,0,40,0,1
122121,-200,4,2,0,5,0,1
122205,-83.3333333333333,4,2,0,40,0,1
122289,-100,4,2,0,40,0,1
129621,-66.6666666666667,4,2,0,40,0,1
129874,-66.6666666666667,4,2,0,5,0,1
129958,-66.6666666666667,4,2,0,40,0,1
130211,-66.6666666666667,4,2,0,5,0,1
130295,-100,4,2,0,35,0,0
135351,-83.3333333333333,4,2,0,35,0,0
135688,-100,4,2,0,35,0,0
139733,-83.3333333333333,4,2,0,35,0,0
141082,-100,4,2,0,35,0,0
146475,-100,4,2,0,25,0,0
151025,-142.857142857143,4,2,0,25,0,0
153216,-100,4,2,0,25,0,0
159958,-100,4,2,0,40,0,1
163329,-125,4,2,0,40,0,1
163582,-125,4,2,0,5,0,1
163666,-76.9230769230769,4,2,0,40,0,1
164340,-100,4,2,0,40,0,1
165014,-200,4,2,0,40,0,1
165267,-200,4,2,0,5,0,1
165351,-83.3333333333333,4,2,0,40,0,1
165435,-100,4,2,0,40,0,1
172767,-66.6666666666667,4,2,0,40,0,1
173020,-66.6666666666667,4,2,0,5,0,1
173104,-66.6666666666667,4,2,0,40,0,1
173357,-66.6666666666667,4,2,0,5,0,0
173441,-83.3333333333333,4,2,0,40,0,1
173525,-100,4,2,0,40,0,1
182205,-125,4,2,0,40,0,1
182458,-125,4,2,0,5,0,1
182542,-76.9230769230769,4,2,0,40,0,1
183216,-100,4,2,0,40,0,1
183891,-200,4,2,0,40,0,1
184228,-83.3333333333333,4,2,0,40,0,1
184312,-100,4,2,0,40,0,1
191643,-66.6666666666667,4,2,0,40,0,1
191896,-66.6666666666667,4,2,0,5,0,1
191980,-66.6666666666667,4,2,0,40,0,1
192233,-66.6666666666667,4,2,0,5,0,1
192317,-100,4,2,0,30,0,0
192402,-100,4,2,0,15,0,0
194677,-100,4,2,0,30,0,0
195014,-100,4,2,0,35,0,0
195351,-100,4,2,0,40,0,0
195688,-100,4,2,0,45,0,0
196025,-100,4,2,0,25,0,0
196362,-100,4,2,0,35,0,0
204789,-66.6666666666667,4,2,0,35,0,0
204958,-66.6666666666667,4,2,0,5,0,0

[Colours]
Combo1 : 247,189,125
Combo2 : 203,141,12
Combo3 : 245,137,183

[HitObjects]
116,284,688,5,0,0:0:0:0:
116,284,773,1,0,0:0:0:0:
116,284,857,2,0,P|123:247|119:213,1,50.9999984436036
74,144,1194,2,0,P|52:131|34:114,1,50.9999984436036
169,145,1531,2,0,P|210:121|275:126,1,101.999996887207
343,168,2037,2,0,L|349:67,2,101.999996887207
412,288,3048,2,0,P|431:271|390:277,1,101.999996887207
327,314,3469,1,0,0:0:0:0:
327,314,3553,6,0,L|256:308,1,50.9999984436036
186,340,3891,2,0,L|115:346,1,50.9999984436036
202,250,4228,2,0,P|208:196|176:134,1,101.999996887207
70,197,4733,2,0,P|115:212|139:209,1,50.9999984436036
79,65,5070,2,0,P|43:96|34:118,1,50.9999984436036
78,292,5407,2,0,L|190:284,1,101.999996887207
267,239,5913,1,0,0:0:0:0:
355,340,6082,5,0,0:0:0:0:
355,340,6166,1,0,0:0:0:0:
355,340,6250,2,0,L|357:266,1,50.9999984436036
210,308,6587,2,0,L|214:382,1,50.9999984436036
267,239,6924,2,0,P|221:217|157:233,1,101.999996887207
88,275,7430,6,0,L|91:215,1,50.9999984436036
10,119,7767,2,0,L|13:179,1,50.9999984436036
154,138,8104,2,0,L|160:23,1,101.999996887207
74,18,8610,1,0,0:0:0:0:
238,60,8778,5,0,0:0:0:0:
238,60,8862,1,0,0:0:0:0:
238,60,8947,2,0,L|294:54,1,50.9999984436036
379,96,9284,2,0,P|377:57|383:28,1,50.9999984436036
466,73,9621,1,0,0:0:0:0:
297,41,9789,1,0,0:0:0:0:
466,73,9958,1,0,0:0:0:0:
303,192,10126,5,0,0:0:0:0:
303,192,10211,1,0,0:0:0:0:
303,192,10295,2,0,L|257:189,1,25.4999992218018
141,206,10464,5,0,0:0:0:0:
201,129,10632,1,0,0:0:0:0:
217,266,10801,1,0,0:0:0:0:
117,121,10969,1,0,0:0:0:0:
291,79,11138,1,0,0:0:0:0:
160,214,11306,1,0,0:0:0:0:
69,35,11475,1,0,0:0:0:0:
282,99,11643,6,0,L|280:247,1,136
195,307,12149,1,0,0:0:0:0:
312,370,12317,2,0,L|238:365,1,68
390,316,12655,2,0,P|409:363|405:405,1,68
306,272,12992,6,0,P|342:236|433:234,1,136
483,295,13497,1,0,0:0:0:0:
388,383,13666,2,0,L|390:312,1,68
459,146,14003,1,0,0:0:0:0:
306,272,14171,1,0,0:0:0:0:
370,108,14340,6,0,L|294:115,1,68
202,171,14677,1,0,0:0:0:0:
320,199,14846,1,0,0:0:0:0:
223,69,15014,2,0,L|147:76,1,68
30,138,15351,1,0,0:0:0:0:
44,22,15520,1,0,0:0:0:0:
30,138,15688,6,0,L|41:218,1,68
122,246,16025,1,0,0:0:0:0:
176,171,16194,2,0,P|135:153|42:199,1,136
128,326,16700,2,0,L|128:231,1,68
48,47,17037,6,0,P|48:84|54:189,1,136
135,275,17542,1,0,0:0:0:0:
244,166,17711,2,0,L|170:172,1,68
158,278,18048,2,0,L|232:284,1,68
418,221,18385,6,0,B|320:232|320:232|369:268,1,136
488,276,18891,2,0,P|506:207|463:146,1,136
375,141,19396,2,0,L|379:72,1,68
251,27,19733,6,0,L|266:191,1,136
196,198,20239,2,0,B|287:177|241:226|349:205,1,136
416,161,20744,1,0,0:0:0:0:
293,314,20913,6,0,P|286:251|308:211,1,102
328,208,21250,1,0,0:0:0:0:
172,215,21419,1,0,0:0:0:0:
358,224,21587,2,0,P|382:266|379:305,1,68
190,228,21924,1,0,0:0:0:0:
305,138,22093,2,0,L|396:143,1,68
464,115,22346,1,0,0:0:0:0:
464,115,22430,6,0,P|471:48|404:-7,1,136
278,31,22935,1,0,0:0:0:0:
278,31,23104,2,0,L|197:28,1,68
175,165,23441,2,0,P|179:110|173:92,1,68
21,79,23778,6,0,P|7:150|62:222,1,136
137,234,24284,1,0,0:0:0:0:
67,355,24452,2,0,L|74:278,1,68
239,236,24789,1,0,0:0:0:0:
154,375,24958,1,0,0:0:0:0:
137,234,25126,6,0,L|130:157,1,68
254,220,25464,1,0,0:0:0:0:
254,220,25632,2,0,L|249:313,1,68
190,369,25969,1,0,0:0:0:0:
345,290,26138,1,0,0:0:0:0:
174,355,26306,6,0,P|249:363|319:367,1,136
458,280,26812,1,0,0:0:0:0:
383,372,26980,1,0,0:0:0:0:
330,263,27149,6,0,L|336:185,2,68
255,164,27655,1,0,0:0:0:0:
394,141,27823,2,0,P|335:115|264:150,1,136
220,245,28329,1,0,0:0:0:0:
149,128,28497,6,0,L|73:135,2,68
32,52,29003,1,0,0:0:0:0:
7,207,29171,2,0,P|5:159|9:119,1,68
147,18,29508,6,0,L|290:22,1,136
395,28,30014,1,0,0:0:0:0:
316,166,30183,2,0,P|312:125|319:88,1,68
487,63,30520,6,0,P|511:135|481:212,1,136
380,252,31025,1,0,0:0:0:0:
248,168,31194,2,0,L|339:164,1,68
262,253,31531,1,0,0:0:0:0:
271,86,31700,1,0,0:0:0:0:
260,275,31868,6,0,L|268:359,1,68
354,318,32205,1,0,0:0:0:0:
171,299,32374,1,0,0:0:0:0:
331,225,32542,2,0,P|259:186|222:194,1,102
156,222,32879,1,0,0:0:0:0:
139,220,32963,1,0,0:0:0:0:
122,219,33048,2,0,L|79:223,1,34
11,171,33216,6,0,P|-9:97|26:48,1,136
145,32,33722,1,0,0:0:0:0:
119,128,33891,2,0,L|124:52,1,68
241,33,34228,5,0,0:0:0:0:
310,126,34396,1,0,0:0:0:0:
226,45,34565,2,0,P|289:17|380:38,1,136
453,107,35070,1,0,0:0:0:0:
329,133,35239,1,0,0:0:0:0:
472,21,35407,1,0,0:0:0:0:
433,194,35576,2,0,L|439:283,1,68
314,364,35913,6,0,L|322:221,1,136
210,170,36419,1,0,0:0:0:0:
193,263,36587,2,0,L|188:170,1,68
27,317,36924,6,0,P|66:323|116:310,1,68
314,364,37261,2,0,P|256:341|174:360,1,136
316,257,37767,1,0,0:0:0:0:
406,316,37935,2,0,L|402:387,1,68
312,172,38273,1,0,0:0:0:0:
332,185,38610,6,0,L|420:189,1,68
214,135,38947,1,0,0:0:0:0:
234,250,39115,1,0,0:0:0:0:
192,121,39284,2,0,L|199:30,1,68
40,164,39621,6,0,P|106:183|167:150,1,136
95,101,40126,1,0,0:0:0:0:
206,228,40295,2,0,L|290:219,1,68
139,357,40632,2,0,L|144:279,1,68
343,257,40969,6,0,P|372:303|350:396,1,136
282,328,41475,1,0,0:0:0:0:
436,234,41643,2,0,L|520:243,1,68
358,101,41980,2,0,P|362:166|371:183,1,68
268,337,42317,6,0,P|269:250|260:233,1,102
240,219,42655,2,0,L|156:225,1,68
66,342,42992,2,0,L|150:348,1,68
314,262,43329,1,0,0:0:0:0:
314,262,43497,1,0,0:0:0:0:
166,116,43666,1,0,0:0:0:0:
166,116,43750,1,0,0:0:0:0:
166,116,43834,2,0,L|172:160,1,34
316,235,44003,6,0,P|240:229|175:227,1,136
17,274,44508,1,0,0:0:0:0:
102,171,44677,2,0,L|98:258,1,68
165,363,45014,2,0,L|158:276,1,68
16,127,45351,6,0,P|100:125|139:79,1,136
262,18,45857,2,0,L|411:25,1,136
481,120,46362,2,0,L|476:34,1,68
461,138,46700,5,0,0:0:0:0:
230,105,47037,1,0,0:0:0:0:
450,153,47374,6,0,L|377:155,1,68
254,114,47711,2,0,P|286:157|290:200,1,68
149,206,48048,2,0,L|158:102,1,102
212,31,48385,1,0,0:0:0:0:
340,298,49059,5,0,0:0:0:0:
267,194,49228,1,0,0:0:0:0:
393,182,49396,1,0,0:0:0:0:
246,289,49565,5,0,0:0:0:0:
288,99,49733,1,0,0:0:0:0:
429,272,49902,1,0,0:0:0:0:
252,205,50070,6,0,L|258:152,1,34
171,349,50239,2,0,L|177:402,1,34
277,297,50407,5,0,0:0:0:0:
309,288,50491,1,0,0:0:0:0:
343,293,50575,1,0,0:0:0:0:
375,301,50660,1,0,0:0:0:0:
409,296,50744,6,0,P|440:230|351:255,1,203.999993774414
323,372,51250,1,0,0:0:0:0:
252,205,51419,2,0,L|260:102,1,85
159,289,51756,2,0,L|167:392,1,85
0,235,52093,6,0,P|77:192|136:207,1,127.5
137,207,52430,2,0,P|126:145|150:99,1,85
222,168,52767,1,0,0:0:0:0:
61,62,52935,1,0,0:0:0:0:
249,168,53104,2,0,B|407:158,1,127.5
416,177,53441,6,0,P|429:123|411:77,1,85
317,30,53778,1,0,0:0:0:0:
512,82,53947,1,0,0:0:0:0:
346,130,54115,2,0,L|232:127,1,85
146,189,54452,2,0,P|144:123|133:99,1,85
42,75,54705,1,0,0:0:0:0:
42,75,54789,6,0,P|44:161|52:264,1,170
88,341,55295,1,0,0:0:0:0:
242,264,55464,2,0,P|197:270|147:273,1,85
316,305,55801,1,0,0:0:0:0:
316,305,55969,1,0,0:0:0:0:
179,202,56138,6,0,P|152:267|191:340,1,127.5
204,346,56475,2,0,L|303:340,1,85
426,283,56812,1,0,0:0:0:0:
308,190,56980,1,0,0:0:0:0:
295,327,57149,1,0,0:0:0:0:
405,200,57317,5,0,0:0:0:0:
405,200,57402,1,0,0:0:0:0:
405,200,57486,2,0,P|412:124|399:98,1,85
323,44,57823,1,0,0:0:0:0:
238,148,57992,2,0,P|288:151|359:151,1,85
174,71,58329,1,0,0:0:0:0:
99,167,58497,2,0,P|99:233|117:268,1,85
123,274,58750,1,0,0:0:0:0:
123,274,58834,6,0,P|175:249|241:264,1,127.5
267,286,59171,2,0,L|273:184,1,85
446,116,59508,2,0,L|455:242,1,102
426,253,59846,6,0,P|491:234|446:318,1,220.999989883423
336,303,60351,1,0,0:0:0:0:
336,303,60435,1,0,0:0:0:0:
336,303,60520,2,0,L|227:310,1,85
143,357,60857,6,0,L|148:288,1,42.5
48,199,61025,2,0,L|59:270,1,42.5
243,160,61194,6,0,L|161:158,1,63.75
180,159,61531,6,0,B|229:185|277:159|277:159|325:131|390:161,1,203.999993774414
229,70,62037,1,0,0:0:0:0:
332,244,62205,2,0,L|456:236,1,85
260,349,62542,2,0,L|136:341,1,85
22,242,62879,6,0,B|76:212|76:212|163:235,1,127.5
162,240,63216,2,0,L|167:138,1,85
112,61,63553,1,0,0:0:0:0:
268,104,63722,1,0,0:0:0:0:
84,54,63891,6,0,L|-10:63,1,85
288,117,64228,2,0,L|390:119,1,85
471,35,64565,1,0,0:0:0:0:
471,35,64734,1,0,0:0:0:0:
436,197,64902,2,0,P|434:163|466:204,1,127.5
422,277,65239,2,0,P|371:273|319:281,1,85
242,311,65492,5,0,0:0:0:0:
242,311,65576,2,0,B|208:320|182:327|182:327|128:314|74:310,1,170
165,195,66082,1,0,0:0:0:0:
28,243,66250,2,0,P|26:199|30:139,1,85
107,0,66588,1,0,0:0:0:0:
0,70,66756,1,0,0:0:0:0:
111,130,66924,6,0,L|249:122,1,127.5
268,104,67261,2,0,L|370:108,1,85
472,288,67598,6,0,P|481:200|425:158,1,127.5
435,164,67935,2,0,P|489:161|524:124,1,85
352,107,68189,1,0,0:0:0:0:
352,107,68273,6,0,L|345:258,1,127.5
328,260,68610,2,0,L|319:171,1,85
165,283,68947,6,0,P|238:300|196:220,1,191.250007295609
87,144,69284,2,0,P|37:206|115:221,1,191.250007295609
173,84,69621,6,0,L|169:-2,1,85
178,166,70126,1,0,0:0:0:0:
327,68,70295,2,0,P|291:47|241:50,1,76.4999976654053
270,164,70632,2,0,L|392:158,1,114.749996498108
422,140,70969,2,0,L|416:231,2,76.4999976654053
337,258,71475,6,0,B|208:264|208:264|243:238,1,172.125000656605
353,231,71812,2,0,L|347:329,1,85
280,362,72233,1,0,0:0:0:0:
280,362,72317,6,0,P|230:346|186:357,1,68
102,307,72655,2,0,P|52:323|8:312,1,68
52,231,72992,1,0,0:0:0:0:
52,231,73160,1,0,0:0:0:0:
218,279,73329,2,0,L|213:377,1,68
155,203,73666,6,0,P|224:181|299:225,2,136
63,327,74508,1,0,0:0:0:0:
218,279,74677,1,0,0:0:0:0:
74,155,74846,1,0,0:0:0:0:
74,155,75014,6,0,L|69:242,1,68
155,341,75351,1,0,0:0:0:0:
2,275,75520,1,0,0:0:0:0:
178,349,75688,2,0,L|256:344,1,68
332,186,76025,1,0,0:0:0:0:
445,349,76194,1,0,0:0:0:0:
323,366,76362,6,0,L|327:286,1,68
314,191,76699,1,0,0:0:0:0:
452,195,76868,2,0,P|368:225|319:197,1,136
387,72,77374,2,0,L|384:156,1,68
229,200,77711,6,0,L|220:34,1,136
108,16,78216,1,0,0:0:0:0:
80,124,78385,2,0,P|124:123|175:118,1,68
279,0,78722,2,0,P|323:1|374:6,1,68
432,124,79059,6,0,B|425:28|425:28|467:63,1,136
501,180,79565,2,0,P|394:170|348:175,1,136
306,283,80070,2,0,P|368:287|396:284,1,68
245,212,80407,6,0,P|212:265|232:351,1,136
322,187,80913,2,0,L|164:199,1,136
88,112,81419,1,0,0:0:0:0:
92,316,81587,6,0,P|97:257|96:193,1,102
58,196,81925,1,0,0:0:0:0:
214,166,82094,1,0,0:0:0:0:
22,182,82261,2,0,P|15:142|14:101,1,68
106,15,82599,1,0,0:0:0:0:
230,149,82767,2,0,P|237:109|238:68,1,68
204,7,83021,1,0,0:0:0:0:
204,7,83104,6,0,P|274:49|347:22,1,136
422,5,83610,1,0,0:0:0:0:
503,98,83778,2,0,L|499:177,1,68
329,155,84115,2,0,P|374:136|411:140,1,68
507,239,84452,6,0,P|426:254|367:204,1,136
255,186,84959,1,0,0:0:0:0:
337,309,85126,2,0,L|334:383,1,68
383,227,85464,1,0,0:0:0:0:
230,196,85633,1,0,0:0:0:0:
425,139,85801,6,0,L|511:145,1,68
205,206,86139,1,0,0:0:0:0:
205,206,86306,2,0,L|119:212,1,68
19,115,86644,1,0,0:0:0:0:
203,32,86813,1,0,0:0:0:0:
31,129,86980,6,0,P|73:144|158:115,1,136
273,105,87487,1,0,0:0:0:0:
86,46,87655,1,0,0:0:0:0:
204,204,87823,6,0,L|272:200,2,68
109,247,88330,1,0,0:0:0:0:
333,257,88497,2,0,P|353:196|299:114,1,136
218,67,89003,6,0,L|150:71,1,68
327,13,89340,1,0,0:0:0:0:
325,132,89508,2,0,L|393:136,1,68
250,284,89846,2,0,P|245:252|264:200,1,68
431,215,90183,6,0,P|440:284|440:372,1,136
263,272,90688,1,0,0:0:0:0:
263,272,90857,2,0,P|291:258|334:259,1,68
176,357,91194,6,0,B|89:331|115:377|24:355,1,136
197,368,91700,1,0,0:0:0:0:
93,268,91868,2,0,P|93:227|98:174,1,68
35,87,92206,1,0,0:0:0:0:
200,124,92375,1,0,0:0:0:0:
18,88,92542,6,0,L|91:83,1,68
273,52,92879,2,0,L|346:57,1,68
510,98,93216,1,0,0:0:0:0:
400,1,93385,1,0,0:0:0:0:
355,170,93553,1,0,0:0:0:0:
355,187,93638,1,0,0:0:0:0:
354,206,93722,2,0,L|353:262,1,34
337,363,93891,6,0,B|358:339|358:339|239:347,1,136
117,366,94396,1,0,0:0:0:0:
135,287,94565,2,0,L|130:367,1,68
54,256,94902,5,0,0:0:0:0:
226,273,95070,1,0,0:0:0:0:
61,240,95239,2,0,P|110:203|195:222,1,136
241,284,95744,1,0,0:0:0:0:
184,117,95913,1,0,0:0:0:0:
135,287,96082,1,0,0:0:0:0:
290,180,96250,2,0,L|286:111,1,68
128,21,96587,6,0,B|107:45|107:45|226:37,1,136
397,18,97093,1,0,0:0:0:0:
364,104,97261,2,0,L|368:35,1,68
443,156,97598,1,0,0:0:0:0:
274,113,97767,1,0,0:0:0:0:
429,147,97935,6,0,P|366:145|312:191,1,136
395,292,98441,1,0,0:0:0:0:
395,292,98610,2,0,P|399:247|384:213,1,68
299,351,98947,1,0,0:0:0:0:
312,360,99284,6,0,L|316:280,1,68
239,228,99621,1,0,0:0:0:0:
367,191,99789,1,0,0:0:0:0:
216,235,99958,2,0,L|147:231,1,68
39,290,100295,2,0,P|26:231|66:141,1,136
157,114,100800,1,0,0:0:0:0:
68,37,100969,2,0,L|-5:41,1,68
214,4,101306,2,0,L|287:8,1,68
301,126,101643,6,0,B|232:149|232:149|160:119,1,136
49,160,102149,1,0,0:0:0:0:
161,271,102317,2,0,L|165:178,1,68
39,290,102655,2,0,L|43:383,1,68
258,342,102992,6,0,L|262:232,1,102
248,209,103329,2,0,P|284:228|332:222,1,68
440,140,103666,2,0,P|405:161|386:206,1,68
405,301,104003,1,0,0:0:0:0:
405,301,104171,1,0,0:0:0:0:
298,153,104340,1,0,0:0:0:0:
298,153,104424,1,0,0:0:0:0:
298,153,104508,2,0,L|300:101,1,34
442,24,104677,6,0,B|394:60|394:60|316:46,1,136
211,35,105183,1,0,0:0:0:0:
126,102,105351,2,0,L|132:186,1,68
28,46,105688,2,0,L|22:132,1,68
120,251,106025,6,0,P|49:238|-8:292,1,136
115,343,106531,2,0,L|262:338,1,136
439,268,107037,2,0,L|351:266,1,68
457,283,107374,5,0,0:0:0:0:
436,71,107711,1,0,0:0:0:0:
470,300,108048,6,0,P|479:262|474:232,1,68
418,82,108385,2,0,L|340:89,1,68
173,171,108722,2,0,L|292:177,1,102
297,163,109059,1,0,0:0:0:0:
83,234,109733,5,0,0:0:0:0:
98,91,109902,1,0,0:0:0:0:
83,234,110070,1,0,0:0:0:0:
241,106,110239,1,0,0:0:0:0:
226,249,110407,1,0,0:0:0:0:
40,158,110576,1,0,0:0:0:0:
165,46,110744,6,0,L|210:42,1,34
328,111,110913,2,0,L|283:107,1,34
245,221,111082,5,0,0:0:0:0:
226,249,111166,1,0,0:0:0:0:
218,282,111250,1,0,0:0:0:0:
225,315,111334,1,0,0:0:0:0:
244,343,111419,6,0,B|270:312|270:312|146:327|146:327|186:353,1,203.999993774414
344,362,111924,1,0,0:0:0:0:
245,221,112093,2,0,L|148:234,1,85
356,260,112430,2,0,L|453:273,1,85
304,185,112767,6,0,P|265:247|285:321,1,127.5
283,320,113104,2,0,P|218:305|178:318,1,85
74,349,113441,1,0,0:0:0:0:
160,232,113610,1,0,0:0:0:0:
75,321,113778,2,0,L|78:191,1,127.5
54,171,114115,6,0,P|39:130|54:72,1,85
107,17,114452,1,0,0:0:0:0:
204,125,114621,1,0,0:0:0:0:
204,125,114789,2,0,L|86:121,1,85
249,41,115126,2,0,P|310:59|349:48,1,85
420,22,115379,1,0,0:0:0:0:
420,22,115464,6,0,B|401:46|392:93|405:128|405:128|425:158|420:202,1,170
364,275,115969,1,0,0:0:0:0:
251,177,116138,2,0,L|349:180,1,85
189,249,116475,1,0,0:0:0:0:
189,249,116643,1,0,0:0:0:0:
298,105,116812,6,0,P|236:94|164:157,1,127.5
168,154,117149,2,0,P|179:106|145:47,1,85
39,14,117486,1,0,0:0:0:0:
93,116,117655,1,0,0:0:0:0:
204,0,117823,1,0,0:0:0:0:
7,45,117992,5,0,0:0:0:0:
7,45,118076,1,0,0:0:0:0:
7,45,118160,2,0,L|13:155,1,85
109,182,118497,1,0,0:0:0:0:
29,323,118666,2,0,L|35:213,1,85
126,161,119003,1,0,0:0:0:0:
267,248,119171,2,0,P|222:263|175:250,1,85
160,247,119424,1,0,0:0:0:0:
158,247,119508,6,0,P|197:301|187:368,1,127.5
119,321,119846,2,0,P|89:294|102:184,1,127.5
145,159,120183,2,0,L|271:161,1,102
353,146,120520,6,0,P|284:128|332:223,1,220.999989883423
446,196,121025,1,0,0:0:0:0:
446,196,121110,1,0,0:0:0:0:
446,196,121194,2,0,L|448:91,1,85
364,28,121531,6,0,L|447:33,1,42.5
232,100,121700,2,0,L|149:105,1,42.5
344,198,121868,6,0,P|368:230|377:267,1,63.75
376,253,122205,6,0,B|410:195|380:126|380:126|397:173|432:193,1,203.999993774414
512,225,122711,1,0,0:0:0:0:
418,56,122879,2,0,P|364:46|309:78,1,85
253,191,123216,2,0,L|258:98,1,85
189,39,123469,1,0,0:0:0:0:
189,39,123553,6,0,B|115:60|137:15|56:39,1,127.5
30,52,123891,2,0,L|39:143,1,85
30,244,124228,1,0,0:0:0:0:
115,130,124396,1,0,0:0:0:0:
28,268,124565,2,0,L|22:364,1,85
113,112,124902,6,0,L|104:15,1,85
38,136,125239,1,0,0:0:0:0:
38,136,125407,1,0,0:0:0:0:
214,110,125576,2,0,P|214:50|183:87,1,127.5
165,174,125913,2,0,P|208:188|262:174,1,85
317,126,126166,1,0,0:0:0:0:
317,126,126250,6,0,B|353:169|353:169|492:156,1,170
392,73,126756,1,0,0:0:0:0:
486,240,126924,2,0,L|477:349,1,85
374,310,127261,1,0,0:0:0:0:
466,158,127430,5,0,0:0:0:0:
466,158,127514,1,0,0:0:0:0:
466,158,127598,2,0,P|392:193|329:177,1,127.5
316,163,127935,2,0,P|342:216|338:269,1,85
270,344,128273,6,0,L|119:325,1,127.5
108,323,128610,2,0,L|199:314,1,85
54,117,128947,6,0,P|42:173|73:247,1,127.5
81,254,129284,2,0,P|27:239|-14:250,1,85
192,314,129621,6,0,B|325:319|325:319|276:276,1,191.250007295609
176,155,129958,2,0,B|132:193|132:193|267:184,1,191.250007295609
409,67,130295,6,0,P|334:48|258:124,1,170
348,218,130801,2,0,L|351:127,1,85
265,184,131138,1,0,0:0:0:0:
433,249,131306,2,0,L|427:152,1,85
293,281,131643,6,0,P|350:305|395:292,1,85
258,164,131980,1,0,0:0:0:0:
167,258,132149,2,0,L|173:366,1,85
283,268,132486,1,0,0:0:0:0:
128,141,132655,2,0,P|80:133|7:210,1,127.5
11,195,132992,6,0,L|17:96,1,85
99,25,133329,1,0,0:0:0:0:
208,179,133497,2,0,L|199:68,1,85
128,141,133834,1,0,0:0:0:0:
232,19,134003,2,0,P|292:28|336:15,1,85
457,136,134340,6,0,P|415:130|373:140,1,85
274,224,134677,1,0,0:0:0:0:
369,365,134846,2,0,L|374:214,1,127.5
354,224,135183,1,0,0:0:0:0:
276,303,135351,6,0,L|281:364,1,50.9999984436036
462,308,135520,2,0,L|457:247,1,50.9999984436036
343,131,135688,6,0,P|295:141|239:127,1,85
398,50,136025,1,0,0:0:0:0:
236,152,136194,2,0,P|197:106|105:121,1,127.5
100,125,136531,1,0,0:0:0:0:
154,249,136700,2,0,L|271:238,1,85
7,143,137037,6,0,L|19:320,1,170
96,368,137542,1,0,0:0:0:0:
219,266,137711,1,0,0:0:0:0:
219,266,137879,1,0,0:0:0:0:
77,249,138048,2,0,L|32:245,1,42.5
176,346,138216,2,0,L|296:340,1,85
468,253,138553,2,0,P|345:294|336:351,1,170
481,334,139059,6,0,L|411:328,2,56.6666666666667
395,169,139396,2,0,L|465:163,2,56.6666666666667
265,275,139733,6,0,B|284:197|284:197|243:130,1,152.999995330811
167,73,140070,2,0,L|93:69,1,50.9999984436036
264,28,140239,2,0,L|338:24,1,50.9999984436036
425,133,140407,6,0,B|395:169|395:169|399:57,1,152.999995330811
493,205,140744,1,0,0:0:0:0:
486,215,140829,1,0,0:0:0:0:
478,225,140913,1,0,0:0:0:0:
469,234,140997,1,0,0:0:0:0:
458,242,141082,6,0,P|408:264|306:238,1,127.5
260,199,141419,1,0,0:0:0:0:
246,384,141587,2,0,L|253:281,1,85
162,217,141924,1,0,0:0:0:0:
162,217,142093,2,0,P|220:220|264:186,1,85
253,7,142430,6,0,P|188:72|222:175,1,170
401,107,142935,2,0,B|276:98|276:98|321:141,1,170
398,206,143441,2,0,L|494:202,1,85
291,240,143778,6,0,B|263:224|263:224|235:233|235:233|206:218|206:218|141:236,1,127.5
146,250,144115,1,0,0:0:0:0:
367,293,144284,2,0,P|376:213|309:148,1,170
199,125,144789,2,0,L|95:136,1,85
279,35,145126,6,0,L|423:41,1,127.5
433,28,145464,1,0,0:0:0:0:
318,151,145632,2,0,B|435:140|435:140|479:177,1,170
390,308,146138,2,0,P|390:252|425:211,1,85
508,379,146475,6,0,L|408:373,1,85
313,236,146812,1,0,0:0:0:0:
414,298,146980,1,0,0:0:0:0:
238,369,147149,2,0,L|243:267,1,85
213,200,147486,1,0,0:0:0:0:
376,187,147655,6,0,B|412:224|412:224|285:208,1,170
137,139,148160,1,0,0:0:0:0:
223,281,148329,2,0,P|223:221|197:183,1,85
61,245,148666,1,0,0:0:0:0:
61,245,148834,2,0,L|173:251,1,85
312,120,149171,6,0,L|206:128,1,85
206,10,149508,1,0,0:0:0:0:
137,139,149677,1,0,0:0:0:0:
323,35,149846,2,0,P|377:62|392:147,1,127.5
417,147,150183,2,0,P|405:195|426:254,1,85
208,308,150520,6,0,B|253:299|275:262|275:262|318:290|367:282,1,170
163,382,151025,2,0,P|125:324|139:261,1,118.999996368408
247,117,151531,5,0,0:0:0:0:
256,192,151615,12,0,152879,0:0:0:0:
247,117,153048,5,0,0:0:0:0:
147,87,153216,2,0,B|135:153|168:203|222:220|222:220|277:193|337:211,1,255
403,265,153891,1,0,0:0:0:0:
282,103,154059,1,0,0:0:0:0:
285,305,154228,1,0,0:0:0:0:
402,140,154396,1,0,0:0:0:0:
211,204,154565,6,0,P|163:281|196:387,1,170
314,319,155070,1,0,0:0:0:0:
280,137,155239,2,0,P|222:105|183:108,1,85
438,233,155576,2,0,P|484:205|500:112,1,127.5
402,140,155913,6,0,L|397:346,1,170
309,222,156419,1,0,0:0:0:0:
173,307,156587,1,0,0:0:0:0:
188,194,156756,1,0,0:0:0:0:
286,322,156924,6,0,P|226:290|156:324,1,127.5
99,348,157261,2,0,P|38:346|13:322,1,85
11,306,157767,2,0,L|7:372,1,42.5
83,178,157935,2,0,L|79:244,1,42.5
87,152,158273,2,0,B|115:189|115:189|226:174,1,127.5
292,147,158610,6,0,P|212:188|204:295,1,170
411,346,159284,2,0,L|403:251,1,85
315,276,159621,2,0,L|252:270,1,42.5
459,195,159789,5,0,0:0:0:0:
459,195,159874,1,0,0:0:0:0:
459,195,159958,2,0,P|468:109|436:61,1,127.5
433,61,160295,2,0,P|366:72|320:50,1,85
276,2,160632,1,0,0:0:0:0:
296,144,160801,1,0,0:0:0:0:
180,55,160969,1,0,0:0:0:0:
350,67,161138,5,0,0:0:0:0:
350,67,161222,1,0,0:0:0:0:
350,67,161306,2,0,P|384:114|387:164,1,85
307,308,161643,2,0,L|304:366,1,42.5
445,308,161812,2,0,P|407:275|313:301,1,127.5
376,349,162149,1,0,0:0:0:0:
266,234,162317,2,0,P|203:227|140:296,1,127.5
139,292,162655,6,0,L|147:147,1,127.5
59,180,162992,2,0,L|54:280,1,85
201,93,163329,2,0,B|153:69|153:69|97:88,1,102
227,172,163666,6,0,P|268:144|192:11,1,220.999989883423
146,164,164171,1,0,0:0:0:0:
146,164,164256,1,0,0:0:0:0:
146,164,164340,2,0,L|141:248,1,85
247,370,164677,6,0,L|241:294,1,42.5
355,233,164846,2,0,L|348:297,1,42.5
227,172,165014,6,0,L|220:103,1,63.75
173,0,165351,6,0,B|158:44|158:44|199:4|269:9|306:72,1,203.999993774414
322,165,165857,1,0,0:0:0:0:
408,82,166025,2,0,L|515:75,1,85
470,237,166362,2,0,L|363:230,1,85
310,284,166615,1,0,0:0:0:0:
310,284,166700,6,0,B|273:221|321:165|321:165|325:145|314:119,1,170
185,203,167205,1,0,0:0:0:0:
185,203,167374,2,0,P|187:277|166:312,1,85
22,243,167711,2,0,B|61:232|61:232|128:252,1,85
336,356,168048,6,0,B|294:368|294:368|254:356,1,85
52,324,168385,1,0,0:0:0:0:
263,270,168553,1,0,0:0:0:0:
61,143,168722,2,0,B|104:137|104:137|139:148|139:148|219:135,1,127.5
218,121,169059,2,0,P|286:130|310:119,1,85
432,4,169396,6,0,P|378:69|391:142,1,127.5
390,134,169733,1,0,0:0:0:0:
260,44,169902,1,0,0:0:0:0:
390,134,170070,2,0,L|498:137,1,85
320,272,170407,2,0,P|311:205|329:167,1,85
406,338,170660,1,0,0:0:0:0:
406,338,170744,6,0,P|345:321|271:344,1,127.5
262,361,171082,2,0,P|208:365|162:337,1,85
102,155,171419,6,0,B|134:212|134:212|117:284,1,127.5
78,292,171756,2,0,L|-14:286,1,85
27,106,172093,6,0,P|72:72|150:80,1,127.5
165,91,172430,2,0,B|156:59|156:59|171:-3,1,85
321,85,172767,6,0,P|254:93|319:33,1,191.250007295609
388,25,173104,2,0,B|414:53|414:91|414:91|362:141|388:230,1,191.250007295609
404,323,173441,6,0,B|365:338|334:282|401:280|438:303|438:303|479:327|540:297,1,203.999993774414
472,173,173947,1,0,0:0:0:0:
305,238,174115,2,0,L|216:229,1,85
413,89,174452,2,0,L|512:82,1,85
230,70,174789,6,0,L|89:80,1,127.5
69,80,175126,2,0,P|59:147|80:199,1,85
232,246,175464,2,0,P|178:203|123:196,1,85
7,303,175801,2,0,P|70:278|104:233,1,85
271,111,176138,6,0,L|178:119,1,85
280,15,176475,1,0,0:0:0:0:
262,207,176643,1,0,0:0:0:0:
445,150,176812,2,0,P|447:68|395:20,1,127.5
366,106,177149,2,0,P|355:167|379:218,1,85
454,334,177486,6,0,B|485:312|485:312|363:292,1,127.5
297,349,177823,2,0,L|209:333,1,85
61,286,178160,1,0,0:0:0:0:
212,235,178329,1,0,0:0:0:0:
119,365,178497,1,0,0:0:0:0:
119,206,178667,1,0,0:0:0:0:
213,334,178834,6,0,P|271:312|306:234,1,127.5
308,225,179171,2,0,P|314:275|355:323,1,85
512,315,179508,1,0,0:0:0:0:
394,240,179677,1,0,0:0:0:0:
389,380,179846,1,0,0:0:0:0:
487,206,180014,5,0,0:0:0:0:
487,206,180098,1,0,0:0:0:0:
487,206,180183,2,0,P|486:130|465:98,1,85
260,23,180520,1,0,0:0:0:0:
369,168,180688,1,0,0:0:0:0:
443,36,180857,2,0,L|337:28,1,85
161,119,181194,1,0,0:0:0:0:
316,99,181362,1,0,0:0:0:0:
134,124,181531,6,0,P|84:115|43:76,1,85
169,237,181868,2,0,P|144:281|95:308,1,85
287,238,182205,2,0,P|322:274|332:339,1,102
328,352,182542,6,0,B|396:288|504:308|480:364|452:392|388:344,1,220.999989883423
169,237,183048,1,0,0:0:0:0:
169,237,183132,1,0,0:0:0:0:
169,237,183216,2,0,L|177:140,1,85
300,72,183553,6,0,P|300:100|302:127,1,42.5
417,3,183722,2,0,P|389:3|362:5,1,42.5
379,182,183891,6,0,P|411:179|441:166,1,63.75
439,166,184228,6,0,B|420:228|420:228|448:268|448:268|456:332|420:368,1,203.999993774414
512,212,184733,1,0,0:0:0:0:
340,292,184902,2,0,B|305:286|305:286|279:290|279:290|230:284,1,85
439,166,185239,6,0,P|446:95|427:62,1,85
251,95,185576,2,0,B|272:129|272:129|392:121,1,127.5
371,28,185913,2,0,L|268:21,1,85
112,106,186250,1,0,0:0:0:0:
251,95,186419,1,0,0:0:0:0:
43,56,186587,2,0,P|30:123|69:181,1,127.5
100,189,186924,6,0,B|161:169|200:203|200:203|232:229|297:210,1,170
208,296,187430,1,0,0:0:0:0:
358,143,187598,2,0,P|343:198|350:240,1,85
490,315,187935,2,0,B|435:311|435:311|409:322|409:322|353:319,1,127.5
337,345,188273,6,0,B|291:353|291:353|241:338,1,85
94,216,188610,2,0,B|134:204|134:204|176:212,1,85
57,294,188947,1,0,0:0:0:0:
68,136,189115,1,0,0:0:0:0:
57,294,189284,1,0,0:0:0:0:
68,136,189452,1,0,0:0:0:0:
253,272,189621,6,0,P|273:216|234:133,1,127.5
161,131,189958,2,0,P|162:185|190:228,1,85
334,275,190295,6,0,L|488:265,1,127.5
448,351,190632,2,0,L|350:357,1,85
149,351,190969,6,0,P|205:340|264:378,1,127.5
334,275,191306,2,0,P|292:283|252:271,1,85
120,163,191643,6,0,P|70:221|164:229,1,191.250007295609
217,160,191980,2,0,B|222:40|222:40|212:91|159:109,1,191.250007295609
301,183,192317,5,0,0:0:0:0:
256,192,192402,12,0,194677,0:0:0:0:
256,192,194761,12,0,195941,0:0:0:0:
275,237,196025,5,0,0:0:0:0:
284,185,196109,1,0,0:0:0:0:
259,140,196193,1,0,0:0:0:0:
211,120,196277,1,0,0:0:0:0:
161,135,196362,6,0,P|229:117|257:77,1,85
78,0,196700,2,0,L|72:102,1,85
304,162,197037,2,0,P|322:94|301:49,1,85
166,45,197374,1,0,0:0:0:0:
248,242,197542,6,0,L|369:237,1,85
85,158,197879,2,0,L|-36:153,1,85
154,287,198216,1,0,0:0:0:0:
183,129,198385,1,0,0:0:0:0:
154,287,198553,1,0,0:0:0:0:
298,150,198722,2,0,P|359:148|422:216,1,127.5
425,210,199059,6,0,P|415:162|444:96,1,85
512,304,199396,2,0,L|399:298,1,85
341,76,199733,2,0,P|377:43|449:35,1,85
500,170,200070,1,0,0:0:0:0:
325,253,200239,6,0,L|330:154,1,85
187,291,200576,2,0,L|179:192,1,85
95,32,200913,1,0,0:0:0:0:
265,123,201082,1,0,0:0:0:0:
74,150,201250,1,0,0:0:0:0:
213,16,201419,1,0,0:0:0:0:
213,16,201587,1,0,0:0:0:0:
341,174,201756,6,0,P|399:173|435:148,1,85
251,131,202093,2,0,L|162:135,1,85
479,225,202430,2,0,P|507:174|503:130,1,85
405,61,202767,5,0,0:0:0:0:
377,302,202935,1,0,0:0:0:0:
377,302,203273,5,0,0:0:0:0:
395,143,203441,1,0,0:0:0:0:
472,331,203610,5,0,0:0:0:0:
451,207,203778,1,0,0:0:0:0:
286,335,203947,5,0,0:0:0:0:
300,236,204115,1,0,0:0:0:0:
390,384,204284,5,0,0:0:0:0:
377,302,204452,1,0,0:0:0:0:
363,311,204789,6,0,P|370:245|383:152,1,127.500004863739
