osu file format v14

[General]
AudioFilename: audio.mp3
AudioLeadIn: 0
PreviewTime: 50576
Countdown: 0
SampleSet: Soft
StackLeniency: 0.4
Mode: 0
LetterboxInBreaks: 0
WidescreenStoryboard: 1

[Editor]
DistanceSpacing: 1.2
BeatDivisor: 4
GridSize: 4
TimelineZoom: 3.199999

[Metadata]
Title:S(mile)ING!
TitleUnicode:S(mile)ING!
Artist:Shimamura Uzuki (CV.Ayaka Ohashi)
ArtistUnicode:島村卯月 (CV.大橋彩香)
Creator:Hikan
Version:Easy
Source:アイドルマスター シンデレラガールズ
Tags:Idolmaster i@mas animation project 00 st@rter best master 010 the idolm@ster cinderella girls smileing smiling
BeatmapID:1354511
BeatmapSetID:623468

[Difficulty]
HPDrainRate:2
CircleSize:2.5
OverallDifficulty:3
ApproachRate:3.5
SliderMultiplier:0.7
SliderTickRate:1

[Events]
//Background and Video events
0,0,"Uzukiiii.jpg",0,0
//Break Periods
//Storyboard Layer 0 (Background)
//Storyboard Layer 1 (Fail)
//Storyboard Layer 2 (Pass)
//Storyboard Layer 3 (Foreground)
//Storyboard Sound Samples

[TimingPoints]
-491,337.078651685393,4,2,0,30,1,0
688,-100,4,2,0,30,0,0
50744,-100,4,2,0,40,0,1
69621,-100,4,2,0,30,0,0
111419,-100,4,2,0,40,0,1
130295,-100,4,2,0,30,0,0
159958,-100,4,2,0,40,0,1
173357,-100,4,2,0,30,0,0
173441,-100,4,2,0,40,0,1
192317,-100,4,2,0,30,0,0

[Colours]
Combo1 : 247,189,125
Combo2 : 203,141,12
Combo3 : 245,137,183

[HitObjects]
484,326,857,6,0,L|473:172,1,140
360,241,2037,2,0,P|277:258|211:219,1,140
203,156,3048,1,0,0:0:0:0:
100,228,3553,2,0,L|113:394,1,140
220,305,4733,2,0,B|306:289|267:337|365:321,1,140
435,297,5744,1,0,0:0:0:0:
484,180,6250,6,0,B|412:163|412:163|349:199,1,140
240,249,7430,2,0,P|255:166|212:100,1,140
155,83,8441,1,0,0:0:0:0:
40,136,8947,1,0,0:0:0:0:
256,192,9115,12,0,10295,0:0:0:0:
51,261,11643,6,0,B|99:255|99:255|136:270|136:270|196:264,1,140
248,207,12655,1,0,0:0:0:0:
318,253,12992,2,0,P|329:184|277:127,1,140
208,105,14003,1,0,0:0:0:0:
173,181,14340,6,0,B|139:198|95:182|95:182|67:211|39:212,1,140
31,128,15351,1,0,0:0:0:0:
84,63,15688,2,0,P|132:44|202:75,1,105
258,157,16700,1,0,0:0:0:0:
326,108,17037,6,0,L|498:112,1,140
502,186,18048,1,0,0:0:0:0:
429,228,18385,2,0,B|414:313|461:287|447:365,1,140
365,343,19396,1,0,0:0:0:0:
311,278,19733,6,0,P|241:259|189:281,2,105
352,158,21250,2,0,L|342:69,1,70
228,38,22093,1,0,0:0:0:0:
176,104,22430,6,0,P|106:89|44:147,1,140
125,170,23441,1,0,0:0:0:0:
62,225,23778,2,0,L|78:375,1,140
155,334,24789,1,0,0:0:0:0:
235,359,25126,6,0,B|306:373|284:331|363:347,2,105
218,276,26475,2,0,L|221:190,1,70
294,167,27149,2,0,P|374:166|454:171,1,140
316,49,28497,2,0,P|236:48|156:53,1,140
105,97,29508,2,0,P|93:64|105:8,2,70
165,155,30520,2,0,P|92:131|6:228,1,210
11,300,31868,1,0,0:0:0:0:
81,346,32205,2,0,L|165:341,1,70
212,284,32879,1,0,0:0:0:0:
276,338,33216,6,0,P|326:311|410:331,1,140
470,378,34228,1,0,0:0:0:0:
504,301,34565,2,0,L|496:157,1,140
451,90,35576,1,0,0:0:0:0:
416,166,35913,6,0,B|367:180|325:146|325:146|305:160|260:161,1,140
209,122,36924,1,0,0:0:0:0:
156,187,37261,2,0,P|126:127|163:54,1,140
231,40,38273,1,0,0:0:0:0:
209,122,38610,6,0,L|56:126,1,140
14,189,39621,2,0,B|-12:240|-12:240|12:342,1,140
83,355,40632,2,0,L|184:349,1,70
212,291,41306,1,0,0:0:0:0:
276,345,41643,2,0,L|377:351,2,70
291,262,42655,2,0,L|300:112,1,140
444,36,44003,6,0,P|392:57|310:22,1,140
235,8,45014,1,0,0:0:0:0:
177,68,45351,2,0,L|57:61,1,105
118,267,46700,6,0,L|193:261,1,70
380,121,48048,2,0,L|305:127,1,70
256,285,49059,2,0,P|281:225|188:252,1,210
187,328,50407,1,0,0:0:0:0:
259,369,50744,6,0,P|348:356|430:357,1,140
479,374,51756,1,0,0:0:0:0:
453,293,52093,2,0,B|429:227|429:227|461:157,1,140
462,79,53104,6,0,P|393:75|337:14,1,140
263,54,54115,1,0,0:0:0:0:
182,79,54452,2,0,L|97:71,2,70
245,134,55464,2,0,P|260:178|261:208,1,70
241,282,56138,6,0,L|380:288,1,140
441,346,57149,2,0,P|463:268|416:211,1,140
347,78,58497,1,0,0:0:0:0:
273,119,58834,2,0,L|188:113,2,70
342,166,59846,2,0,P|410:139|432:54,1,140
398,5,60857,2,0,L|306:-5,1,70
258,44,61531,6,0,P|187:31|93:33,1,140
54,84,62542,1,0,0:0:0:0:
28,163,62879,2,0,B|13:208|13:208|36:312,1,140
98,351,63891,6,0,P|178:335|257:341,1,140
315,363,64902,2,0,L|392:357,1,70
467,373,65576,2,0,P|462:323|446:300,1,70
373,277,66250,2,0,P|378:227|394:204,1,70
462,172,66924,6,0,P|435:130|404:113,1,70
342,84,67598,2,0,P|292:82|260:97,1,70
200,131,68273,2,0,P|169:170|163:205,1,70
165,272,68947,2,0,L|172:363,2,70
421,54,70969,6,0,L|419:190,1,105
386,236,71812,1,0,0:0:0:0:
297,147,72317,6,0,P|212:119|146:154,1,140
114,200,73329,1,0,0:0:0:0:
196,215,73666,6,0,L|192:368,1,140
274,372,74677,1,0,0:0:0:0:
331,311,75014,2,0,B|410:293|394:337|473:319,1,140
512,246,76025,1,0,0:0:0:0:
452,186,76362,6,0,L|455:68,1,105
348,12,77374,1,0,0:0:0:0:
276,55,77711,6,0,P|215:39|125:49,1,140
110,123,78722,1,0,0:0:0:0:
49,65,79059,6,0,P|27:127|69:195,1,140
142,203,80070,1,0,0:0:0:0:
90,269,80407,2,0,L|86:385,2,105
209,310,81924,6,0,P|260:305|296:304,1,70
389,243,82767,1,0,0:0:0:0:
441,308,83104,6,0,P|472:241|439:174,1,140
370,160,84115,1,0,0:0:0:0:
287,146,84452,6,0,P|256:78|291:14,1,140
341,80,85463,1,0,0:0:0:0:
370,160,85801,2,0,P|352:203|283:230,2,105
287,146,87149,6,0,L|201:150,1,70
151,201,87823,6,0,P|133:155|169:79,1,131.25
291,34,89003,2,0,B|391:14|352:72|460:55,1,175
477,137,90183,6,0,P|479:167|467:207,2,70
396,161,91194,2,0,B|377:195|381:242|416:269|416:269|439:308|416:358,1,210
334,371,92542,1,0,0:0:0:0:
267,319,92879,2,0,L|193:325,1,70
119,357,93553,1,0,0:0:0:0:
54,302,93891,6,0,P|40:246|81:170,1,140
155,202,94902,1,0,0:0:0:0:
226,157,95239,6,0,L|214:15,1,140
296,3,96250,1,0,0:0:0:0:
359,57,96587,2,0,B|453:41|453:41|501:69,1,140
502,146,97598,1,0,0:0:0:0:
438,201,97935,2,0,P|384:186|308:225,1,140
287,301,98947,1,0,0:0:0:0:
228,241,99284,2,0,L|234:93,1,140
195,25,100295,6,0,P|129:9|54:59,1,140
47,122,101306,2,0,L|50:196,1,70
97,260,101980,1,0,0:0:0:0:
70,339,102317,2,0,L|-31:345,2,70
153,325,103329,2,0,B|236:311|199:365|298:348,1,140
434,270,104677,6,0,P|441:177|396:120,1,140
384,62,105688,1,0,0:0:0:0:
301,45,106025,2,0,L|179:54,1,105
119,248,107374,6,0,L|125:323,1,70
373,279,108722,6,0,L|367:204,1,70
244,94,109733,2,0,P|269:154|176:127,1,210
171,50,111081,1,0,0:0:0:0:
245,11,111419,6,0,P|347:17|403:37,1,140
466,22,112430,1,0,0:0:0:0:
434,100,112767,2,0,L|429:256,1,140
390,314,113778,6,0,B|322:332|322:332|246:289,1,140
186,259,114789,1,0,0:0:0:0:
111,297,115126,2,0,L|117:398,2,70
66,225,116138,2,0,L|72:124,1,70
120,87,116812,6,0,P|163:48|258:74,1,140
314,96,117823,6,0,P|271:135|176:109,1,140
316,11,119171,1,0,0:0:0:0:
387,54,119508,2,0,L|472:48,2,70
314,96,120520,2,0,B|291:141|291:141|311:256,1,140
296,312,121531,6,0,L|217:303,1,70
161,357,122205,6,0,P|145:288|197:227,1,140
209,155,123216,1,0,0:0:0:0:
151,94,123553,2,0,B|199:50|199:50|281:57,1,140
326,121,124565,6,0,P|388:104|474:111,1,140
494,186,125576,6,0,L|490:278,1,70
430,314,126250,2,0,L|338:310,1,70
292,261,126924,2,0,L|200:265,1,70
155,315,127598,6,0,P|118:281|106:247,1,70
90,182,128272,2,0,P|96:132|117:103,1,70
161,50,128947,2,0,P|204:26|240:26,1,70
295,69,129621,6,0,L|380:64,1,70
434,18,130295,6,0,P|448:62|392:145,1,140
321,155,131306,1,0,0:0:0:0:
376,217,131643,2,0,L|367:341,2,105
292,234,132992,6,0,P|239:237|176:193,1,105
111,222,133834,1,0,0:0:0:0:
145,145,134171,2,0,L|139:75,1,70
190,8,134846,6,0,P|243:-2|301:25,1,105
310,96,135688,6,0,P|363:106|421:79,1,105
461,22,136531,1,0,0:0:0:0:
492,99,136868,2,0,B|502:169|502:169|484:206|484:206|491:270,1,175
425,320,138048,1,0,0:0:0:0:
348,284,138385,6,0,L|265:290,1,70
210,338,139059,6,0,L|127:332,1,70
62,364,139733,6,0,P|57:324|70:288,1,70
135,249,140407,1,0,0:0:0:0:
112,168,140744,1,0,0:0:0:0:
28,165,141082,1,0,0:0:0:0:
