osu file format v14

[General]
AudioFilename: audio.mp3
AudioLeadIn: 0
PreviewTime: 72054
Countdown: 1
SampleSet: Normal
StackLeniency: 0.7
Mode: 0
LetterboxInBreaks: 0
WidescreenStoryboard: 0

[Editor]
DistanceSpacing: 1.3
BeatDivisor: 4
GridSize: 8
TimelineZoom: 1

[Metadata]
Title:Yes! Party Time!! (M@STER VERSION)
TitleUnicode:Yes! Party Time!! (M@STER VERSION)
Artist:Shimamu,Shiburin,Mio.Miria,Usamin
ArtistUnicode:島村卯月(CV.大橋彩香)、渋谷凛(CV.福原彩香)、本田未央(CV.原紗友里)、赤城みりあ(CV.黒沢ともよ)、安部菜々(CV.三宅麻理恵)
Creator:Evil_Twilight
Version:3370
Source:アイドルマスターシンデレラガールズ
Tags:
BeatmapID:1362831
BeatmapSetID:642849

[Difficulty]
HPDrainRate:9
CircleSize:4
OverallDifficulty:7
ApproachRate:7
SliderMultiplier:1.8
SliderTickRate:1

[Events]
//Background and Video events
0,0,"470d3a7f37b34e1255a66daa4e1a7af9.jpg",0,0
//Break Periods
//Storyboard Layer 0 (Background)
//Storyboard Layer 1 (Fail)
//Storyboard Layer 2 (Pass)
//Storyboard Layer 3 (Foreground)
//Storyboard Sound Samples

[TimingPoints]
805,405.405405405405,4,1,0,100,1,0
6075,-83.3333333333333,4,1,0,100,0,0
6480,-71.4285714285714,4,1,0,100,0,0
6886,-62.5,4,1,0,100,0,0
7291,-100,4,1,0,100,0,0
13777,-100,4,1,0,100,0,1
28676,-100,4,1,0,5,0,1
28777,-76.9230769230769,4,1,0,100,0,1
29386,-100,4,1,0,100,0,1
35365,-100,4,1,0,5,0,1
35467,-100,4,1,0,100,0,1
35568,-100,4,1,0,5,0,1
35669,-100,4,1,0,100,0,1
36379,-100,4,1,0,5,0,1
36480,-100,4,1,0,100,0,0
74690,-100,4,1,0,5,0,0
74791,-100,4,1,0,100,0,0
75399,-100,4,1,0,100,0,1
90298,-100,4,1,0,5,0,1
90399,-76.9230769230769,4,1,0,100,0,1
91007,-100,4,1,0,100,0,1
96987,-100,4,1,0,5,0,1
97088,-100,4,1,0,100,0,1
97190,-100,4,1,0,5,0,1
97291,-100,4,1,0,100,0,1
98000,-100,4,1,0,5,0,1
98102,-100,4,1,0,100,0,0

[Colours]
Combo1 : 255,192,0
Combo2 : 255,157,60
Combo3 : 0,51,102
Combo4 : 162,0,81

[HitObjects]
56,64,805,5,0,0:0:0:0:
40,24,906,1,0,0:0:0:0:
168,96,1109,1,0,0:0:0:0:
181,56,1210,1,0,0:0:0:0:
248,184,1413,1,0,0:0:0:0:
283,161,1514,1,0,0:0:0:0:
256,304,1717,1,0,0:0:0:0:
297,308,1818,1,0,0:0:0:0:
432,352,2021,2,0,P|456:309|504:276,1,90
432,184,2426,6,0,P|410:113|373:55,1,135
336,48,2832,1,0,0:0:0:0:
296,184,3034,1,0,0:0:0:0:
255,201,3136,1,0,0:0:0:0:
96,344,3440,5,0,0:0:0:0:
184,160,3642,1,0,0:0:0:0:
232,296,3845,1,0,0:0:0:0:
48,208,4048,5,0,0:0:0:0:
24,168,4149,1,0,0:0:0:0:
152,104,4352,1,0,0:0:0:0:
159,57,4453,1,0,0:0:0:0:
304,56,4656,1,0,0:0:0:0:
339,24,4757,1,0,0:0:0:0:
440,128,4960,1,0,0:0:0:0:
487,125,5061,1,0,0:0:0:0:
440,264,5264,2,0,P|392:253|350:221,1,90
304,96,5669,6,0,L|200:72,1,90
264,176,6075,6,0,L|158:153,1,107.999996704102
216,264,6480,6,0,L|80:232,1,125.999996154785
168,360,6886,6,0,L|0:320,1,144
0,184,7291,5,0,0:0:0:0:
32,152,7392,1,0,0:0:0:0:
54,112,7494,1,0,0:0:0:0:
59,67,7595,1,0,0:0:0:0:
41,25,7696,1,0,0:0:0:0:
184,64,7899,1,0,0:0:0:0:
224,48,8000,1,0,0:0:0:0:
368,128,8203,1,0,0:0:0:0:
328,112,8304,1,0,0:0:0:0:
216,168,8507,5,0,0:0:0:0:
328,0,8710,1,0,0:0:0:0:
216,168,8913,5,0,0:0:0:0:
160,272,9115,1,0,0:0:0:0:
112,264,9217,1,0,0:0:0:0:
72,256,9318,1,0,0:0:0:0:
224,368,9521,1,0,0:0:0:0:
264,360,9622,1,0,0:0:0:0:
464,280,9926,5,0,0:0:0:0:
272,200,10129,1,0,0:0:0:0:
336,328,10332,1,0,0:0:0:0:
408,144,10534,5,0,0:0:0:0:
408,144,10636,1,0,0:0:0:0:
408,144,10737,1,0,0:0:0:0:
408,144,10838,1,0,0:0:0:0:
408,144,10940,1,0,0:0:0:0:
320,72,11142,1,0,0:0:0:0:
320,72,11244,1,0,0:0:0:0:
208,104,11446,1,0,0:0:0:0:
208,104,11548,1,0,0:0:0:0:
104,160,11750,5,0,0:0:0:0:
16,88,11953,1,0,0:0:0:0:
256,192,12054,12,0,12156,0:0:0:0:
256,192,12257,12,0,12359,0:0:0:0:
256,192,12460,12,0,12562,0:0:0:0:
256,192,12663,12,0,12765,0:0:0:0:
256,192,12865,12,0,12967,0:0:0:0:
232,144,13169,5,0,0:0:0:0:
304,200,13372,5,0,0:0:0:0:
224,232,13575,5,0,0:0:0:0:
104,312,13777,6,0,P|71:272|38:255,1,90
16,80,14183,2,0,P|43:115|82:137,1,90
200,136,14588,2,0,L|336:88,1,135
496,32,15196,2,0,B|444:42|409:126|431:183,1,180
464,288,15804,1,0,0:0:0:0:
352,248,16007,1,0,0:0:0:0:
264,328,16210,2,0,B|264:276|241:231|186:220,1,135
16,112,17021,6,0,P|59:101|91:70,1,90
208,96,17426,2,0,L|304:72,1,90
352,64,17730,2,0,B|391:83|410:145|395:182,1,135
368,296,18237,1,0,0:0:0:0:
288,208,18440,1,0,0:0:0:0:
208,328,18642,6,0,L|16:304,1,180
304,232,19453,2,0,L|482:209,1,180
368,72,20264,6,0,P|330:46|300:-8,1,90
208,80,20669,2,0,L|96:48,1,90
120,176,21075,2,0,B|77:171|23:195|0:242,1,135
120,360,21683,2,0,B|168:391|262:355|273:295,1,180
264,184,22291,1,0,0:0:0:0:
160,240,22494,1,0,0:0:0:0:
184,128,22696,2,0,B|185:81|222:34|273:27,1,135
440,40,23304,1,0,0:0:0:0:
448,160,23507,6,0,L|272:120,1,180
64,232,24318,6,0,L|240:192,1,180
448,304,25129,6,0,L|272:264,1,180
64,376,25940,6,0,L|240:336,1,180
352,360,26548,1,0,0:0:0:0:
424,272,26750,5,0,0:0:0:0:
440,96,27054,1,0,0:0:0:0:
288,8,27359,1,0,0:0:0:0:
272,120,27561,5,0,0:0:0:0:
96,104,27865,1,0,0:0:0:0:
8,256,28169,1,0,0:0:0:0:
120,336,28372,6,0,B|164:342|218:319|243:277,1,135
264,192,28777,6,0,B|280:269|397:306|469:249,1,233.999989288331
504,152,29386,1,0,0:0:0:0:
384,152,29588,1,0,0:0:0:0:
344,40,29791,1,0,0:0:0:0:
232,80,29994,6,0,L|48:48,1,180
0,152,30602,1,0,0:0:0:0:
48,256,30804,2,0,B|92:280|153:262|181:211,1,135
320,136,31413,2,0,B|227:141|170:255|241:342,1,270
238,339,32426,5,0,0:0:0:0:
352,304,32629,1,0,0:0:0:0:
464,264,32832,1,0,0:0:0:0:
376,192,33034,1,0,0:0:0:0:
288,120,33237,6,0,B|236:136|154:104|132:40,1,180
16,48,33845,1,0,0:0:0:0:
64,152,34048,2,0,B|81:194|68:242|16:277,1,135
160,384,34656,2,0,B|147:327|192:251|250:242,1,180
224,128,35264,6,0,L|280:96,1,45
376,192,35467,2,0,L|334:174,1,45
352,80,35669,1,0,0:0:0:0:
256,192,35771,12,0,36379,0:0:0:0:
72,96,36480,5,0,0:0:0:0:
176,48,36683,1,0,0:0:0:0:
240,144,36886,2,0,P|240:188|206:231,1,90
120,296,37291,1,0,0:0:0:0:
232,336,37494,1,0,0:0:0:0:
232,336,37595,1,0,0:0:0:0:
232,336,37696,1,0,0:0:0:0:
344,312,37899,1,0,0:0:0:0:
432,232,38102,6,0,P|466:198|510:192,1,90
416,112,38507,2,0,L|424:16,1,90
320,80,38913,2,0,B|298:30|219:-1|152:16,1,180
56,48,39521,1,0,0:0:0:0:
96,184,39723,5,0,0:0:0:0:
200,120,39926,1,0,0:0:0:0:
200,120,40027,1,0,0:0:0:0:
200,120,40129,1,0,0:0:0:0:
264,216,40332,1,0,0:0:0:0:
200,312,40534,1,0,0:0:0:0:
304,368,40737,1,0,0:0:0:0:
347,378,40838,1,0,0:0:0:0:
392,376,40940,1,0,0:0:0:0:
432,357,41041,1,0,0:0:0:0:
463,324,41142,1,0,0:0:0:0:
424,184,41345,5,0,0:0:0:0:
320,232,41548,1,0,0:0:0:0:
320,232,41649,1,0,0:0:0:0:
320,232,41750,1,0,0:0:0:0:
248,144,41953,1,0,0:0:0:0:
280,32,42156,1,0,0:0:0:0:
176,88,42359,1,0,0:0:0:0:
145,120,42460,1,0,0:0:0:0:
102,135,42561,1,0,0:0:0:0:
56,133,42663,1,0,0:0:0:0:
17,110,42764,1,0,0:0:0:0:
8,256,42967,5,0,0:0:0:0:
120,224,43169,1,0,0:0:0:0:
224,280,43372,1,0,0:0:0:0:
224,280,43473,1,0,0:0:0:0:
224,280,43575,1,0,0:0:0:0:
224,280,43676,1,0,0:0:0:0:
224,280,43777,2,0,B|267:263|325:284|345:326,1,135
368,360,44183,2,0,P|376:313|412:276,1,90
488,208,44588,5,0,0:0:0:0:
480,88,44791,1,0,0:0:0:0:
376,40,44994,1,0,0:0:0:0:
320,144,45196,1,0,0:0:0:0:
216,96,45399,2,0,B|182:50|109:35|40:63,1,180
0,288,46210,5,0,0:0:0:0:
104,240,46413,1,0,0:0:0:0:
104,240,46514,1,0,0:0:0:0:
104,240,46615,1,0,0:0:0:0:
208,296,46818,1,0,0:0:0:0:
248,184,47021,1,0,0:0:0:0:
328,96,47223,1,0,0:0:0:0:
363,68,47325,1,0,0:0:0:0:
405,54,47426,1,0,0:0:0:0:
449,59,47527,1,0,0:0:0:0:
490,77,47629,1,0,0:0:0:0:
504,224,47832,5,0,0:0:0:0:
408,288,48034,1,0,0:0:0:0:
408,288,48136,1,0,0:0:0:0:
408,288,48237,1,0,0:0:0:0:
320,216,48440,1,0,0:0:0:0:
248,304,48642,1,0,0:0:0:0:
160,224,48845,1,0,0:0:0:0:
145,181,48946,1,0,0:0:0:0:
154,136,49048,1,0,0:0:0:0:
178,98,49149,1,0,0:0:0:0:
219,81,49250,1,0,0:0:0:0:
336,96,49453,6,0,B|383:101|435:73|459:16,2,135
256,184,50264,1,0,0:0:0:0:
360,240,50467,2,0,P|379:277|370:325,1,90
264,376,50872,1,0,0:0:0:0:
160,328,51075,5,0,0:0:0:0:
128,216,51277,1,0,0:0:0:0:
93,186,51379,1,0,0:0:0:0:
48,178,51480,1,0,0:0:0:0:
2,182,51582,2,0,P|-3:135|-33:82,1,90
144,48,52088,2,0,P|149:26|160:0,2,45
216,144,52494,1,0,0:0:0:0:
328,112,52696,5,0,0:0:0:0:
400,208,52899,1,0,0:0:0:0:
400,208,53000,2,0,B|436:232|443:295|414:343,1,135
312,368,53507,1,0,0:0:0:0:
216,304,53710,2,0,P|175:279|131:277,1,90
40,208,54115,1,0,0:0:0:0:
112,112,54318,5,0,0:0:0:0:
96,56,54419,1,0,0:0:0:0:
216,184,54723,1,0,0:0:0:0:
256,142,54824,1,0,0:0:0:0:
176,296,55129,1,0,0:0:0:0:
232,309,55230,1,0,0:0:0:0:
289,323,55332,1,0,0:0:0:0:
345,338,55433,1,0,0:0:0:0:
345,338,55940,5,0,0:0:0:0:
448,280,56142,1,0,0:0:0:0:
440,160,56345,2,0,P|447:113|476:81,1,90
504,48,56649,2,0,B|475:82|422:96|370:81,1,135
264,56,57156,1,0,0:0:0:0:
160,8,57359,1,0,0:0:0:0:
48,96,57561,6,0,B|20:147|61:229|131:233,1,180
232,192,58169,1,0,0:0:0:0:
344,224,58372,2,0,B|380:270|354:358|286:374,1,180
184,328,58980,6,0,L|6:297,1,180
72,200,59588,2,0,P|51:156|8:129,1,90
18,132,59892,2,0,B|57:138|122:106|144:64,1,135
248,48,60399,1,0,0:0:0:0:
224,160,60602,1,0,0:0:0:0:
368,144,60804,5,0,0:0:0:0:
104,264,61210,1,0,0:0:0:0:
384,312,61615,1,0,0:0:0:0:
144,152,62021,1,0,0:0:0:0:
408,48,62426,5,0,0:0:0:0:
408,48,63440,1,0,0:0:0:0:
408,48,63642,1,0,0:0:0:0:
128,112,64048,5,0,0:0:0:0:
128,112,65061,1,0,0:0:0:0:
128,112,65163,1,0,0:0:0:0:
128,112,65264,1,0,0:0:0:0:
64,208,65467,1,0,0:0:0:0:
168,264,65669,6,0,B|181:303|162:362|115:388,2,135
256,144,66480,2,0,B|215:135|174:89|175:36,2,135
320,272,67291,2,0,L|512:232,1,180
504,120,67899,1,0,0:0:0:0:
448,16,68102,2,0,B|397:-14|313:12|291:76,1,180
216,288,68913,5,0,0:0:0:0:
136,248,69115,1,0,0:0:0:0:
48,256,69318,1,0,0:0:0:0:
40,168,69521,1,0,0:0:0:0:
40,168,69622,1,0,0:0:0:0:
296,288,70534,5,0,0:0:0:0:
376,248,70736,1,0,0:0:0:0:
464,256,70939,1,0,0:0:0:0:
472,168,71142,1,0,0:0:0:0:
472,168,71243,1,0,0:0:0:0:
192,88,72156,6,0,L|0:40,1,180
320,88,72967,6,0,L|512:40,1,180
256,192,73575,6,0,L|256:376,1,180
112,344,74183,1,0,0:0:0:0:
152,208,74386,2,0,B|136:169|79:138|22:147,1,135
8,168,74791,5,0,0:0:0:0:
80,112,74994,5,0,0:0:0:0:
88,24,75196,5,0,0:0:0:0:
200,64,75399,6,0,P|240:40|297:35,1,90
400,8,75804,2,0,P|400:54|376:106,1,90
280,144,76210,2,0,B|276:191|300:234|348:255,1,135
384,264,76615,1,0,0:0:0:0:
368,376,76818,2,0,B|341:329|259:307|202:335,1,180
136,240,77426,2,0,P|97:208|49:206,1,90
160,144,77832,2,0,B|207:145|258:115|271:72,1,135
488,32,78642,6,0,P|461:71|461:134,1,90
376,200,79048,2,0,P|403:239|403:302,1,90
392,320,79352,2,0,B|368:354|304:367|264:346,1,135
192,256,79859,1,0,0:0:0:0:
312,264,80061,1,0,0:0:0:0:
184,136,80264,6,0,L|0:96,1,180
296,80,81075,2,0,L|480:40,1,180
504,152,81683,1,0,0:0:0:0:
400,200,81886,6,0,P|405:243|448:284,1,90
368,376,82291,2,0,P|363:333|320:292,1,90
224,256,82696,2,0,L|80:304,1,135
56,320,83102,1,0,0:0:0:0:
0,184,83304,2,0,B|-14:119|32:50|95:43,1,180
192,0,83913,2,0,P|218:34|219:85,1,90
240,208,84318,2,0,B|196:222|142:203|111:152,1,135
160,336,84926,1,0,0:0:0:0:
280,320,85129,6,0,L|480:288,1,180
232,248,85940,6,0,L|54:219,1,180
280,152,86750,6,0,L|457:123,1,180
232,48,87561,6,0,L|54:19,1,180
8,128,88169,1,0,0:0:0:0:
32,240,88372,5,0,0:0:0:0:
192,168,88676,1,0,0:0:0:0:
344,256,88980,1,0,0:0:0:0:
288,360,89183,5,0,0:0:0:0:
280,184,89487,1,0,0:0:0:0:
416,72,89791,1,0,0:0:0:0:
304,88,89994,6,0,B|261:101|206:83|180:37,1,135
96,32,90399,6,0,B|21:37|-30:147|18:217,1,233.999989288331
104,296,91007,1,0,0:0:0:0:
120,184,91210,1,0,0:0:0:0:
16,214,91413,1,0,0:0:0:0:
104,296,91615,6,0,B|152:320|237:298|261:238,1,180
288,128,92223,1,0,0:0:0:0:
392,176,92426,2,0,B|374:215|387:269|424:296,1,135
472,304,92832,1,0,0:0:0:0:
512,120,93034,2,0,B|501:30|362:-8|296:64,1,270
297,62,94048,5,0,0:0:0:0:
192,8,94250,1,0,0:0:0:0:
192,128,94453,1,0,0:0:0:0:
296,184,94656,1,0,0:0:0:0:
320,296,94859,6,0,B|309:353|216:387|159:356,1,180
56,344,95467,1,0,0:0:0:0:
80,232,95669,2,0,L|48:88,1,135
16,72,96075,1,0,0:0:0:0:
112,8,96277,2,0,B|166:-21|245:2|271:51,1,180
384,88,96886,6,0,L|344:144,1,45
240,176,97088,2,0,L|264:232,1,45
336,320,97291,1,0,0:0:0:0:
256,192,97392,12,0,98000,0:0:0:0:
184,248,98102,5,0,0:0:0:0:
