osu file format v14

[General]
AudioFilename: audio.mp3
AudioLeadIn: 2500
PreviewTime: 38756
Countdown: 0
SampleSet: Soft
StackLeniency: 0.3
Mode: 0
LetterboxInBreaks: 0
WidescreenStoryboard: 1

[Editor]
DistanceSpacing: 0.5
BeatDivisor: 4
GridSize: 4
TimelineZoom: 1.6

[Metadata]
Title:Naraku no Hana (TV Size)
TitleUnicode:奈落の花 (TV Size)
Artist:Shimamiya Eiko
ArtistUnicode:島みやえい子
Creator:kanor
Version:Rua
Source:ひぐらしのなく頃に解
Tags:Higurashi no Naku Koro ni Kai blood splat 07th expansion visual novel horror festival watanagashi rika furude hanyuu satoko houjou keiichi maebara rena ryugu mion sonozaki shion oyashimo opening Hikari Nadeshiko Lobelia abhor pata-mon misure narcissu anime japanese pop j-pop jpop 中沢伴行 Nakazawa Tomoyuki when they cicadas cry 2 2nd season Lobelia Misure Narcissu patamon pata-mon pata mon
BeatmapID:2663544
BeatmapSetID:1282054

[Difficulty]
HPDrainRate:7
CircleSize:3
OverallDifficulty:8
ApproachRate:9.2
SliderMultiplier:2.4
SliderTickRate:2

[Events]
//Background and Video events
0,0,"Konachan.jpg",0,0
//Break Periods
//Storyboard Layer 0 (Background)
//Storyboard Layer 1 (Fail)
//Storyboard Layer 2 (Pass)
//Storyboard Layer 3 (Foreground)
//Storyboard Layer 4 (Overlay)
//Storyboard Sound Samples

[TimingPoints]
2,550.45871559633,4,2,1,50,1,0
552,-100,4,2,1,50,0,0
1102,-100,4,2,1,30,0,0
1378,-100,4,2,1,30,0,0
1928,-100,4,2,1,10,0,0
2203,-100,4,2,1,15,0,0
2479,-100,4,2,1,20,0,0
2754,-100,4,2,1,25,0,0
3029,-100,4,2,1,30,0,0
3304,-100,4,2,1,35,0,0
3579,-100,4,2,1,40,0,0
3855,-100,4,2,1,45,0,0
4130,-100,4,2,1,50,0,0
4405,-200,4,2,1,30,0,0
12662,-100,4,2,1,50,0,0
13213,-100,4,2,1,30,0,0
13763,-200,4,2,1,50,0,0
16240,-200,4,2,1,50,0,0
17616,-200,4,2,1,50,0,0
21469,-100,4,2,1,50,0,0
22020,-200,4,2,1,30,0,0
28625,-200,4,2,1,15,0,0
30277,-100,4,2,1,50,0,0
30827,-200,4,2,1,30,0,0
34405,-100,4,2,1,15,0,0
35231,-200,4,2,1,30,0,0
35781,-333.333333333333,4,2,1,50,0,0
36332,-500,4,2,1,20,0,0
39635,-100,4,2,2,90,0,0
92479,-100,4,2,2,90,0,0
94268,-100,4,2,1,5,0,0

[Colours]
Combo1 : 192,192,192
Combo2 : 96,96,255
Combo3 : 0,115,230
Combo4 : 255,53,53

[HitObjects]
256,192,277,12,10,4405,0:0:0:0:
32,36,4956,5,0,0:0:0:0:
120,64,5231,2,0,L|132:208,1,120,8|0,0:0|0:0,0:0:0:0:
129,183,6332,5,0,0:0:0:0:
32,168,6607,1,0,0:0:0:0:
108,336,6882,1,0,0:0:0:0:
11,321,7157,1,0,0:0:0:0:
68,252,7433,1,0,0:0:0:0:
68,252,8534,5,0,0:0:0:0:
184,348,8809,2,0,P|248:348|288:296,1,120,8|0,0:0|0:0,0:0:0:0:
200,242,9635,2,0,P|168:297|193:358,1,120,8|0,0:0|0:0,0:0:0:0:
283,309,10460,1,0,0:0:0:0:
364,292,12387,5,0,0:0:0:0:
464,237,12662,2,2,B|461:277|461:277|452:285|452:285|468:286|468:286|459:293|459:293|455:345,1,120,6|0,0:0|0:0,0:1:0:0:
364,292,13213,1,10,0:0:0:0:
480,36,13763,5,0,0:0:0:0:
392,64,14038,2,0,L|380:208,1,120,8|0,0:0|0:0,0:0:0:0:
382,183,15139,5,0,0:0:0:0:
296,148,15414,1,0,0:0:0:0:
204,144,15690,1,0,0:0:0:0:
124,176,15965,1,0,0:0:0:0:
64,240,16240,1,0,0:0:0:0:
180,356,16515,1,2,0:0:0:0:
180,356,17616,6,0,B|124:372|124:372|60:352,1,120,10|0,0:0|0:0,0:0:0:0:
12,280,18442,2,0,B|68:264|68:264|132:284,1,120,8|0,0:0|0:0,0:0:0:0:
126,282,19268,1,2,0:0:0:0:
464,237,21469,6,2,B|461:277|461:277|452:285|452:285|468:286|468:286|459:293|459:293|455:345,1,120,6|0,0:0|0:0,0:1:0:0:
312,200,22020,6,2,L|208:188,1,90,10|0,0:0|0:0,0:0:0:0:
222,189,22570,2,0,L|222:105,1,60,0|8,0:0|0:0,0:0:0:0:
308,48,23121,1,0,0:0:0:0:
310,33,23396,1,0,0:0:0:0:
322,42,23671,1,0,0:0:0:0:
222,129,23946,5,0,0:0:0:0:
108,28,24222,2,0,P|128:76|128:148,1,120,0|0,0:0|0:0,0:0:0:0:
44,184,25047,2,0,L|36:252,1,60,0|2,0:0|0:0,0:0:0:0:
36,243,26148,5,0,0:0:0:0:
192,348,26424,2,0,L|176:268,2,60,10|0|0,0:0|0:0|0:0,0:0:0:0:
312,356,27249,2,0,L|324:220,1,120,8|0,0:0|0:0,0:0:0:0:
440,352,28075,1,2,0:0:0:0:
464,236,28625,2,0,L|444:328,2,90,2|0|0,0:0|0:0|0:0,0:0:0:0:
464,236,30277,6,2,B|460:275|460:275|451:283|451:283|467:284|467:284|459:291|459:291|454:343,1,120,6|0,0:0|0:0,0:1:0:0:
480,104,30827,6,2,L|376:116,1,90,10|2,0:0|0:0,0:0:0:0:
390,115,31377,2,0,L|376:196,1,60,0|8,0:0|0:0,0:0:0:0:
304,44,31928,1,0,0:0:0:0:
208,48,32203,1,0,0:0:0:0:
136,108,32478,1,0,0:0:0:0:
120,192,32754,1,0,0:0:0:0:
136,292,34405,5,0,0:0:0:0:
138,277,34680,1,0,0:0:0:0:
150,286,34955,1,0,0:0:0:0:
212,348,35231,6,0,L|284:340,1,60,0|0,0:0|0:0,0:0:0:0:
376,288,35781,6,0,L|332:284,1,35.9999989013672,0|0,0:0|0:0,0:0:0:0:
352,376,36332,6,0,L|384:372,1,24,0|0,0:0|0:0,0:0:0:0:
460,332,36882,5,0,0:0:0:0:
460,332,37157,1,0,0:0:0:0:
256,192,37295,12,0,38534,0:0:0:0:
256,192,39635,5,6,1:2:0:0:
76,40,39910,5,2,0:0:0:0:
76,64,40047,1,2,0:0:0:0:
8,112,40185,1,8,0:0:0:0:
220,32,40460,5,2,0:0:0:0:
220,56,40597,1,2,0:0:0:0:
152,104,40735,1,0,1:0:0:0:
372,24,41011,5,2,0:0:0:0:
372,48,41148,1,2,0:0:0:0:
304,96,41286,1,8,0:0:0:0:
324,316,41561,1,2,0:0:0:0:
508,192,41836,5,0,1:0:0:0:
484,336,42112,5,2,0:0:0:0:
484,312,42249,1,2,0:0:0:0:
416,264,42387,1,8,0:0:0:0:
208,352,42662,5,2,0:0:0:0:
208,328,42799,1,2,0:0:0:0:
152,236,42937,5,0,1:0:0:0:
152,260,43074,1,2,0:0:0:0:
100,328,43213,5,2,0:0:0:0:
84,156,43488,5,8,1:2:0:0:
84,180,43625,1,8,0:3:0:0:
0,216,43764,5,2,0:0:0:0:
0,192,43901,1,2,0:0:0:0:
24,96,44038,6,0,P|60:72|144:92,1,120,0|2,1:0|0:0,0:0:0:0:
312,184,44451,1,2,0:0:0:0:
228,200,44589,2,0,B|220:124|264:164|248:76,1,120,8|2,0:0|0:0,0:0:0:0:
216,0,45001,1,2,0:0:0:0:
249,85,45139,5,0,1:0:0:0:
340,96,45277,1,2,0:0:0:0:
412,44,45414,1,2,0:0:0:0:
412,44,45690,5,10,0:0:0:0:
428,134,45827,1,2,0:0:0:0:
500,186,45965,1,2,0:0:0:0:
500,186,46240,5,2,1:2:0:0:
419,229,46378,1,2,0:0:0:0:
392,313,46515,1,2,0:0:0:0:
392,313,46790,5,8,0:0:0:0:
326,249,46928,1,2,0:0:0:0:
237,249,47065,1,0,0:0:0:0:
341,224,47203,1,2,0:0:0:0:
225,224,47341,5,0,1:0:0:0:
199,136,47479,1,10,0:0:0:0:
133,200,47616,1,2,0:0:0:0:
133,200,47891,5,8,1:2:0:0:
107,112,48029,1,8,0:3:0:0:
41,176,48167,1,2,0:0:0:0:
199,136,48304,1,2,0:0:0:0:
152,288,48442,6,0,B|192:296|192:296|220:268|284:284,1,120,4|2,1:2|0:0,0:0:0:0:
368,364,48855,1,2,0:0:0:0:
368,364,48992,2,0,B|328:356|328:356|300:384|236:368,1,120,8|2,0:0|0:0,0:0:0:0:
266,280,49405,1,2,0:0:0:0:
288,276,49543,5,0,1:0:0:0:
312,272,49680,1,2,0:0:0:0:
356,192,49818,1,2,0:0:0:0:
356,192,50093,5,8,0:0:0:0:
380,188,50230,1,2,0:0:0:0:
424,108,50369,1,0,0:0:0:0:
448,104,50506,1,2,0:0:0:0:
352,32,50644,6,0,P|340:56|336:88,1,60,0|2,1:0|0:0,0:0:0:0:
256,140,50919,1,0,0:0:0:0:
183,16,51194,6,0,P|202:34|231:48,1,60,8|2,0:0|0:0,0:0:0:0:
116,172,51469,2,0,P|139:159|161:136,1,60,0|2,0:0|0:0,0:0:0:0:
256,140,51745,5,0,1:0:0:0:
256,160,51883,1,2,0:0:0:0:
404,216,52020,1,0,0:0:0:0:
404,236,52158,1,2,0:0:0:0:
312,224,52295,5,8,1:2:0:0:
312,244,52433,1,2,0:0:0:0:
460,300,52570,1,2,0:0:0:0:
460,320,52708,1,2,0:0:0:0:
368,324,52846,6,0,P|340:328|304:348,1,60,4|0,1:2|2:1,2:2:0:0:
165,339,53121,5,2,0:0:0:0:
165,339,53258,1,2,0:0:0:0:
165,339,53396,2,0,P|152:313|122:285,1,60,8|0,0:0|0:0,0:0:0:0:
87,151,53671,5,2,0:0:0:0:
87,151,53808,1,2,0:0:0:0:
87,151,53946,2,0,P|108:131|125:94,1,60,0|0,1:0|0:0,0:0:0:0:
242,19,54222,5,2,0:0:0:0:
242,19,54359,1,2,0:0:0:0:
242,19,54497,2,0,P|267:32|308:37,1,60,12|2,0:0|0:0,0:0:0:0:
416,126,54772,2,0,P|411:154|419:194,1,60,2|0,0:0|0:0,0:0:0:0:
488,256,55047,5,0,1:0:0:0:
468,256,55185,1,10,0:0:0:0:
396,312,55322,1,2,0:0:0:0:
376,312,55460,1,2,0:0:0:0:
288,276,55598,5,8,1:2:0:0:
268,276,55736,1,8,0:3:0:0:
196,332,55873,1,2,0:0:0:0:
176,332,56011,1,2,0:0:0:0:
122,265,56148,5,4,1:2:0:0:
9,229,56286,1,10,1:2:0:0:
48,304,56424,1,8,0:3:0:0:
84,191,56561,1,8,0:3:0:0:
116,64,56699,5,14,1:2:0:0:
252,108,56837,1,10,1:2:0:0:
205,18,56975,1,10,0:0:0:0:
162,153,57112,1,10,0:0:0:0:
252,264,57249,5,4,1:2:0:0:
484,184,57524,5,2,0:0:0:0:
484,208,57662,1,2,0:0:0:0:
416,256,57799,1,8,0:0:0:0:
281,359,58075,5,2,0:0:0:0:
260,347,58212,1,2,0:0:0:0:
252,264,58350,1,0,1:0:0:0:
232,100,58625,5,2,0:0:0:0:
252,87,58762,1,2,0:0:0:0:
328,122,58900,1,8,0:0:0:0:
336,296,59176,1,2,0:0:0:0:
44,352,59451,5,0,1:0:0:0:
23,340,59588,1,2,0:0:0:0:
15,257,59726,1,2,0:0:0:0:
184,84,60001,5,8,0:0:0:0:
205,96,60138,1,2,0:0:0:0:
213,179,60277,5,0,0:0:0:0:
234,191,60414,1,10,0:0:0:0:
244,276,60552,5,0,1:0:0:0:
208,356,60689,1,2,0:0:0:0:
296,348,60827,1,2,0:0:0:0:
108,216,61102,1,8,1:2:0:0:
36,8,61378,5,2,0:0:0:0:
16,92,61515,1,2,0:0:0:0:
57,20,61653,1,0,1:0:0:0:
244,36,61928,5,2,0:0:0:0:
184,98,62065,1,2,0:0:0:0:
256,56,62203,1,8,0:0:0:0:
420,152,62479,5,2,0:0:0:0:
337,175,62616,1,10,0:0:0:0:
420,175,62754,1,0,1:0:0:0:
337,198,62891,1,2,0:0:0:0:
420,198,63029,1,2,0:0:0:0:
512,336,63304,5,8,0:0:0:0:
428,315,63441,1,2,0:0:0:0:
500,356,63579,1,0,0:0:0:0:
416,335,63717,1,2,0:0:0:0:
332,356,63855,5,4,1:2:0:0:
308,344,63992,1,8,0:0:0:0:
280,340,64130,1,2,0:0:0:0:
252,344,64268,1,2,0:0:0:0:
152,360,64405,5,8,0:0:0:0:
170,324,64543,1,8,0:3:0:0:
176,282,64680,1,2,0:0:0:0:
170,240,64818,1,2,0:0:0:0:
60,120,64956,5,0,1:0:0:0:
138,159,65093,1,10,1:2:0:0:
229,171,65231,1,8,0:3:0:0:
321,159,65369,1,8,0:3:0:0:
456,0,65506,5,10,1:2:0:0:
405,169,65643,1,10,1:2:0:0:
417,78,65781,1,10,1:2:0:0:
417,261,65919,1,10,1:2:0:0:
432,348,66057,5,0,1:0:0:0:
452,344,66194,1,2,0:0:0:0:
476,340,66332,1,2,0:0:0:0:
320,228,66607,2,0,B|252:224|268:264|200:252,1,120,8|2,0:0|0:0,0:0:0:0:
184,248,67020,1,2,0:0:0:0:
112,300,67157,5,0,1:0:0:0:
114,327,67295,1,2,0:0:0:0:
116,355,67433,1,2,0:0:0:0:
24,144,67708,5,8,0:0:0:0:
22,171,67846,1,2,0:0:0:0:
32,200,67984,1,2,0:0:0:0:
204,28,68258,5,0,1:0:0:0:
206,55,68396,1,2,0:0:0:0:
148,120,68534,1,2,0:0:0:0:
468,236,68809,2,0,P|504:184|484:116,1,120,8|2,0:0|0:0,0:0:0:0:
488,108,69222,1,2,0:0:0:0:
408,68,69359,5,0,1:0:0:0:
381,66,69497,1,2,0:0:0:0:
316,124,69635,1,2,0:0:0:0:
316,124,69910,5,8,0:0:0:0:
289,122,70048,1,2,0:0:0:0:
224,180,70186,1,2,0:0:0:0:
344,352,70460,6,0,B|316:320|316:320|328:232,1,120,4|2,1:2|0:0,0:0:0:0:
84,344,71011,1,8,0:0:0:0:
212,352,71286,5,2,0:0:0:0:
214,325,71424,1,2,0:0:0:0:
156,260,71562,1,4,1:2:0:0:
8,120,71836,1,2,0:0:0:0:
80,208,72112,5,8,0:0:0:0:
78,181,72250,1,2,0:0:0:0:
136,116,72387,1,0,0:0:0:0:
134,89,72525,1,2,0:0:0:0:
228,12,72662,5,0,1:0:0:0:
224,40,72800,1,8,0:0:0:0:
284,104,72937,1,2,0:0:0:0:
282,131,73075,1,2,0:0:0:0:
472,136,73213,5,0,1:0:0:0:
474,163,73351,1,8,0:3:0:0:
416,228,73488,1,2,0:2:0:0:
418,255,73626,1,2,0:3:0:0:
488,356,73763,5,2,1:2:0:0:
404,308,73901,1,10,1:2:0:0:
308,276,74038,1,2,0:0:0:0:
208,292,74176,1,2,1:2:0:0:
128,348,74313,1,2,1:2:0:0:
20,180,74864,5,4,1:2:0:0:
180,152,75139,1,2,0:0:0:0:
20,180,75414,1,8,0:0:0:0:
180,152,75690,5,2,0:0:0:0:
92,124,75827,1,2,0:0:0:0:
20,180,75965,1,0,1:0:0:0:
104,208,76102,1,2,0:0:0:0:
180,152,76240,1,2,0:0:0:0:
180,152,76515,5,8,0:0:0:0:
104,208,76653,1,2,0:0:0:0:
20,180,76790,1,2,0:0:0:0:
320,28,77066,5,0,1:0:0:0:
324,56,77203,1,8,0:0:0:0:
476,132,77341,5,2,0:0:0:0:
480,104,77478,1,2,0:0:0:0:
376,136,77616,5,8,0:0:0:0:
380,164,77754,1,8,0:3:0:0:
456,248,77891,5,2,0:0:0:0:
460,220,78028,1,2,0:0:0:0:
384,296,78167,5,0,1:0:0:0:
388,324,78304,1,10,0:0:0:0:
392,352,78442,1,2,0:0:0:0:
392,352,78717,1,8,0:0:0:0:
120,352,78992,5,2,0:0:0:0:
124,324,79130,1,2,0:0:0:0:
192,268,79268,2,0,B|236:264|236:264|260:276|260:276|320:272,1,120,4|2,1:2|0:0,0:0:0:0:
120,164,79818,2,0,B|76:160|76:160|52:172|52:172|-8:168,1,120,8|2,0:0|0:0,0:0:0:0:
208,72,80368,5,0,1:0:0:0:
212,44,80505,1,2,0:0:0:0:
384,68,80644,1,0,0:0:0:0:
380,96,80781,1,2,0:0:0:0:
292,131,80919,2,0,P|296:71|304:12,1,120,8|2,0:0|0:0,0:0:0:0:
500,240,81469,5,0,1:0:0:0:
496,212,81607,1,8,0:0:0:0:
324,236,81745,1,2,0:0:0:0:
328,264,81883,1,2,0:0:0:0:
420,284,82020,5,8,0:0:0:0:
416,256,82158,1,8,0:3:0:0:
324,236,82296,1,2,0:0:0:0:
328,264,82434,1,2,0:0:0:0:
248,308,82570,5,4,1:2:0:0:
156,284,82708,1,8,0:3:0:0:
244,280,82846,2,0,L|244:352,1,60,0|0,0:0|0:0,0:0:0:0:
0,224,83121,5,12,0:0:0:0:
92,200,83258,1,8,0:0:0:0:
8,192,83396,5,0,0:0:0:0:
100,168,83534,1,8,0:3:0:0:
204,168,83671,5,4,1:2:0:0:
176,8,83946,1,2,0:0:0:0:
204,168,84221,1,8,0:0:0:0:
176,8,84497,5,2,0:0:0:0:
148,96,84634,1,2,0:0:0:0:
204,168,84772,1,0,1:0:0:0:
232,84,84909,1,2,0:0:0:0:
176,8,85047,1,2,0:0:0:0:
176,8,85322,5,8,0:0:0:0:
232,84,85460,1,2,0:0:0:0:
204,168,85597,1,2,0:0:0:0:
512,204,85873,5,0,1:0:0:0:
484,208,86010,1,8,0:0:0:0:
408,360,86148,5,2,0:0:0:0:
436,364,86285,1,2,0:0:0:0:
404,260,86423,5,8,0:0:0:0:
376,264,86560,1,8,0:3:0:0:
292,340,86698,5,2,0:0:0:0:
320,344,86835,1,2,0:0:0:0:
244,268,86974,5,0,1:0:0:0:
216,272,87111,1,10,0:0:0:0:
188,276,87249,1,2,0:0:0:0:
188,276,87524,1,8,0:0:0:0:
4,168,87799,5,2,0:0:0:0:
32,172,87937,1,2,0:0:0:0:
88,240,88075,2,0,B|92:284|92:284|80:308|80:308|84:368,1,120,4|2,1:2|0:0,0:0:0:0:
200,132,88625,2,0,B|204:88|204:88|192:64|192:64|196:4,1,120,8|2,0:0|0:0,0:0:0:0:
308,352,89175,5,0,1:0:0:0:
336,348,89313,1,2,0:0:0:0:
312,176,89451,1,0,0:0:0:0:
284,180,89589,1,2,0:0:0:0:
248,268,89726,2,0,P|307:263|367:256,1,120,8|2,0:0|0:0,0:0:0:0:
460,16,90276,5,0,1:0:0:0:
488,20,90414,1,8,0:0:0:0:
464,192,90552,1,6,0:2:0:0:
436,188,90690,1,2,0:0:0:0:
416,96,90827,5,8,0:0:0:0:
444,100,90965,1,8,0:3:0:0:
464,192,91103,1,6,0:2:0:0:
436,188,91241,1,2,0:0:0:0:
356,216,91377,5,12,1:2:0:0:
296,152,91515,1,8,1:3:0:0:
296,68,91653,2,0,P|316:44|372:32,1,60,0|0,0:0|1:0,0:0:0:0:
216,108,91928,5,12,1:2:0:0:
124,84,92066,1,10,1:2:0:0:
32,80,92203,5,0,0:0:0:0:
124,56,92341,1,8,0:3:0:0:
128,168,92479,1,4,0:0:0:0:
256,192,92616,12,0,94268,0:0:0:0:
