osu file format v14

[General]
AudioFilename: audio.mp3
AudioLeadIn: 2500
PreviewTime: 38756
Countdown: 0
SampleSet: Soft
StackLeniency: 0.7
Mode: 0
LetterboxInBreaks: 0
WidescreenStoryboard: 1

[Editor]
DistanceSpacing: 1.2
BeatDivisor: 4
GridSize: 4
TimelineZoom: 2.099999

[Metadata]
Title:Naraku no Hana (TV Size)
TitleUnicode:奈落の花 (TV Size)
Artist:Shimamiya Eiko
ArtistUnicode:島みやえい子
Creator:kanor
Version:Narcissu's Insane
Source:ひぐらしのなく頃に解
Tags:Higurashi no Naku Koro ni Kai blood splat 07th expansion visual novel horror festival watanagashi rika furude hanyuu satoko houjou keiichi maebara rena ryugu mion sonozaki shion oyashimo opening Hikari Nadeshiko Lobelia abhor pata-mon misure narcissu anime japanese pop j-pop jpop 中沢伴行 Nakazawa Tomoyuki when they cicadas cry 2 2nd season Lobelia Misure Narcissu patamon pata-mon pata mon
BeatmapID:2682225
BeatmapSetID:1282054

[Difficulty]
HPDrainRate:7
CircleSize:4.5
OverallDifficulty:8
ApproachRate:8.5
SliderMultiplier:2
SliderTickRate:2

[Events]
//Background and Video events
0,0,"Konachan.jpg",0,0
//Break Periods
//Storyboard Layer 0 (Background)
//Storyboard Layer 1 (Fail)
//Storyboard Layer 2 (Pass)
//Storyboard Layer 3 (Foreground)
//Storyboard Layer 4 (Overlay)
//Storyboard Sound Samples

[TimingPoints]
2,550.45871559633,4,2,16,70,1,0
4405,-133.333333333333,4,2,1,70,0,0
37433,-133.333333333333,4,2,16,70,0,0
37501,-133.333333333333,4,2,16,20,0,0
37570,-133.333333333333,4,2,16,70,0,0
37914,-133.333333333333,4,2,16,20,0,0
37983,-133.333333333333,4,2,16,70,0,0
38327,-133.333333333333,4,2,16,20,0,0
38396,-133.333333333333,4,2,16,70,0,0
39635,-83.3333333333333,4,2,16,70,0,1
56699,-71.4285714285714,4,2,16,70,0,1
57249,-62.5,4,2,16,70,0,1
57800,-83.3333333333333,4,2,16,70,0,1
74864,-83.3333333333333,4,2,16,70,0,0

[Colours]
Combo1 : 192,192,192
Combo2 : 96,96,255
Combo3 : 0,115,230
Combo4 : 255,53,53

[HitObjects]
96,296,4406,6,0,P|47:238|67:162,1,150.000005722046,10|0,0:0|0:0,0:0:0:0:
131,218,5232,1,8,0:0:0:0:
135,198,6333,5,0,0:0:0:0:
315,238,6608,1,0,0:0:0:0:
296,148,6883,1,0,0:0:0:0:
468,208,7157,1,0,0:0:0:0:
448,296,7434,1,0,0:0:0:0:
424,304,8535,5,0,0:0:0:0:
368,236,8810,2,0,P|360:160|320:96,1,150.000005722046,8|0,0:0|0:0,0:0:0:0:
240,60,9636,2,0,P|182:54|94:86,1,150.000005722046,8|0,0:0|0:0,0:0:0:0:
36,148,10461,1,0,0:0:0:0:
184,160,12663,6,2,B|177:208,1,37.5000014305115,6|2,0:0|0:0,0:1:0:0:
121,260,13214,6,0,P|189:216|277:240,1,150.000005722046,10|0,0:0|0:0,0:0:0:0:
324,280,14038,1,8,0:0:0:0:
336,268,15140,5,0,0:0:0:0:
480,104,15415,1,0,0:0:0:0:
392,120,15691,1,0,0:0:0:0:
200,28,15966,1,0,0:0:0:0:
288,36,16241,1,0,0:0:0:0:
384,144,16516,1,2,0:0:0:0:
376,164,17616,6,0,P|408:236|424:312,1,150.000005722046,10|0,0:0|0:0,0:0:0:0:
344,348,18442,2,0,P|272:324|192:324,1,150.000005722046,8|0,0:0|0:0,0:0:0:0:
112,344,19269,1,2,0:0:0:0:
128,204,21470,6,2,B|132:132,1,37.5000014305115,6|0,0:0|0:0,0:1:0:0:
108,140,22021,6,0,B|124:104|124:104|172:72|244:96,1,150.000005722046,10|0,0:0|0:0,0:0:0:0:
308,136,22847,1,8,0:0:0:0:
332,120,23947,5,0,0:0:0:0:
384,324,24222,1,0,0:0:0:0:
416,240,24498,1,0,0:0:0:0:
216,276,24773,1,0,0:0:0:0:
204,188,25048,1,0,0:0:0:0:
372,308,25324,1,2,0:0:0:0:
364,292,26149,5,0,0:0:0:0:
408,212,26425,2,0,P|417:148|425:52,1,150.000005722046,10|0,0:0|0:0,0:0:0:0:
336,40,27250,2,0,P|309:110|288:188,1,150.000005722046,8|0,0:0|0:0,0:0:0:0:
324,296,28076,1,2,0:0:0:0:
172,208,28626,6,0,P|104:208|56:232,2,112.500004291535,2|0|0,0:0|0:0|0:0,0:0:0:0:
192,344,30278,6,2,B|186:298,1,37.5000014305115,6|0,0:0|0:0,0:1:0:0:
272,312,30828,6,0,P|308:247|297:174,1,150.000005722046,10|0,0:0|0:0,0:0:0:0:
180,24,31654,1,8,0:0:0:0:
152,108,31929,1,0,0:0:0:0:
200,184,32204,1,0,0:0:0:0:
152,108,32479,1,0,0:0:0:0:
64,100,32755,1,0,0:0:0:0:
68,116,34406,5,0,0:0:0:0:
156,124,34681,1,0,0:0:0:0:
244,116,34957,1,0,0:0:0:0:
332,92,35232,2,0,P|396:52|472:76,1,150.000005722046
408,140,36058,1,0,0:0:0:0:
232,172,37434,6,0,L|208:198,1,18.7500007152558,0|0,3:0|0:0,0:0:0:0:
152,192,37847,2,0,L|136:223,1,18.7500007152558,0|0,3:0|0:0,0:0:0:0:
80,232,38259,2,0,L|72:267,1,18.7500007152558,0|0,3:0|0:0,0:0:0:0:
20,200,38535,1,0,1:0:0:0:
39,319,39636,6,0,B|75:291|75:291|171:287,1,119.999996337891,4|0,1:0|3:0,0:0:0:0:
219,283,40048,1,0,1:0:0:0:
219,283,40186,1,8,1:0:0:0:
373,217,40461,1,0,3:0:0:0:
407,226,40598,1,8,0:1:0:0:
423,217,40735,1,0,1:0:0:0:
436,205,40873,1,0,1:0:0:0:
446,190,41011,5,0,1:0:0:0:
264,184,41287,1,8,0:1:0:0:
372,308,41562,1,0,1:0:0:0:
452,228,41837,6,0,P|471:170|442:94,1,119.999996337891,4|0,3:2|3:0,0:0:0:0:
429,135,42250,1,0,1:0:0:0:
393,128,42388,1,8,0:1:0:0:
300,56,42663,1,0,3:0:0:0:
256,64,42801,1,8,0:1:0:0:
212,72,42938,1,0,1:0:0:0:
220,56,43076,1,0,1:0:0:0:
228,36,43214,5,0,1:0:0:0:
300,184,43488,1,8,0:1:0:0:
88,88,43763,1,0,1:0:0:0:
96,80,43902,1,0,1:0:0:0:
104,72,44039,6,0,L|120:208,1,119.999996337891,4|0,3:2|3:0,0:0:0:0:
128,264,44452,1,0,1:0:0:0:
128,264,44589,1,8,0:1:0:0:
254,332,44864,1,0,3:0:0:0:
230,292,45001,1,8,0:1:0:0:
235,281,45139,1,0,1:0:0:0:
236,269,45277,1,0,1:0:0:0:
234,257,45414,5,0,1:0:0:0:
95,332,45690,1,8,0:1:0:0:
315,285,45965,1,0,1:0:0:0:
391,221,46241,5,4,3:2:0:0:
427,229,46379,1,0,1:0:0:0:
463,237,46516,1,0,1:0:0:0:
315,285,46791,5,8,0:1:0:0:
271,293,46929,1,0,1:0:0:0:
227,301,47066,1,0,1:0:0:0:
339,145,47342,5,4,3:2:0:0:
347,93,47480,1,0,1:0:0:0:
355,41,47617,1,0,1:0:0:0:
391,221,47892,5,8,0:1:0:0:
243,141,48168,1,0,3:0:0:0:
243,141,48305,1,8,0:1:0:0:
212,176,48443,6,0,P|153:179|116:124,1,119.999996337891,4|0,1:0|3:0,0:0:0:0:
88,140,48856,1,0,1:0:0:0:
60,144,48993,1,8,0:1:0:0:
132,36,49269,1,0,3:0:0:0:
160,52,49406,1,8,0:1:0:0:
188,68,49544,1,0,1:0:0:0:
200,64,49681,1,0,1:0:0:0:
212,60,49819,6,0,B|272:56|272:56|344:72,1,119.999996337891,0|8,1:0|0:1,0:0:0:0:
468,268,50369,1,0,3:0:0:0:
416,252,50507,1,0,1:0:0:0:
364,236,50644,5,4,1:2:0:0:
392,132,50919,1,0,3:0:0:0:
496,164,51194,1,8,0:1:0:0:
468,268,51470,1,0,3:0:0:0:
420,280,51608,1,8,0:1:0:0:
400,324,51746,1,0,1:0:0:0:
377,331,51883,1,0,1:0:0:0:
353,333,52021,5,0,1:0:0:0:
152,252,52296,1,8,0:1:0:0:
124,344,52571,1,0,3:0:0:0:
356,220,52847,5,2,3:2:0:0:
72,80,53122,1,2,1:2:0:0:
124,244,53397,1,10,0:1:0:0:
400,20,53672,1,2,3:2:0:0:
88,96,53947,1,0,1:0:0:0:
160,108,54085,1,2,1:2:0:0:
232,120,54223,1,2,3:0:0:0:
384,40,54497,2,0,B|408:76|408:76|404:112|404:112|444:152|420:216,1,179.999994506836,12|2,0:1|0:0,0:0:0:0:
356,172,55048,1,8,3:0:0:0:
340,252,55324,1,0,1:0:0:0:
136,184,55599,1,8,3:0:0:0:
76,244,55874,1,0,1:0:0:0:
200,92,56149,6,0,B|132:56|64:68|64:68|108:96,1,179.999994506836,4|0,1:2|1:0,0:0:0:0:
288,112,56700,2,0,B|364:109|420:64|420:64|384:76|340:76,1,209.999993591309,4|0,3:1|1:0,0:0:0:0:
216,72,57250,2,0,B|212:132|212:132|224:160|224:160|220:208|220:208|224:216|224:216|220:248,1,160,4|0,3:0|1:0,0:0:0:0:
216,308,57663,1,0,1:0:0:0:
216,308,57800,5,8,1:0:0:0:
108,208,58075,1,0,3:0:0:0:
92,220,58213,1,8,0:1:0:0:
56,216,58350,1,0,1:0:0:0:
60,256,58488,1,0,1:0:0:0:
64,296,58625,5,0,1:0:0:0:
40,116,58901,1,8,0:1:0:0:
208,196,59176,1,0,1:0:0:0:
260,68,59451,6,0,B|276:32|276:32|336:104,1,119.999996337891,4|0,3:2|3:0,0:0:0:0:
352,100,59864,1,0,1:0:0:0:
376,104,60001,1,8,0:1:0:0:
460,256,60277,1,0,3:0:0:0:
448,260,60414,1,8,0:1:0:0:
408,240,60552,1,0,1:0:0:0:
364,240,60690,1,0,1:0:0:0:
324,260,60827,5,0,1:0:0:0:
124,252,61102,1,8,0:1:0:0:
180,168,61378,1,0,1:0:0:0:
180,168,61515,1,0,1:0:0:0:
212,188,61653,6,0,L|228:324,1,119.999996337891,4|0,3:2|3:0,0:0:0:0:
232,340,62066,1,0,1:0:0:0:
236,372,62203,1,8,0:1:0:0:
60,328,62479,1,0,3:0:0:0:
52,320,62616,1,8,0:1:0:0:
47,309,62754,1,0,1:0:0:0:
36,272,62891,1,0,1:0:0:0:
28,236,63029,5,0,1:0:0:0:
156,112,63304,1,8,0:1:0:0:
128,264,63579,1,0,1:0:0:0:
448,160,63855,5,4,1:0:0:0:
116,248,64130,1,2,0:0:0:0:
400,288,64405,1,4,1:2:0:0:
104,232,64680,1,2,0:0:0:0:
264,104,64956,5,0,1:0:0:0:
278,149,65093,1,2,1:2:0:0:
277,197,65231,1,8,0:1:0:0:
262,242,65369,1,2,3:2:0:0:
264,279,65507,1,0,1:0:0:0:
298,289,65645,1,2,1:2:0:0:
319,259,65782,1,8,0:1:0:0:
297,229,65920,1,2,3:2:0:0:
262,242,66058,6,0,B|204:244|204:244|136:216,1,119.999996337891,4|0,3:0|1:0,0:0:0:0:
68,240,66470,1,0,1:0:0:0:
68,240,66608,2,0,B|40:268|40:268|28:364,1,119.999996337891,8|0,0:1|0:0,0:0:0:0:
48,80,67158,6,0,P|100:108|180:84,1,119.999996337891,0|0,3:0|1:0,0:0:0:0:
224,48,67571,1,0,1:0:0:0:
224,48,67709,2,0,P|292:56|356:80,1,119.999996337891,8|0,0:1|0:0,0:0:0:0:
448,200,68259,6,0,P|417:152|444:92,1,119.999996337891,0|0,3:0|3:0,0:0:0:0:
488,148,68672,1,0,1:0:0:0:
488,148,68810,1,8,1:0:0:0:
312,104,69085,1,0,3:0:0:0:
308,128,69222,1,8,0:1:0:0:
328,164,69359,1,0,1:0:0:0:
348,200,69497,1,0,1:0:0:0:
344,244,69635,5,0,1:0:0:0:
116,144,69910,1,8,0:1:0:0:
192,328,70185,1,4,1:2:0:0:
16,292,70461,6,0,B|96:284|96:284|136:256,1,119.999996337891,4|0,1:0|3:0,0:0:0:0:
212,236,70874,1,2,0:0:0:0:
224,240,71012,1,10,0:1:0:0:
232,244,71149,1,2,0:0:0:0:
240,248,71287,1,2,0:0:0:0:
248,252,71425,1,2,0:0:0:0:
288,244,71562,6,0,B|360:260|360:260|392:300,1,119.999996337891,4|2,0:0|0:0,0:0:0:0:
368,253,71974,1,2,0:0:0:0:
376,206,72112,1,14,3:1:0:0:
411,174,72249,1,2,1:2:0:0:
458,168,72387,1,2,1:2:0:0:
499,190,72525,1,2,1:2:0:0:
496,144,72663,1,2,3:2:0:0:
256,164,72938,6,0,L|312:124,1,59.9999981689454,4|0,0:0|1:0,0:0:0:0:
408,52,73214,1,0,1:0:0:0:
364,265,73489,6,0,L|380:189,1,59.9999981689454,4|0,0:3|1:0,0:0:0:0:
316,100,73764,1,0,1:0:0:0:
500,280,74039,6,0,L|468:200,1,59.9999981689454,4|0,0:1|1:0,0:0:0:0:
272,300,74314,1,0,1:0:0:0:
264,312,74865,6,0,L|136:320,1,119.999996337891,4|0,1:0|3:0,0:0:0:0:
60,324,75278,1,0,1:0:0:0:
48,348,75415,2,0,P|20:300|44:228,1,119.999996337891,8|2,0:1|0:0,0:0:0:0:
0,124,75966,6,0,L|144:140,1,119.999996337891,2|0,3:2|3:0,0:0:0:0:
168,64,76379,1,0,1:0:0:0:
196,88,76516,2,0,L|332:72,1,119.999996337891,8|2,0:1|0:0,0:0:0:0:
436,64,77067,5,2,1:2:0:0:
432,108,77204,1,2,1:2:0:0:
464,140,77342,2,0,L|484:200,1,59.9999981689454,2|0,1:2|0:0,0:0:0:0:
400,192,77617,1,8,0:1:0:0:
400,192,77755,2,0,B|376:228|376:228|368:308,1,119.999996337891,2|0,1:2|0:0,0:0:0:0:
436,344,78168,6,0,L|504:336,1,59.9999981689454,2|0,3:2|0:0,0:0:0:0:
348,316,78443,2,0,L|280:308,1,59.9999981689454,2|0,1:2|0:0,0:0:0:0:
448,328,78718,2,0,L|516:320,1,59.9999981689454,8|0,0:1|0:0,0:0:0:0:
328,328,78993,2,0,L|260:320,1,59.9999981689454,2|0,1:2|0:0,0:0:0:0:
396,256,79268,6,0,B|392:216|392:216|384:204|384:204|376:116,1,119.999996337891,4|0,1:0|3:0,0:0:0:0:
420,68,79680,1,0,1:0:0:0:
420,68,79818,2,0,B|388:92|388:92|300:100,1,119.999996337891,8|2,0:1|0:0,0:0:0:0:
128,52,80368,6,0,P|80:30|8:48,1,119.999996337891,2|0,3:2|3:0,0:0:0:0:
64,132,80781,1,0,1:0:0:0:
68,112,80919,2,0,P|100:156|104:244,1,119.999996337891,8|2,0:1|0:0,0:0:0:0:
36,304,81469,5,2,1:2:0:0:
44,292,81607,1,2,1:2:0:0:
72,324,81745,2,0,L|136:320,1,59.9999981689454,2|0,1:2|0:0,0:0:0:0:
228,272,82020,1,8,0:1:0:0:
276,280,82157,2,0,B|400:292,1,119.999996337891,2|0,1:2|0:0,0:0:0:0:
476,252,82571,5,12,0:1:0:0:
456,240,82709,1,0,1:0:0:0:
464,200,82847,1,0,1:0:0:0:
452,180,82984,1,0,1:0:0:0:
460,132,83122,5,8,0:1:0:0:
438,90,83259,1,0,1:0:0:0:
396,66,83397,1,0,1:0:0:0:
349,68,83534,1,0,1:0:0:0:
310,95,83672,6,0,L|176:88,1,119.999996337891,4|0,1:0|3:0,0:0:0:0:
88,60,84085,1,0,1:0:0:0:
104,40,84222,2,0,L|120:164,1,119.999996337891,8|2,0:1|0:0,0:0:0:0:
40,324,84773,6,0,B|76:280|76:280|148:264,1,119.999996337891,2|0,3:2|3:0,0:0:0:0:
232,220,85186,1,0,1:0:0:0:
220,252,85323,2,0,L|280:376,1,119.999996337891,8|2,0:1|0:0,0:0:0:0:
344,272,85874,5,2,1:2:0:0:
372,288,86011,1,2,1:2:0:0:
380,320,86149,2,0,L|444:284,1,59.9999981689454,2|0,1:2|0:0,0:0:0:0:
512,248,86424,1,8,0:1:0:0:
512,248,86562,2,0,P|512:188|496:124,1,119.999996337891,2|0,1:2|0:0,0:0:0:0:
412,112,86975,6,0,L|404:180,1,59.9999981689454,2|0,3:2|0:0,0:0:0:0:
432,24,87250,2,0,L|500:16,1,59.9999981689454,2|0,1:2|0:0,0:0:0:0:
396,124,87525,2,0,L|388:192,1,59.9999981689454,8|0,0:1|0:0,0:0:0:0:
452,36,87800,2,0,L|520:28,1,59.9999981689454,2|0,1:2|0:0,0:0:0:0:
344,52,88076,6,0,B|308:64|308:64|200:52,1,119.999996337891,4|0,1:0|3:0,0:0:0:0:
144,44,88489,1,0,1:0:0:0:
144,44,88626,2,0,P|96:80|100:156,1,119.999996337891,8|2,0:1|0:0,0:0:0:0:
264,148,89177,6,0,L|392:136,1,119.999996337891,2|0,3:2|3:0,0:0:0:0:
468,128,89590,1,0,1:0:0:0:
468,128,89727,2,0,B|500:164|500:164|516:252,1,119.999996337891,8|2,0:1|0:0,0:0:0:0:
400,232,90278,5,2,1:2:0:0:
368,268,90415,1,2,1:2:0:0:
352,256,90553,2,0,L|288:252,1,59.9999981689454,2|0,1:2|0:0,0:0:0:0:
216,316,90828,1,8,0:1:0:0:
216,316,90966,2,0,B|196:180,1,119.999996337891,2|0,1:2|0:0,0:0:0:0:
120,276,91378,5,4,0:0:0:0:
104,288,91516,1,0,1:0:0:0:
88,300,91654,1,0,1:0:0:0:
92,104,91929,5,8,0:1:0:0:
128,73,92066,1,0,1:0:0:0:
173,56,92204,1,0,1:0:0:0:
220,56,92341,1,0,1:0:0:0:
265,73,92479,1,4,0:0:0:0:
