osu file format v14

[General]
AudioFilename: audio.mp3
AudioLeadIn: 2500
PreviewTime: 38756
Countdown: 0
SampleSet: Soft
StackLeniency: 0.7
Mode: 0
LetterboxInBreaks: 0
WidescreenStoryboard: 1

[Editor]
DistanceSpacing: 0.5
BeatDivisor: 4
GridSize: 4
TimelineZoom: 2.1

[Metadata]
Title:Naraku no Hana (TV Size)
TitleUnicode:奈落の花 (TV Size)
Artist:Shimamiya Eiko
ArtistUnicode:島みやえい子
Creator:kanor
Version:Lobelia's Insane
Source:ひぐらしのなく頃に解
Tags:Higurashi no Naku Koro ni Kai blood splat 07th expansion visual novel horror festival watanagashi rika furude hanyuu satoko houjou keiichi maebara rena ryugu mion sonozaki shion oyashimo opening Hikari Nadeshiko Lobelia abhor pata-mon misure narcissu anime japanese pop j-pop jpop 中沢伴行 Nakazawa Tomoyuki when they cicadas cry 2 2nd season Lobelia Misure Narcissu patamon pata-mon pata mon
BeatmapID:2662852
BeatmapSetID:1282054

[Difficulty]
HPDrainRate:6
CircleSize:4
OverallDifficulty:8
ApproachRate:9
SliderMultiplier:2.4
SliderTickRate:2

[Events]
//Background and Video events
0,0,"Konachan.jpg",0,0
//Break Periods
//Storyboard Layer 0 (Background)
//Storyboard Layer 1 (Fail)
//Storyboard Layer 2 (Pass)
//Storyboard Layer 3 (Foreground)
//Storyboard Layer 4 (Overlay)
//Storyboard Sound Samples

[TimingPoints]
2,550.45871559633,4,2,1,50,1,0
552,-200,4,2,1,50,0,0
1102,-100,4,2,1,30,0,0
1378,-200,4,2,1,30,0,0
1928,-100,4,2,1,10,0,0
2203,-200,4,2,1,15,0,0
2479,-200,4,2,1,20,0,0
2754,-200,4,2,1,25,0,0
3029,-200,4,2,1,30,0,0
3304,-200,4,2,1,35,0,0
3579,-200,4,2,1,40,0,0
3855,-200,4,2,1,45,0,0
4130,-200,4,2,1,50,0,0
4405,-100,4,2,1,30,0,0
12662,-66.6666666666667,4,2,1,50,0,0
13213,-100,4,2,1,30,0,0
13763,-100,4,2,1,50,0,0
16240,-100,4,2,1,50,0,0
17616,-100,4,2,1,50,0,0
21469,-66.6666666666667,4,2,1,50,0,0
22020,-100,4,2,1,30,0,0
28625,-100,4,2,1,15,0,0
30277,-66.6666666666667,4,2,1,50,0,0
30827,-100,4,2,1,30,0,0
34405,-100,4,2,1,15,0,0
35231,-100,4,2,1,30,0,0
35781,-100,4,2,1,50,0,0
36332,-100,4,2,1,20,0,0
37433,-200,4,2,1,20,0,0
38534,-100,4,2,1,20,0,0
38809,-100,4,2,2,20,0,0
39084,-100,4,2,2,20,0,0
39359,-100,4,2,2,20,0,0
39635,-66.6666666666667,4,2,2,90,0,1
52846,-66.6666666666667,4,2,2,90,0,1
53121,-100,4,2,2,90,0,1
53671,-66.6666666666667,4,2,2,90,0,1
53946,-66.6666666666667,4,2,2,90,0,1
55047,-66.6666666666667,4,2,2,90,0,1
56148,-66.6666666666667,4,2,2,90,0,0
56699,-66.6666666666667,4,2,2,90,0,0
57249,-66.6666666666667,4,2,2,90,0,1
65506,-66.6666666666667,4,2,2,90,0,1
66057,-66.6666666666667,4,2,2,90,0,1
70185,-125,4,2,2,90,0,1
70460,-66.6666666666667,4,2,2,90,0,1
71561,-66.6666666666667,4,2,2,90,0,1
72112,-66.6666666666667,4,2,2,90,0,1
72937,-66.6666666666667,4,2,2,90,0,1
73213,-66.6666666666667,4,2,2,90,0,1
73488,-66.6666666666667,4,2,2,90,0,1
73763,-66.6666666666667,4,2,2,90,0,1
74313,-66.6666666666667,4,2,2,90,0,1
74864,-83.3333333333333,4,2,2,90,0,0
92479,-166.666666666667,4,2,2,90,0,0
94268,-166.666666666667,4,2,1,5,0,0

[Colours]
Combo1 : 192,192,192
Combo2 : 96,96,255
Combo3 : 0,115,230
Combo4 : 255,53,53

[HitObjects]
90,146,277,5,10,0:0:0:0:
87,175,414,1,0,0:0:0:0:
84,204,552,2,0,L|80:268,1,60,0|0,0:0|0:0,0:0:0:0:
255,148,1102,5,0,0:0:0:0:
250,124,1240,1,0,0:0:0:0:
245,101,1378,2,0,B|238:32,1,60,0|0,0:0|0:0,0:0:0:0:
399,124,1928,5,0,0:0:0:0:
397,141,2066,1,0,0:0:0:0:
394,159,2203,2,0,L|383:218,1,60,0|0,0:0|0:0,0:0:0:0:
256,192,2616,12,0,4130,0:0:0:0:
35,296,4405,6,0,B|28:248|73:226|110:229|132:260|134:294|134:294|161:316,1,180,10|0,0:0|0:0,0:0:0:0:
202,356,4956,1,0,0:0:0:0:
353,318,5231,2,0,P|367:259|341:188,1,120,8|0,0:0|0:0,0:0:0:0:
83,75,6332,5,0,0:0:0:0:
237,93,6607,1,0,0:0:0:0:
144,219,6882,1,0,0:0:0:0:
160,83,7157,1,0,0:0:0:0:
185,302,7433,2,0,P|126:309|74:282,1,120,0|0,0:0|0:0,0:0:0:0:
185,302,8534,5,0,0:0:0:0:
431,225,8809,2,0,B|449:266|425:304|425:304|428:347|452:365|487:351|462:320,1,180,8|0,0:0|0:0,0:0:0:0:
355,255,9359,1,0,0:0:0:0:
227,83,9635,2,0,B|247:32|298:42|305:103|260:124|216:113|216:113|171:94|124:121,1,240,8|0,0:0|0:0,0:0:0:0:
183,265,10460,2,0,B|197:222|177:184|177:184|141:218,1,120,0|0,0:0|0:0,0:0:0:0:
41,336,12662,6,2,B|82:307|123:344|123:344|154:301|206:315,1,180.000006866455,6|0,0:0|0:0,0:1:0:0:
111,248,13213,6,0,B|91:190|137:148|137:148|83:96,1,180,10|0,0:0|0:0,0:0:0:0:
207,222,13763,1,0,0:0:0:0:
401,283,14038,2,0,P|344:260|284:284,1,120,8|0,0:0|0:0,0:0:0:0:
434,60,15139,5,0,0:0:0:0:
392,210,15414,1,0,0:0:0:0:
274,107,15690,1,0,0:0:0:0:
353,81,15965,1,0,0:0:0:0:
399,237,16240,1,0,0:0:0:0:
234,220,16515,2,0,B|282:214|326:282|288:345|215:345|188:308|188:308|123:294|74:326|74:326|42:295|52:241,1,420,2|0,0:0|0:0,0:0:0:0:
154,222,17616,6,0,B|152:165|208:140|208:140|152:77|201:12,1,240,10|0,0:0|0:0,0:0:0:0:
382,57,18442,2,0,L|252:69,2,120,8|0|0,0:0|0:0|0:0,0:0:0:0:
475,182,19268,1,2,0:0:0:0:
483,200,21469,6,2,B|456:192|456:192|420:213|382:196|382:196|344:180|299:207,1,180.000006866455,6|0,0:0|0:0,0:1:0:0:
350,363,22020,6,0,B|366:333|348:313|348:313|350:271|350:271|307:292|259:267,1,180,10|0,0:0|0:0,0:0:0:0:
225,199,22570,1,0,0:0:0:0:
48,154,22846,2,0,P|103:132|158:152,1,120,8|0,0:0|0:0,0:0:0:0:
413,316,23946,5,0,0:0:0:0:
411,160,24222,1,0,0:0:0:0:
281,246,24497,1,0,0:0:0:0:
412,236,24772,1,0,0:0:0:0:
256,249,25047,1,0,0:0:0:0:
479,92,25323,2,0,B|452:52|382:77|390:144|427:158|427:158|391:194|410:234|410:234|426:265|408:304,1,300,2|0,0:0|0:0,0:0:0:0:
338,266,26148,1,0,0:0:0:0:
174,298,26424,6,0,B|219:258|265:294|265:294|250:257|273:217|273:217|219:186|154:211,1,300,10|0,0:0|0:0,0:0:0:0:
104,266,27249,2,0,B|64:213|97:161|97:161|75:142|33:157|33:157|6:96|36:38,1,300,8|0,0:0|0:0,0:0:0:0:
108,20,28075,2,0,P|159:34|208:82,1,120,2|0,0:0|0:0,0:0:0:0:
265,294,28625,6,0,P|347:277|444:296,2,180,2|0|0,0:0|0:0|0:0,0:0:0:0:
58,47,30277,6,2,B|77:122|77:122|54:131|54:131|76:222,1,180.000006866455,6|0,0:0|0:0,0:1:0:0:
268,171,30827,6,0,L|140:169,1,120,10|0,0:0|0:0,0:0:0:0:
144,253,31240,2,0,L|227:255,1,60,2|0,0:0|0:0,0:0:0:0:
418,321,31653,5,8,0:0:0:0:
418,165,31928,1,0,0:0:0:0:
287,251,32203,1,0,0:0:0:0:
418,321,32479,1,0,0:0:0:0:
379,244,32754,1,0,0:0:0:0:
321,80,34405,6,0,P|374:91|447:80,2,120,0|0|0,0:0|0:0|0:0,0:0:0:0:
171,42,35231,1,0,0:0:0:0:
210,192,35506,1,0,0:0:0:0:
321,80,35781,1,0,0:0:0:0:
171,42,36057,1,0,0:0:0:0:
210,192,36332,5,0,0:0:0:0:
234,107,36607,1,0,0:0:0:0:
321,80,36882,2,0,P|382:67|443:81,1,120,0|0,0:0|0:0,0:0:0:0:
448,227,37433,6,0,P|368:166|326:276,1,240,0|0,0:0|0:0,0:0:0:0:
168,98,38809,6,0,L|240:104,1,60,2|0,0:0|0:0,0:0:0:0:
361,129,39084,2,0,L|290:134,1,60,2|0,0:0|0:0,0:0:0:0:
423,181,39359,2,0,P|440:150|440:112,1,60,2|0,0:0|0:0,0:0:0:0:
228,103,39635,6,0,P|224:151|242:188,1,90.0000034332277,4|0,1:2|0:0,0:0:0:0:
339,316,39910,2,0,B|366:311|366:311|398:320|398:320|444:309,1,90.0000034332277,2|0,0:0|0:0,0:0:0:0:
241,288,40185,2,0,B|214:293|214:293|182:284|182:284|136:295,1,90.0000034332277,8|0,0:0|0:0,0:0:0:0:
41,354,40460,1,2,0:0:0:0:
41,354,40598,1,2,0:0:0:0:
153,290,40735,6,0,L|147:197,1,90.0000034332277,0|0,1:0|0:0,0:0:0:0:
5,137,41011,2,0,B|32:151|32:151|95:144,1,90.0000034332277,2|0,0:0|0:0,0:0:0:0:
256,128,41286,2,0,L|156:122,1,90.0000034332277,10|0,0:0|0:0,0:0:0:0:
330,75,41561,2,0,P|345:127|332:171,1,90.0000034332277,2|0,0:0|0:0,0:0:0:0:
288,303,41836,6,0,L|277:205,1,90.0000034332277,0|0,1:0|0:0,0:0:0:0:
426,130,42112,2,0,P|428:174|394:229,1,90.0000034332277,2|0,0:0|0:0,0:0:0:0:
192,300,42387,2,0,B|147:290|147:290|88:308,1,90.0000034332277,8|0,0:0|0:0,0:0:0:0:
295,336,42662,1,2,0:0:0:0:
295,336,42800,1,2,0:0:0:0:
408,214,42937,6,0,L|402:312,1,90.0000034332277,0|0,1:0|0:0,0:0:0:0:
192,177,43213,2,0,B|150:167|150:167|96:179,1,90.0000034332277,2|0,0:0|0:0,0:0:0:0:
150,335,43488,2,0,L|149:236,1,90.0000034332277,10|0,1:2|0:0,0:0:0:0:
34,129,43763,2,0,P|21:162|30:220,1,90.0000034332277,2|0,0:0|0:0,0:0:0:0:
274,216,44038,6,0,P|280:165|255:112,1,90.0000034332277,0|0,1:0|0:0,0:0:0:0:
104,50,44313,2,0,L|207:46,1,90.0000034332277,2|0,0:0|0:0,0:0:0:0:
479,108,44589,1,8,0:0:0:0:
410,64,44726,1,2,0:0:0:0:
326,68,44864,2,0,P|288:88|266:141,1,90.0000034332277,2|0,0:0|0:0,0:0:0:0:
413,244,45139,6,0,P|385:204|384:165,1,90.0000034332277,0|0,1:0|0:0,0:0:0:0:
489,298,45414,1,2,0:0:0:0:
489,298,45552,1,2,0:0:0:0:
343,298,45690,2,0,B|299:310|299:310|251:296,1,90.0000034332277,8|0,0:0|0:0,0:0:0:0:
181,156,45965,2,0,B|198:197|198:197|186:250,1,90.0000034332277,2|0,0:0|0:0,0:0:0:0:
22,210,46240,6,0,L|120:203,1,90.0000034332277,0|0,1:2|0:0,0:0:0:0:
256,297,46515,1,2,0:0:0:0:
256,297,46653,1,2,0:0:0:0:
413,244,46790,2,0,P|426:282|417:344,1,90.0000034332277,8|0,0:0|0:0,0:0:0:0:
252,335,47066,1,2,0:0:0:0:
252,335,47203,1,2,0:0:0:0:
413,244,47341,6,0,P|394:200|402:147,1,90.0000034332277,0|8,1:0|0:0,0:0:0:0:
471,41,47616,2,0,L|376:48,1,90.0000034332277,2|0,0:0|0:0,0:0:0:0:
212,103,47891,2,0,L|312:113,1,90.0000034332277,8|8,1:2|0:3,0:0:0:0:
123,69,48167,1,2,0:0:0:0:
135,149,48304,1,2,0:0:0:0:
148,228,48442,6,0,L|60:242,1,90.0000034332277,4|0,1:2|0:0,0:0:0:0:
225,287,48717,2,0,L|316:301,1,90.0000034332277,2|0,0:0|0:0,0:0:0:0:
447,198,48992,2,0,P|403:186|354:202,1,90.0000034332277,8|0,0:0|0:0,0:0:0:0:
413,359,49268,2,0,L|404:256,1,90.0000034332277,2|0,0:0|0:0,0:0:0:0:
457,109,49543,5,2,1:2:0:0:
457,109,49680,1,2,0:0:0:0:
270,65,49818,2,0,B|243:55|243:55|170:68,1,90.0000034332277
273,198,50093,2,0,B|300:208|300:208|373:195,1,90.0000034332277,8|0,0:0|0:0,0:0:0:0:
187,151,50368,1,2,0:0:0:0:
192,231,50506,1,2,0:0:0:0:
135,289,50644,6,0,B|108:279|108:279|35:292,1,90.0000034332277,0|0,1:0|0:0,0:0:0:0:
218,310,50919,2,0,B|245:320|245:320|318:307,1,90.0000034332277,2|0,0:0|0:0,0:0:0:0:
490,266,51194,2,0,L|483:355,1,90.0000034332277,8|0,0:0|0:0,0:0:0:0:
414,219,51469,1,2,0:0:0:0:
414,219,51607,1,2,0:0:0:0:
326,118,51745,6,0,P|283:130|237:119,1,90.0000034332277,0|0,1:0|0:0,0:0:0:0:
422,100,52020,2,0,L|417:206,1,90.0000034332277,2|0,0:0|0:0,0:0:0:0:
160,168,52295,2,0,P|147:122|162:70,1,90.0000034332277,8|0,1:2|0:0,0:0:0:0:
237,210,52570,2,0,P|250:256|235:308,1,90.0000034332277,2|0,0:0|0:0,0:0:0:0:
70,331,52846,6,0,L|170:317,1,90.0000034332277,4|0,1:2|2:1,2:2:0:0:
441,207,53121,22,0,P|385:188|321:213,1,120,2|8,0:0|0:0,0:0:0:0:
384,275,53534,1,2,0:0:0:0:
458,192,53671,6,0,L|467:95,1,90.0000034332277,2|0,0:0|0:0,0:0:0:0:
346,44,53946,5,0,1:0:0:0:
346,44,54084,1,2,0:0:0:0:
189,112,54222,2,0,L|87:113,1,90.0000034332277,2|0,0:0|0:0,0:0:0:0:
59,306,54497,2,0,B|45:265|45:265|49:219,1,90.0000034332277,12|0,0:0|0:0,0:0:0:0:
166,341,54772,1,2,0:0:0:0:
166,341,54910,1,2,0:0:0:0:
294,265,55047,6,0,L|392:275,1,90.0000034332277,0|8,1:0|0:0,0:0:0:0:
135,253,55323,1,2,0:0:0:0:
135,253,55460,1,2,0:0:0:0:
328,349,55598,2,0,L|424:358,1,90.0000034332277,8|8,1:2|0:3,0:0:0:0:
354,185,55873,2,0,L|258:175,1,90.0000034332277,2|0,0:0|0:0,0:0:0:0:
77,42,56148,5,4,1:2:0:0:
72,122,56286,1,8,1:2:0:0:
66,203,56424,2,0,L|60:308,1,90.0000034332277,2|0,0:0|0:0,0:0:0:0:
319,290,56699,2,0,L|217:295,1,90.0000034332277,12|8,1:2|1:2,0:0:0:0:
389,242,56974,2,0,P|402:277|389:337,1,90.0000034332277,8|8,0:0|0:0,0:0:0:0:
160,338,57249,6,0,P|149:298|161:246,1,90.0000034332277,4|0,1:2|0:0,0:0:0:0:
291,134,57524,2,0,B|318:138|318:138|347:130|347:130|389:136,1,90.0000034332277,2|0,0:0|0:0,0:0:0:0:
196,164,57800,2,0,B|169:160|169:160|140:168|140:168|98:162,1,90.0000034332277,8|0,0:0|0:0,0:0:0:0:
56,37,58075,1,2,0:0:0:0:
56,37,58213,1,2,0:0:0:0:
202,74,58350,6,0,L|196:164,1,90.0000034332277,0|0,1:0|0:0,0:0:0:0:
282,310,58625,2,0,L|269:208,1,90.0000034332277,2|0,0:0|0:0,0:0:0:0:
379,134,58901,2,0,L|392:223,1,90.0000034332277,10|0,0:0|0:0,0:0:0:0:
304,85,59176,2,0,P|338:55|396:46,1,90.0000034332277,2|0,0:0|0:0,0:0:0:0:
463,268,59451,6,0,P|434:297|385:306,1,90.0000034332277,0|0,1:0|0:0,0:0:0:0:
194,289,59726,2,0,L|294:312,1,90.0000034332277,2|0,0:0|0:0,0:0:0:0:
124,347,60001,2,0,P|80:356|31:345,1,90.0000034332277,8|0,0:0|0:0,0:0:0:0:
42,211,60277,1,2,0:0:0:0:
42,211,60414,1,10,0:0:0:0:
202,199,60552,6,0,L|193:294,1,90.0000034332277,0|0,1:0|0:0,0:0:0:0:
117,147,60827,2,0,B|104:105|104:105|112:60,1,90.0000034332277,2|0,0:0|0:0,0:0:0:0:
279,100,61102,2,0,L|174:101,1,90.0000034332277,10|0,1:2|0:0,0:0:0:0:
357,57,61378,2,0,P|370:98|348:156,1,90.0000034332277,2|0,0:0|0:0,0:0:0:0:
117,147,61653,6,0,B|104:105|104:105|112:60,1,90.0000034332277,0|0,1:0|0:0,0:0:0:0:
357,57,61928,2,0,L|454:64,1,90.0000034332277,2|0,0:0|0:0,0:0:0:0:
462,221,62203,1,8,0:0:0:0:
381,221,62341,1,2,0:0:0:0:
308,258,62479,2,0,P|303:296|318:355,1,90.0000034332277,2|8,0:0|0:0,0:0:0:0:
309,175,62754,6,0,L|212:177,1,90.0000034332277,0|0,1:0|0:0,0:0:0:0:
97,298,63029,1,2,0:0:0:0:
97,298,63167,1,2,0:0:0:0:
70,174,63304,1,8,0:0:0:0:
70,174,63442,1,2,0:0:0:0:
223,86,63579,2,0,L|219:176,1,90.0000034332277,2|0,0:0|0:0,0:0:0:0:
97,298,63855,6,0,P|182:263|271:306,1,180.000006866455,4|2,1:2|0:0,0:0:0:0:
373,351,64268,1,2,0:0:0:0:
373,351,64405,2,0,L|383:255,1,90.0000034332277,8|8,0:0|0:3,0:0:0:0:
461,134,64680,1,2,0:0:0:0:
461,134,64818,1,2,0:0:0:0:
309,229,64956,6,0,L|301:122,1,90.0000034332277,0|8,1:0|1:2,0:0:0:0:
414,40,65231,2,0,L|316:46,1,90.0000034332277
161,50,65506,5,8,1:2:0:0:
110,182,65644,1,8,1:2:0:0:
225,107,65781,1,8,1:2:0:0:
85,96,65919,1,8,1:2:0:0:
195,187,66057,6,0,L|188:279,2,90.0000034332277,0|2|2,1:0|0:0|0:0,0:0:0:0:
441,63,66607,2,0,L|434:164,1,90.0000034332277,8|0,0:0|0:0,0:0:0:0:
348,255,66882,1,2,0:0:0:0:
348,255,67020,1,2,0:0:0:0:
195,187,67157,6,0,P|150:174|100:190,1,90.0000034332277,0|0,1:0|0:0,0:0:0:0:
141,344,67433,2,0,P|182:358|226:349,1,90.0000034332277,2|0,0:0|0:0,0:0:0:0:
348,255,67708,2,0,L|341:157,1,90.0000034332277,8|0,0:0|0:0,0:0:0:0:
120,95,67983,2,0,L|108:187,1,90.0000034332277,2|0,0:0|0:0,0:0:0:0:
189,274,68258,5,0,1:0:0:0:
189,274,68396,1,2,0:0:0:0:
206,96,68534,2,0,P|162:85|113:98,1,90.0000034332277,2|0,0:0|0:0,0:0:0:0:
341,165,68809,2,0,P|385:176|434:163,2,90.0000034332277,8|0|2,0:0|0:0|0:0,0:0:0:0:
308,64,69222,1,2,0:0:0:0:
266,213,69359,6,0,L|276:315,1,90.0000034332277,0|0,1:0|0:0,0:0:0:0:
440,334,69635,2,0,P|389:324|340:342,1,90.0000034332277,2|0,0:0|0:0,0:0:0:0:
108,345,69910,2,0,P|150:354|201:338,1,90.0000034332277,8|0,0:0|0:0,0:0:0:0:
170,118,70185,6,0,L|165:182,1,48,2|0,0:0|0:0,0:0:0:0:
108,345,70460,6,0,L|100:249,2,90.0000034332277,4|0|2,1:2|0:0|0:0,0:0:0:0:
194,341,70873,1,2,0:0:0:0:
274,302,71011,2,0,P|314:294|364:307,2,90.0000034332277,8|0|2,0:0|0:0|0:0,0:0:0:0:
201,360,71424,1,2,0:0:0:0:
193,226,71561,6,0,L|199:125,1,90.0000034332277,4|0,1:2|0:0,0:0:0:0:
309,52,71836,2,0,L|410:56,1,90.0000034332277,2|0,0:0|0:0,0:0:0:0:
198,136,72112,2,0,P|143:76|104:148,1,180.000006866455,8|2,0:0|0:0,0:0:0:0:
289,227,72524,1,2,0:0:0:0:
289,227,72662,6,0,L|297:130,1,90.0000034332277,0|8,1:0|0:0,0:0:0:0:
490,96,72937,1,0,0:0:0:0:
397,345,73213,2,0,L|381:236,1,90.0000034332277,0|8,1:0|0:3,0:0:0:0:
198,136,73488,1,0,0:0:0:0:
96,363,73763,5,0,1:2:0:0:
121,219,73901,1,8,1:2:0:0:
17,318,74038,1,0,0:0:0:0:
162,299,74176,1,0,1:2:0:0:
31,140,74313,2,0,L|34:230,1,90.0000034332277,0|0,1:2|0:0,0:0:0:0:
400,329,74864,6,0,P|381:280|398:182,1,143.999995605469,4|0,1:2|0:0,0:0:0:0:
456,143,75277,1,0,0:0:0:0:
456,143,75414,2,0,P|425:115|389:111,1,71.9999978027344,8|0,0:0|0:0,0:0:0:0:
321,218,75690,2,0,P|340:251|375:265,1,71.9999978027344,0|2,0:0|0:0,0:0:0:0:
304,128,75965,6,0,B|265:119|265:119|201:141|201:141|161:129,1,143.999995605469,0|0,1:0|0:0,0:0:0:0:
130,60,76378,1,2,0:0:0:0:
130,60,76515,2,0,P|165:51|199:60,1,71.9999978027344,8|2,0:0|0:0,0:0:0:0:
186,209,76790,2,0,P|146:209|110:185,1,71.9999978027344,2|0,0:0|0:0,0:0:0:0:
41,118,77066,5,0,1:0:0:0:
41,118,77203,1,8,0:0:0:0:
42,265,77341,1,2,0:0:0:0:
42,265,77479,1,2,0:0:0:0:
186,209,77616,2,0,P|228:200|270:210,1,71.9999978027344,8|8,0:0|0:3,0:0:0:0:
364,278,77891,2,0,P|326:289|286:277,1,71.9999978027344,2|2,0:0|0:0,0:0:0:0:
294,123,78167,6,0,L|286:39,2,71.9999978027344,0|10|2,1:0|0:0|0:0,0:0:0:0:
347,182,78579,1,2,0:0:0:0:
415,142,78717,2,0,P|447:132|493:143,2,71.9999978027344,8|2|2,0:0|0:0|0:0,0:0:0:0:
351,201,79130,1,2,0:0:0:0:
408,345,79268,6,0,P|339:364|263:351,1,143.999995605469,4|0,1:2|0:0,0:0:0:0:
219,290,79680,1,0,0:0:0:0:
219,290,79818,2,0,B|182:281|182:281|135:295,1,71.9999978027344,8|0,0:0|0:0,0:0:0:0:
24,363,80093,2,0,B|56:347|56:347|73:299,1,71.9999978027344,0|2,0:0|0:0,0:0:0:0:
42,103,80368,6,0,B|63:143|63:143|62:194|62:194|93:238,1,143.999995605469,0|0,1:0|0:0,0:0:0:0:
138,170,80781,1,2,0:0:0:0:
138,170,80919,2,0,P|175:161|213:170,1,71.9999978027344,8|0,0:0|0:0,0:0:0:0:
350,221,81194,2,0,P|308:228|274:219,1,71.9999978027344,0|0,0:0|0:0,0:0:0:0:
253,92,81469,5,0,1:0:0:0:
253,92,81607,1,8,0:0:0:0:
391,71,81745,2,0,L|389:143,1,71.9999978027344,2|2,0:0|0:0,0:0:0:0:
438,288,82020,2,0,L|440:207,2,71.9999978027344,8|8|2,0:0|0:3|0:0,0:0:0:0:
372,333,82433,1,2,0:0:0:0:
234,292,82570,6,0,B|203:278|162:294|162:294|122:310|78:284,1,143.999995605469,4|0,1:2|0:0,0:0:0:0:
131,222,82983,1,0,0:0:0:0:
131,222,83121,2,0,L|122:142,1,71.9999978027344,12|8,0:0|0:0,0:0:0:0:
224,53,83396,1,0,0:0:0:0:
224,53,83534,1,8,0:3:0:0:
236,208,83671,6,0,B|277:207|302:240|302:240|336:211|383:224,1,143.999995605469,4|0,1:2|0:0,0:0:0:0:
355,301,84084,1,0,0:0:0:0:
355,301,84222,2,0,P|396:296|426:268,1,71.9999978027344,8|0,0:0|0:0,0:0:0:0:
370,148,84497,2,0,L|364:224,1,71.9999978027344,0|2,0:0|0:0,0:0:0:0:
233,291,84772,2,0,L|241:363,2,71.9999978027344,0|2|0,1:0|0:0|0:0,0:0:0:0:
165,250,85185,1,0,0:0:0:0:
93,284,85323,2,0,P|58:295|16:289,2,71.9999978027344,8|2|2,0:0|0:0|0:0,0:0:0:0:
167,218,85735,1,2,0:0:0:0:
174,83,85873,5,0,1:0:0:0:
174,83,86011,1,8,0:0:0:0:
50,138,86148,2,0,L|49:221,1,71.9999978027344,2|2,0:0|0:0,0:0:0:0:
91,63,86424,2,0,P|55:53|8:62,1,71.9999978027344,8|8,0:0|0:3,0:0:0:0:
174,83,86699,2,0,P|210:93|257:84,1,71.9999978027344,2|2,0:0|0:0,0:0:0:0:
390,50,86974,6,0,L|307:44,2,71.9999978027344,0|10|2,1:0|0:0|0:0,0:0:0:0:
435,115,87387,1,2,0:0:0:0:
388,179,87524,2,0,P|382:224|396:264,2,71.9999978027344,8|2|2,0:0|0:0|0:0,0:0:0:0:
459,119,87937,1,2,0:0:0:0:
466,304,88075,6,0,P|407:290|318:316,1,143.999995605469,4|0,1:2|0:0,0:0:0:0:
250,329,88488,1,0,0:0:0:0:
250,329,88625,2,0,P|255:286|243:247,1,71.9999978027344,8|0,0:0|0:0,0:0:0:0:
104,259,88901,2,0,P|97:294|103:330,1,71.9999978027344,0|2,0:0|0:0,0:0:0:0:
176,204,89176,2,0,B|185:155|185:155|170:105|170:105|180:53,1,143.999995605469,0|0,1:0|0:0,0:0:0:0:
247,101,89589,1,2,0:0:0:0:
247,101,89726,2,0,L|329:95,1,71.9999978027344,8|0,0:0|0:0,0:0:0:0:
107,160,90001,2,0,L|24:143,1,71.9999978027344,0|0,0:0|0:0,0:0:0:0:
182,29,90277,5,0,1:0:0:0:
182,29,90414,1,8,0:0:0:0:
318,95,90552,2,0,L|309:184,1,71.9999978027344,6|2,0:2|0:0,0:0:0:0:
267,23,90827,1,8,0:0:0:0:
267,23,90965,1,8,0:3:0:0:
406,93,91102,2,0,L|397:178,1,71.9999978027344,6|2,0:2|0:0,0:0:0:0:
295,279,91378,5,12,1:2:0:0:
259,219,91515,1,8,1:3:0:0:
190,217,91653,1,0,0:0:0:0:
151,274,91790,1,0,1:0:0:0:
177,338,91928,6,0,P|138:343|98:320,1,71.9999978027344,12|10,1:2|1:2,0:0:0:0:
190,217,92203,2,0,P|165:191|158:153,1,71.9999978027344,0|8,0:0|0:3,0:0:0:0:
295,279,92479,6,0,P|345:261|400:283,2,107.999996704102,4|0|0,0:0|0:0|0:0,0:0:0:0:
469,348,93579,2,0,L|475:160,1,179.999994506836,0|0,0:0|0:0,0:0:0:0:
