osu file format v14

[General]
AudioFilename: audio.mp3
AudioLeadIn: 2500
PreviewTime: 38756
Countdown: 0
SampleSet: Soft
StackLeniency: 0.4
Mode: 0
LetterboxInBreaks: 0
WidescreenStoryboard: 1

[Editor]
DistanceSpacing: 1
BeatDivisor: 4
GridSize: 4
TimelineZoom: 1.6

[Metadata]
Title:Naraku no Hana (TV Size)
TitleUnicode:奈落の花 (TV Size)
Artist:Shimamiya Eiko
ArtistUnicode:島みやえい子
Creator:kanor
Version:Hard
Source:ひぐらしのなく頃に解
Tags:Higurashi no Naku Koro ni Kai blood splat 07th expansion visual novel horror festival watanagashi rika furude hanyuu satoko houjou keiichi maebara rena ryugu mion sonozaki shion oyashimo opening Hikari Nadeshiko Lobelia abhor pata-mon misure narcissu anime japanese pop j-pop jpop 中沢伴行 Nakazawa Tomoyuki when they cicadas cry 2 2nd season Lobelia Misure Narcissu patamon pata-mon pata mon
BeatmapID:2662851
BeatmapSetID:1282054

[Difficulty]
HPDrainRate:5
CircleSize:3.8
OverallDifficulty:6
ApproachRate:7.5
SliderMultiplier:1.5
SliderTickRate:2

[Events]
//Background and Video events
0,0,"Konachan.jpg",0,0
//Break Periods
//Storyboard Layer 0 (Background)
//Storyboard Layer 1 (Fail)
//Storyboard Layer 2 (Pass)
//Storyboard Layer 3 (Foreground)
//Storyboard Layer 4 (Overlay)
//Storyboard Sound Samples

[TimingPoints]
2,550.45871559633,4,2,1,50,1,0
552,-100,4,2,1,50,0,0
1102,-100,4,2,1,30,0,0
1378,-100,4,2,1,30,0,0
1928,-100,4,2,1,10,0,0
2203,-100,4,2,1,15,0,0
2479,-100,4,2,1,20,0,0
2754,-100,4,2,1,25,0,0
3029,-100,4,2,1,30,0,0
3304,-100,4,2,1,35,0,0
3579,-100,4,2,1,40,0,0
3855,-100,4,2,1,45,0,0
4130,-100,4,2,1,50,0,0
4405,-100,4,2,1,30,0,0
4956,-133.333333333333,4,2,1,30,0,0
12662,-133.333333333333,4,2,1,50,0,0
13213,-133.333333333333,4,2,1,30,0,0
13763,-133.333333333333,4,2,1,50,0,0
16240,-100,4,2,1,50,0,0
17616,-133.333333333333,4,2,1,50,0,0
19818,-133.333333333333,4,2,1,50,0,0
21469,-133.333333333333,4,2,1,50,0,0
22020,-133.333333333333,4,2,1,30,0,0
28625,-133.333333333333,4,2,1,15,0,0
30277,-133.333333333333,4,2,1,50,0,0
30827,-133.333333333333,4,2,1,30,0,0
34405,-133.333333333333,4,2,1,15,0,0
35231,-100,4,2,1,30,0,0
35781,-100,4,2,1,50,0,0
36332,-100,4,2,1,20,0,0
37433,-100,4,2,1,20,0,0
38534,-100,4,2,1,20,0,0
38809,-100,4,2,1,20,0,0
39084,-111.111111111111,4,2,1,20,0,0
39359,-100,4,2,1,20,0,0
39635,-100,4,2,2,90,0,1
52846,-100,4,2,2,90,0,1
53671,-100,4,2,2,90,0,1
53946,-100,4,2,2,90,0,1
55047,-100,4,2,2,90,0,0
56699,-100,4,2,2,90,0,0
57249,-100,4,2,2,90,0,1
65506,-100,4,2,2,90,0,1
66057,-100,4,2,2,90,0,1
70185,-100,4,2,2,90,0,1
70460,-100,4,2,2,90,0,1
71561,-100,4,2,2,90,0,1
72112,-100,4,2,2,90,0,1
72937,-100,4,2,2,90,0,1
73213,-100,4,2,2,90,0,1
73488,-100,4,2,2,90,0,1
73763,-100,4,2,2,90,0,1
74313,-100,4,2,2,90,0,1
74864,-100,4,2,2,90,0,0
92479,-100,4,2,2,90,0,0
94268,-100,4,2,1,5,0,0

[Colours]
Combo1 : 192,192,192
Combo2 : 96,96,255
Combo3 : 0,115,230
Combo4 : 255,53,53

[HitObjects]
256,192,1928,12,10,4405,0:0:0:0:
132,52,4956,5,0,0:0:0:0:
132,52,5231,2,0,B|188:28|198:64|228:96|302:56,1,168.750006437302,8|0,0:0|0:0,0:0:0:0:
361,15,6332,1,0,0:0:0:0:
433,51,6607,2,0,P|438:82|427:123,1,56.2500021457673,0|0,0:0|0:0,0:0:0:0:
457,179,7157,2,0,P|489:160|509:123,1,56.2500021457673,0|0,0:0|0:0,0:0:0:0:
457,179,8534,5,0,0:0:0:0:
456,178,8809,2,0,P|388:150|345:176,1,112.500004291535,8|0,0:0|0:0,0:0:0:0:
345,244,9635,2,0,P|413:272|456:246,1,112.500004291535,8|0,0:0|0:0,0:0:0:0:
444,257,10460,1,0,0:0:0:0:
444,257,12387,5,0,0:0:0:0:
464,356,12662,2,0,L|388:340,1,56.2500021457673,6|0,0:0|0:0,0:1:0:0:
336,312,13213,6,0,L|205:338,1,112.500004291535,10|0,0:0|0:0,0:0:0:0:
176,264,14038,2,0,L|286:242,1,112.500004291535,8|0,0:0|0:0,0:0:0:0:
286,242,15139,5,0,0:0:0:0:
332,172,15414,2,0,P|326:135|336:108,1,56.2500021457673,0|0,0:0|0:0,0:0:0:0:
308,40,15965,2,0,P|276:58|262:78,2,56.2500021457673,0|0|2,0:0|0:0|0:0,0:0:0:0:
264,73,17616,6,0,P|216:41|148:57,1,112.500004291535,10|0,0:0|0:0,0:0:0:0:
104,96,18442,2,0,P|152:64|220:80,1,112.500004291535,8|0,0:0|0:0,0:0:0:0:
256,124,19268,2,0,P|208:92|140:108,1,112.500004291535,2|0,0:0|0:0,0:0:0:0:
155,98,21194,5,0,0:0:0:0:
60,160,21469,2,0,L|-20:148,1,56.2500021457673,6|0,0:0|0:0,0:1:0:0:
0,252,22020,6,0,L|116:232,1,112.500004291535,10|0,0:0|0:0,0:0:0:0:
84,320,22846,2,0,L|200:340,1,112.500004291535,8|0,0:0|0:0,0:0:0:0:
194,339,23946,5,0,0:0:0:0:
268,360,24222,2,0,P|271:328|259:304,1,56.2500021457673,0|0,0:0|0:0,0:0:0:0:
276,232,24772,2,0,P|248:232|220:244,2,56.2500021457673,0|0|2,0:0|0:0|0:0,0:0:0:0:
468,344,26148,1,0,0:0:0:0:
468,344,26424,6,0,L|344:324,1,112.500004291535,10|0,0:0|0:0,0:0:0:0:
376,248,27249,2,0,L|487:265,1,112.500004291535,8|0,0:0|0:0,0:0:0:0:
487,265,28075,1,2,0:0:0:0:
508,112,28625,2,0,P|480:144|484:192,2,84.3750032186509,2|0|0,0:0|0:0|0:0,0:0:0:0:
508,112,30277,6,0,L|504:48,1,56.2500021457673,6|0,0:0|0:0,0:1:0:0:
392,16,30827,6,0,P|363:65|296:56,1,112.500004291535,10|0,0:0|0:0,0:0:0:0:
232,80,31653,2,0,P|203:31|136:40,1,112.500004291535,8|0,0:0|0:0,0:0:0:0:
80,56,32479,1,0,0:0:0:0:
36,120,32754,1,0,0:0:0:0:
48,200,33029,2,0,L|132:188,2,84.3750032186509,0|0|0,0:0|0:0|0:0,0:0:0:0:
0,352,34405,6,0,L|72:340,2,56.2500021457673,0|0|0,0:0|0:0|0:0,0:0:0:0:
256,192,35231,12,0,38534,0:0:0:0:
192,104,38809,5,0,0:0:0:0:
149,168,39084,2,0,L|76:176,1,67.4999979400635,0|0,0:0|0:0,0:0:0:0:
12,312,39635,6,0,L|56:308,1,37.5,6|0,1:2|0:0,0:0:0:0:
116,352,39910,2,0,P|128:324|120:276,1,75,2|8,0:0|0:0,0:0:0:0:
204,240,40460,1,2,0:0:0:0:
216,240,40598,1,2,0:0:0:0:
232,240,40735,2,0,P|220:268|228:316,1,75,0|2,1:0|0:0,0:0:0:0:
296,356,41286,1,8,0:0:0:0:
376,320,41561,1,2,0:0:0:0:
484,360,41836,6,0,L|496:276,1,75,0|2,1:0|0:0,0:0:0:0:
468,208,42387,1,8,0:0:0:0:
508,136,42662,1,2,0:0:0:0:
504,124,42800,1,2,0:0:0:0:
500,112,42937,2,0,L|508:56,2,37.5,0|2|2,1:0|0:0|0:0,0:0:0:0:
432,28,43488,2,0,L|372:28,1,37.5,8|2,1:2|0:0,0:0:0:0:
324,56,43763,2,0,L|280:56,1,37.5,0|2,0:0|0:0,0:0:0:0:
216,88,44038,5,0,1:0:0:0:
132,80,44313,1,2,0:0:0:0:
72,28,44589,1,8,0:0:0:0:
16,84,44864,1,2,0:0:0:0:
8,100,45001,1,2,0:0:0:0:
0,116,45139,2,0,L|8:164,2,37.5,0|2|2,1:0|0:0|0:0,0:0:0:0:
88,184,45690,2,0,L|96:232,2,37.5,10|2|2,0:0|0:0|0:0,0:0:0:0:
24,264,46240,6,0,L|32:312,2,37.5,2|2|2,1:2|0:0|0:0,0:0:0:0:
92,352,46790,2,0,L|144:340,1,37.5,8|2,0:0|0:0,0:0:0:0:
192,300,47066,2,0,L|244:312,1,37.5,0|2,0:0|0:0,0:0:0:0:
308,292,47341,2,0,P|316:328|304:376,2,75,0|2|8,1:0|0:0|1:2,0:0:0:0:
320,272,48029,1,8,0:3:0:0:
332,256,48167,1,2,0:0:0:0:
344,240,48304,1,2,0:0:0:0:
356,224,48442,6,0,L|452:236,1,75,4|2,1:2|0:0,0:0:0:0:
496,176,48992,1,8,0:0:0:0:
488,92,49268,1,2,0:0:0:0:
484,80,49406,1,2,0:0:0:0:
480,68,49543,2,0,L|488:12,2,37.5,0|2|2,1:0|0:0|0:0,0:0:0:0:
400,100,50093,2,0,L|304:88,1,75,8|2,0:0|0:0,0:0:0:0:
312,76,50506,1,2,0:0:0:0:
300,64,50644,6,0,L|236:56,2,37.5,0|2|2,1:0|0:0|0:0,0:0:0:0:
188,96,51194,2,0,L|92:84,1,75,8|2,0:0|0:0,0:0:0:0:
100,72,51607,1,2,0:0:0:0:
88,60,51745,2,0,L|24:52,2,37.5,0|2|2,1:0|0:0|0:0,0:0:0:0:
0,120,52295,2,0,L|16:172,1,37.5,8|2,1:2|0:0,0:0:0:0:
4,236,52570,5,2,0:0:0:0:
4,236,52708,1,2,0:0:0:0:
4,236,52846,2,0,P|47:228|88:240,1,75,4|2,1:2|0:0,0:0:0:0:
148,264,53396,1,8,0:0:0:0:
212,312,53671,2,0,L|212:356,2,37.5,2|2|0,0:0|0:0|1:0,0:0:0:0:
148,264,54222,1,2,0:0:0:0:
212,216,54497,1,12,0:0:0:0:
276,268,54772,2,0,L|336:268,1,37.5,2|2,0:0|0:0,0:0:0:0:
376,316,55047,6,0,L|372:364,2,37.5,0|10|2,1:0|0:0|0:0,0:0:0:0:
492,260,55598,2,0,L|496:308,2,37.5,8|8|2,1:2|0:3|0:0,0:0:0:0:
392,200,56148,1,4,1:2:0:0:
393,184,56286,1,10,1:2:0:0:
394,168,56424,1,2,0:0:0:0:
464,108,56699,1,14,1:2:0:0:
416,32,56974,1,10,0:0:0:0:
252,88,57249,6,0,P|224:100|176:92,1,75,4|2,1:2|0:0,0:0:0:0:
108,48,57800,1,8,0:0:0:0:
36,80,58074,1,2,0:0:0:0:
20,88,58212,1,2,0:0:0:0:
8,96,58349,2,0,P|-4:124|4:172,1,75,0|2,1:0|0:0,0:0:0:0:
36,240,58900,1,8,0:0:0:0:
124,204,59175,1,2,0:0:0:0:
208,320,59450,6,0,L|292:332,1,75,0|2,1:0|0:0,0:0:0:0:
344,280,60001,1,8,0:0:0:0:
296,216,60276,1,2,0:0:0:0:
288,208,60414,1,10,0:0:0:0:
280,200,60552,2,0,L|224:192,2,37.5,0|2|2,1:0|0:0|0:0,0:0:0:0:
424,224,61102,2,0,L|424:164,1,37.5,8|2,1:2|0:0,0:0:0:0:
480,132,61377,2,0,L|480:88,1,37.5,0|2,0:0|0:0,0:0:0:0:
444,24,61652,5,0,1:0:0:0:
368,64,61927,1,2,0:0:0:0:
292,28,62203,1,8,0:0:0:0:
216,60,62478,1,2,0:0:0:0:
208,76,62615,1,10,0:0:0:0:
200,92,62753,2,0,L|208:140,2,37.5,0|2|2,1:0|0:0|0:0,0:0:0:0:
124,20,63304,2,0,L|76:28,2,37.5,8|2|2,0:0|0:0|0:0,0:0:0:0:
28,88,63854,6,0,L|36:136,2,37.5,4|2|2,1:2|0:0|0:0,0:0:0:0:
96,184,64405,2,0,L|148:172,1,37.5,8|8,0:0|0:3,0:0:0:0:
148,252,64680,2,0,L|96:264,1,37.5,2|2,0:0|0:0,0:0:0:0:
36,236,64956,1,0,1:0:0:0:
36,236,65093,2,0,P|32:272|32:316,1,75,10|2,1:2|0:0,0:0:0:0:
44,324,65506,1,10,1:2:0:0:
56,336,65644,1,10,1:2:0:0:
68,348,65781,1,10,1:2:0:0:
84,348,65919,1,10,1:2:0:0:
100,348,66057,6,0,L|204:356,1,75,0|2,1:0|0:0,0:0:0:0:
252,316,66607,1,8,0:0:0:0:
340,344,66882,1,2,0:0:0:0:
340,344,67020,1,2,0:0:0:0:
340,344,67157,2,0,P|340:292|320:268,1,75,0|2,1:0|0:0,0:0:0:0:
268,220,67708,2,0,L|256:112,1,75,8|2,0:0|0:0,0:0:0:0:
344,20,68258,6,0,L|404:16,2,37.5,0|2|2,1:0|0:0|0:0,0:0:0:0:
388,96,68809,1,8,0:0:0:0:
408,172,69084,1,2,0:0:0:0:
400,188,69222,1,2,0:0:0:0:
392,204,69359,2,0,L|332:200,2,37.5,0|2|2,1:0|0:0|0:0,0:0:0:0:
468,248,69910,1,8,0:0:0:0:
512,176,70185,1,2,0:0:0:0:
504,332,70460,6,0,L|412:324,1,75,4|2,1:2|0:0,0:0:0:0:
356,356,71011,1,8,0:0:0:0:
288,308,71286,1,2,0:0:0:0:
268,304,71424,1,2,0:0:0:0:
248,300,71561,1,4,1:2:0:0:
180,352,71836,1,2,0:0:0:0:
92,336,72111,2,0,P|84:300|92:244,1,75,8|2,0:0|0:0,0:0:0:0:
0,184,72662,5,0,1:0:0:0:
68,140,72937,1,2,0:0:0:0:
80,136,73075,1,2,0:0:0:0:
92,132,73213,2,0,L|96:36,1,75,0|2,1:0|0:0,0:0:0:0:
192,16,73763,1,2,1:2:0:0:
180,24,73901,2,0,L|176:120,1,75,10|2,1:2|1:2,0:0:0:0:
192,108,74313,1,2,1:2:0:0:
416,24,74864,6,0,P|428:60|424:104,2,75,4|2|8,1:2|0:0|0:0,0:0:0:0:
348,76,75690,1,2,0:0:0:0:
348,76,75827,1,2,0:0:0:0:
348,76,75965,1,0,1:0:0:0:
280,128,76240,1,2,0:0:0:0:
260,212,76515,1,8,0:0:0:0:
260,212,77066,6,0,L|300:204,2,37.5,0|8|2,1:0|0:0|0:0,0:0:0:0:
300,304,77616,2,0,L|260:296,2,37.5,8|8|2,0:0|0:3|0:0,0:0:0:0:
372,344,78167,1,0,1:0:0:0:
436,292,78442,1,2,0:0:0:0:
456,212,78717,1,8,0:0:0:0:
432,132,78992,1,2,0:0:0:0:
336,40,79268,6,0,P|412:48|432:64,2,75,4|2|8,1:2|0:0|0:0,0:0:0:0:
260,20,80093,1,2,0:0:0:0:
248,32,80231,1,2,0:0:0:0:
236,44,80368,2,0,P|236:80|240:128,2,75,0|2|8,1:0|0:0|0:0,0:0:0:0:
156,32,81194,1,2,0:0:0:0:
8,56,81469,6,0,L|16:124,2,37.5,0|8|2,1:0|0:0|0:0,0:0:0:0:
88,128,82020,2,0,L|96:60,2,37.5,8|8|2,0:0|0:3|0:0,0:0:0:0:
84,212,82570,2,0,P|48:196|8:196,1,75,4|2,1:2|0:0,0:0:0:0:
32,284,83121,1,12,0:0:0:0:
32,284,83258,1,8,0:3:0:0:
32,284,83396,1,8,0:3:0:0:
148,348,83671,6,0,L|52:352,2,75,4|2|8,1:2|0:0|0:0,0:0:0:0:
224,308,84497,1,2,0:0:0:0:
224,308,84635,1,2,0:0:0:0:
224,308,84772,1,0,1:0:0:0:
300,288,85047,1,2,0:0:0:0:
376,316,85323,1,8,0:0:0:0:
376,316,85873,6,0,L|380:356,2,37.5,0|8|2,1:0|0:0|0:0,0:0:0:0:
448,264,86424,2,0,L|452:224,2,37.5,8|8|2,0:0|0:3|0:0,0:0:0:0:
372,216,86974,1,0,1:0:0:0:
348,144,87249,1,2,0:0:0:0:
296,200,87524,1,8,0:0:0:0:
424,152,87800,5,2,0:0:0:0:
442,144,87937,1,2,0:0:0:0:
458,136,88075,2,0,P|462:100|454:56,1,75,4|2,1:2|0:0,0:0:0:0:
380,32,88625,1,8,0:0:0:0:
296,24,88901,1,2,0:0:0:0:
278,32,89038,1,2,0:0:0:0:
262,40,89176,2,0,P|258:76|266:120,1,75,0|2,1:0|0:0,0:0:0:0:
192,160,89726,1,8,0:0:0:0:
112,124,90001,1,2,0:0:0:0:
4,208,90277,6,0,L|0:246,2,37.5,0|8|6,1:0|0:0|0:2,0:0:0:0:
88,264,90827,2,0,L|84:302,2,37.5,8|8|6,0:0|0:3|0:2,0:0:0:0:
176,240,91378,1,12,1:2:0:0:
184,256,91515,2,0,L|176:340,1,75,8|0,1:3|1:0,0:0:0:0:
196,336,91928,1,12,1:2:0:0:
212,336,92066,1,10,1:2:0:0:
228,336,92203,1,0,0:0:0:0:
244,336,92341,1,8,0:3:0:0:
260,348,92479,1,4,0:0:0:0:
256,192,92616,12,0,94268,0:0:0:0:
