osu file format v14

[General]
AudioFilename: audio.mp3
AudioLeadIn: 0
PreviewTime: 39664
Countdown: 0
SampleSet: Soft
StackLeniency: 0.5
Mode: 0
LetterboxInBreaks: 0
WidescreenStoryboard: 1

[Editor]
Bookmarks: 13614,22422,31229,40587,49394,58202,65908,73614,75816,93431
DistanceSpacing: 1
BeatDivisor: 4
GridSize: 4
TimelineZoom: 1.7

[Metadata]
Title:Naraku no Hana (TV Size)
TitleUnicode:奈落の花 (TV Size)
Artist:Shimamiya Eiko
ArtistUnicode:島みやえい子
Creator:discode
Version:nik's Easy
Source:ひぐらしのなく頃に解
Tags:07th expansion when they cry wtc cicadas higurashi no naku koro ni kai 2nd season 2 two op opening short ver version anime japanese jpop j-pop pop SHOGUNMOON00999 [[Pause]] Lunicia Houtaro Subahibi kleune Phynta fooders kyrie irving nik nikolomara bbj0920 _todestrieb awayuru isome itscactus azamaki
BeatmapID:3518488
BeatmapSetID:1713658

[Difficulty]
HPDrainRate:2
CircleSize:3
OverallDifficulty:2
ApproachRate:3
SliderMultiplier:0.9
SliderTickRate:1

[Events]
//Background and Video events
0,0,"cover (2) (1).jpg",0,0
Video,749,"Higurashi no Naku Koro ni Kai NCOP_Trim (no audio).mp4"
//Break Periods
//Storyboard Layer 0 (Background)
//Storyboard Layer 1 (Fail)
//Storyboard Layer 2 (Pass)
//Storyboard Layer 3 (Foreground)
//Storyboard Layer 4 (Overlay)
//Storyboard Sound Samples

[TimingPoints]
443,550.45871559633,4,2,1,60,1,0
1268,-100,4,2,1,40,0,0
2094,-100,4,2,1,20,0,0
5398,550.45871559633,4,2,2,30,1,0
5432,-100,4,2,2,30,0,0
5948,-100,4,2,1,30,0,0
14205,-100,4,2,2,30,0,0
14239,-100,4,2,1,30,0,0
14755,-100,4,2,1,30,0,0
18333,-100,4,2,1,5,0,0
18609,-100,4,2,1,30,0,0
23012,-100,4,2,2,30,0,0
23047,-100,4,2,1,30,0,0
23425,-100,4,2,1,5,0,0
23563,-100,4,2,1,30,0,0
31820,-100,4,2,2,30,0,0
31854,-100,4,2,1,30,0,0
32232,-100,4,2,1,5,0,0
32370,-100,4,2,1,30,0,0
39801,-100,4,2,1,45,0,0
40627,-83.3333333333333,4,2,1,75,0,0
57416,-83.3333333333333,4,2,1,75,0,0
58242,-83.3333333333333,4,2,1,75,0,0
75306,-83.3333333333333,4,2,1,45,0,0
75856,-100,4,2,1,50,0,0

[Colours]
Combo1 : 207,201,148
Combo2 : 164,164,210
Combo3 : 225,91,95
Combo4 : 143,203,172

[HitObjects]
0,239,5398,6,0,P|46:233|89:238,1,90,2|2,3:2|0:0,0:0:0:0:
107,279,6223,2,0,P|166:287|226:283,1,90,2|0,3:2|0:0,0:0:0:0:
232,206,7324,1,2,0:0:0:0:
232,206,7599,2,0,P|251:195|275:187,2,45,2|2|2,0:0|0:0|0:0,0:0:0:0:
188,192,8425,1,2,0:0:0:0:
8,370,9526,5,2,0:0:0:0:
8,370,9801,2,0,P|4:328|6:278,1,90,2|2,3:2|0:0,0:0:0:0:
49,268,10627,2,0,P|53:226|51:176,1,90,2|2,3:2|0:0,0:0:0:0:
24,141,11453,1,2,0:0:0:0:
341,310,13654,5,2,0:1:0:0:
410,367,14205,6,0,P|421:316|441:262,1,90,2|2,3:2|0:0,0:0:0:0:
468,252,15031,2,0,P|454:193|432:132,1,90,2|0,3:2|0:0,0:0:0:0:
380,110,16131,1,2,0:0:0:0:
380,110,16407,2,0,P|369:129|361:153,2,45,2|2|2,0:0|0:0|0:0,0:0:0:0:
419,88,17232,1,2,0:0:0:0:
146,296,18609,6,0,P|105:313|54:315,1,90,2|2,3:2|0:0,0:0:0:0:
26,285,19434,2,0,P|31:235|51:189,1,90,2|2,3:2|0:0,0:0:0:0:
79,168,20260,1,2,0:0:0:0:
491,42,22461,5,2,0:1:0:0:
407,8,23012,6,0,P|396:51|380:96,1,90,2|2,3:2|0:0,0:0:0:0:
344,119,23838,2,0,P|357:177|379:238,1,90,2|0,3:2|0:0,0:0:0:0:
443,263,24938,1,2,0:0:0:0:
443,263,25214,2,0,P|477:250|497:230,2,45,2|2|2,0:0|0:0|0:0,0:0:0:0:
433,306,26039,1,2,0:0:0:0:
257,320,27141,5,2,0:0:0:0:
257,320,27416,2,0,P|306:336|382:377,2,135,2|2|2,3:2|3:2|0:0,0:0:0:0:
194,254,29618,2,0,P|205:215|201:178,2,67.5,2|0|2,0:0|0:0|0:0,0:0:0:0:
70,199,31269,5,2,0:1:0:0:
22,280,31820,6,0,P|57:312|105:324,1,90,2|0,3:2|0:0,0:0:0:0:
138,307,32645,2,0,L|148:252,2,45,2|2|2,3:2|0:0|0:0,0:0:0:0:
173,334,33471,1,2,0:0:0:0:
216,321,33746,2,0,P|261:310|338:314,1,90,2|0,0:0|0:0,0:0:0:0:
481,341,35397,6,0,L|493:388,2,45,2|2|2,0:0|0:0|0:0,0:0:0:0:
444,312,36223,2,0,B|400:165|535:206|478:64|512:1|434:-35|324:-22|288:76|381:159,1,540,0|0,3:0|0:0,0:0:0:0:
373,151,40627,6,0,L|259:135,2,107.999996704102,4|8|0,3:2|0:0|3:0,0:0:0:0:
399,200,42003,1,2,0:0:0:0:
387,252,42278,1,10,0:0:0:0:
405,302,42553,2,0,L|512:288,2,107.999996704102,2|2|2,0:0|0:0|0:0,0:0:0:0:
313,359,44205,5,2,0:0:0:0:
266,332,44480,1,10,0:0:0:0:
250,280,44755,2,0,L|143:295,1,107.999996704102,2|2,0:0|0:0,0:0:0:0:
99,327,45581,1,10,0:0:0:0:
47,311,45856,2,0,L|33:203,1,107.999996704102,2|2,0:0|0:0,0:0:0:0:
42,150,46682,1,10,0:0:0:0:
82,114,46957,2,0,L|189:129,2,107.999996704102,0|2|2,0:0|0:0|0:0,0:0:0:0:
257,240,49159,6,0,P|205:250|174:293,1,107.999996704102,2|2,3:2|0:0,0:0:0:0:
188,345,49985,1,10,0:0:0:0:
236,368,50260,2,0,L|352:340,1,107.999996704102,2|0,0:0|0:0,0:0:0:0:
447,358,51361,5,2,0:0:0:0:
479,315,51636,2,0,P|468:263|425:232,1,107.999996704102,2|10,3:2|0:0,0:0:0:0:
371,229,52462,2,0,L|245:240,1,107.999996704102,2|2,0:0|0:0,0:0:0:0:
219,206,53287,1,10,0:0:0:0:
203,154,53563,6,0,L|468:134,1,215.999993408203,2|2,0:0|0:0,0:0:0:0:
460,37,55214,1,2,0:0:0:0:
409,17,55489,1,14,0:0:0:0:
359,37,55764,2,0,L|238:45,1,107.999996704102,2|2,0:0|0:0,0:0:0:0:
201,23,56590,1,14,0:0:0:0:
153,48,56865,2,0,L|32:39,1,107.999996704102,2|2,0:0|3:2,0:0:0:0:
5,76,57691,1,6,3:2:0:0:
31,122,57966,6,0,P|44:175|36:245,2,107.999996704102,2|2|2,3:2|0:0|0:0,0:0:0:0:
132,158,59618,1,2,0:0:0:0:
156,206,59893,1,10,0:0:0:0:
156,259,60168,2,0,P|143:312|151:382,2,107.999996704102,2|2|2,0:0|0:0|0:0,0:0:0:0:
251,309,61820,5,2,0:0:0:0:
297,282,62095,1,10,0:0:0:0:
318,232,62370,2,0,P|321:182|316:123,1,107.999996704102,6|6,0:0|0:0,0:0:0:0:
357,89,63196,1,10,0:0:0:0:
358,35,63471,1,6,0:0:0:0:
464,49,64021,6,0,P|476:12|490:-7,2,53.9999983520508,2|10|2,0:0|0:0|0:0,0:0:0:0:
466,103,64847,2,0,P|481:153|482:230,1,107.999996704102,6|8,3:2|0:0,0:0:0:0:
468,260,65673,2,0,B|399:301|326:268|366:216|277:168|209:216,1,269.999991760254,2|4,0:0|3:2,0:0:0:0:
89,293,67875,6,0,P|63:328|60:346,2,53.9999983520508,2|2|2,0:0|3:2|0:2,0:0:0:0:
135,264,68700,1,10,0:0:0:0:
217,322,69251,2,0,P|252:328|327:309,1,107.999996704102,6|10,3:2|0:0,0:0:0:0:
355,269,70076,2,0,P|360:215|344:164,1,107.999996704102,2|2,0:0|0:0,0:0:0:0:
254,105,71177,5,6,0:0:0:0:
221,147,71453,2,0,P|164:153|104:148,1,107.999996704102,6|10,3:2|0:0,0:0:0:0:
65,174,72278,2,0,P|61:227|67:281,1,107.999996704102,2|2,0:0|0:0,0:0:0:0:
102,322,73104,2,0,B|206:384|317:334|256:255|392:182|495:255,1,431.999986816407,10|4,0:0|3:2,0:0:0:0:
443,172,75856,6,0,L|437:98,2,67.5,6|2|2,3:2|0:3|3:0,0:0:0:0:
401,189,76957,2,0,L|395:256,2,67.5,2|0|2,3:2|0:0|3:1,0:0:0:0:
243,27,79159,6,0,L|192:19,1,45,2|2,3:3|0:3,0:0:0:0:
165,50,79709,2,0,L|120:56,1,45,2|2,3:3|0:0,0:0:0:0:
83,81,80260,2,0,L|77:13,2,67.5,6|2|2,3:2|0:3|3:0,0:0:0:0:
41,98,81361,2,0,L|35:165,2,67.5,2|0|2,3:2|0:0|0:1,0:0:0:0:
101,314,83563,6,0,L|194:330,1,90,6|6,3:2|3:2,0:0:0:0:
273,296,84664,2,0,L|279:222,2,67.5,6|2|2,3:2|0:3|3:0,0:0:0:0:
315,313,85765,2,0,L|320:380,2,67.5,2|0|2,3:2|0:0|0:1,0:0:0:0:
414,111,87966,6,0,L|363:119,1,45,2|2,3:3|0:3,0:0:0:0:
336,88,88516,2,0,L|291:81,1,45,2|2,3:3|0:0,0:0:0:0:
248,96,89067,2,0,L|242:170,2,67.5,6|2|2,3:2|0:3|3:0,0:0:0:0:
206,79,90168,2,0,L|200:11,2,67.5,2|0|2,3:2|0:0|3:1,0:0:0:0:
206,79,93471,6,0,L|200:5,2,67.5,6|0|0,0:0|0:0|0:0,0:0:0:0:
164,96,94572,2,0,L|158:163,2,67.5
