osu file format v14

[General]
AudioFilename: audio.mp3
AudioLeadIn: 0
PreviewTime: 39664
Countdown: 0
SampleSet: Soft
StackLeniency: 0
Mode: 0
LetterboxInBreaks: 0
WidescreenStoryboard: 1

[Editor]
Bookmarks: 13614,22422,31229,40587,49394,58202,65908,73614,75816,93431
DistanceSpacing: 1.4
BeatDivisor: 4
GridSize: 32
TimelineZoom: 2.7

[Metadata]
Title:Naraku no Hana (TV Size)
TitleUnicode:奈落の花 (TV Size)
Artist:Shimamiya Eiko
ArtistUnicode:島みやえい子
Creator:discode
Version:isome's Extra
Source:ひぐらしのなく頃に解
Tags:07th expansion when they cry wtc cicadas higurashi no naku koro ni kai 2nd season 2 two op opening short ver version anime japanese jpop j-pop pop SHOGUNMOON00999 [[Pause]] Lunicia Houtaro Subahibi kleune Phynta fooders kyrie irving nik nikolomara bbj0920 _todestrieb awayuru isome itscactus azamaki
BeatmapID:3528998
BeatmapSetID:1713658

[Difficulty]
HPDrainRate:5
CircleSize:4
OverallDifficulty:8.5
ApproachRate:9
SliderMultiplier:1.7
SliderTickRate:1

[Events]
//Background and Video events
Video,749,"Higurashi no Naku Koro ni Kai NCOP_Trim (no audio).mp4"
0,0,"cover (2) (1).jpg",0,0
//Break Periods
//Storyboard Layer 0 (Background)
//Storyboard Layer 1 (Fail)
//Storyboard Layer 2 (Pass)
//Storyboard Layer 3 (Foreground)
//Storyboard Layer 4 (Overlay)
//Storyboard Sound Samples

[TimingPoints]
443,550.45871559633,4,2,1,60,1,0
1268,-100,4,2,1,40,0,0
2094,-100,4,2,1,20,0,0
5398,550.45871559633,4,2,2,30,1,0
5432,-100,4,2,2,30,0,0
5948,-100,4,2,1,30,0,0
7599,-1000,4,2,1,30,0,0
13379,-1000,4,2,1,30,0,0
13517,-1000,4,2,1,5,0,0
13654,-40,4,2,1,30,0,0
13930,-40,4,2,1,30,0,0
14205,-1000,4,2,2,30,0,0
14239,-1000,4,2,1,30,0,0
14755,-1000,4,2,1,30,0,0
17370,-1000,4,2,1,5,0,0
17508,-1000,4,2,1,30,0,0
18333,-1000,4,2,1,5,0,0
18609,-1000,4,2,1,30,0,0
22462,-33.3333333333333,4,2,1,30,0,0
23012,-250,4,2,2,30,0,0
23047,-250,4,2,1,30,0,0
23425,-666.666666666667,4,2,1,5,0,0
23563,-666.666666666667,4,2,1,30,0,0
23838,-1000,4,2,1,30,0,0
26177,-1000,4,2,1,5,0,0
26315,-1000,4,2,1,30,0,0
31269,-33.3333333333333,4,2,1,30,0,0
31820,-250,4,2,2,30,0,0
31854,-250,4,2,1,30,0,0
32232,-666.666666666667,4,2,1,5,0,0
32370,-666.666666666667,4,2,1,30,0,0
32645,-1000,4,2,1,30,0,0
37875,-1000,4,2,1,30,0,0
38425,-1000,4,2,1,30,0,0
38563,-1000,4,2,1,30,0,0
38700,-1000,4,2,1,30,0,0
38838,-1000,4,2,1,30,0,0
38975,-1000,4,2,1,30,0,0
39113,-1000,4,2,1,30,0,0
39251,-1000,4,2,1,30,0,0
39388,-1000,4,2,1,30,0,0
39526,-1000,4,2,1,30,0,0
39801,-1000,4,2,1,45,0,0
40627,-45.4545454545455,4,2,1,75,0,0
57416,-45.4545454545455,4,2,1,75,0,0
58242,-45.4545454545455,4,2,1,75,0,0
75306,-66.6666666666667,4,2,1,45,0,0
75581,-1000,4,2,1,45,0,0
75856,-66.6666666666667,4,2,1,50,0,0

[Colours]
Combo1 : 207,201,148
Combo2 : 164,164,210
Combo3 : 225,91,95
Combo4 : 143,203,172

[HitObjects]
256,192,2644,12,0,5121,0:0:0:0:
69,367,5398,5,2,3:2:0:0:
69,367,6223,1,2,3:2:0:0:
69,367,7599,6,0,L|65:339,1,25.5,2|2,0:0|0:0,0:0:0:0:
65,341,9801,6,0,P|50:345|38:345,2,25.5,2|2|2,3:2|3:2|0:0,0:0:0:0:
65,341,13379,6,0,L|64:347,1,4.25
64,345,13654,6,0,B|84:286|84:286|91:281|91:281|57:219|57:219|51:224|51:224|70:162,1,212.5,2|0,0:1|0:0,0:0:0:0:
472,18,14205,5,2,3:2:0:0:
472,18,15031,1,2,3:2:0:0:
472,18,16407,6,0,L|470:48,1,29.75,2|0,0:0|0:0,0:0:0:0:
462,126,17508,1,2,0:0:0:0:
462,126,18609,6,0,P|449:129|436:132,2,25.5,2|2|2,3:2|3:2|0:0,0:0:0:0:
462,126,22462,6,0,B|452:130|452:130|465:78|465:78|345:91|345:91|324:41|324:41|336:51,1,255.000009727478,2|0,0:1|0:0,0:0:0:0:
16,287,23012,6,0,L|-3:284,1,17,2|0,3:2|0:0,0:0:0:0:
171,140,23287,1,0,0:0:0:0:
164,135,23425,6,0,L|146:133,1,12.7499996109009
102,113,23838,5,2,3:2:0:0:
106,108,23975,2,0,L|106:104,1,4.25
106,103,25214,6,0,L|74:100,1,29.75,2|0,0:0|0:0,0:0:0:0:
10,50,26315,1,2,0:0:0:0:
10,50,27416,6,0,L|12:67,1,17,2|0,3:2|0:0,0:0:0:0:
11,66,28242,2,0,L|15:39,1,25.5,2|2,3:2|0:0,0:0:0:0:
14,41,29618,6,0,P|27:50|37:54,1,26.5625,2|0,0:0|0:0,0:0:0:0:
40,57,31269,6,0,B|30:68|30:68|46:61|46:61|98:69|98:69|106:74|106:74|190:63|190:63|195:59|195:59|194:55|194:55|240:34|240:34|219:57,1,255.000009727478,2|0,0:1|0:0,0:0:0:0:
505,383,31820,6,0,L|508:366,1,17,2|0,3:2|0:0,0:0:0:0:
300,256,32095,1,0,0:0:0:0:
306,266,32232,6,0,L|310:250,1,12.7499996109009
351,223,32645,5,2,3:2:0:0:
352,229,32783,2,0,L|353:236,1,4.25,0|2,0:0|0:0,0:0:0:0:
353,237,34021,6,0,L|415:233,1,59.5,0|2,0:0|0:0,0:0:0:0:
412,233,36223,6,0,L|384:231,2,25.5,0|0|0,3:0|3:0|0:0,0:0:0:0:
256,192,38425,12,0,39526,0:0:0:0:
0,247,40627,6,0,P|44:260|95:257,1,93.5000028533936,4|0,3:2|0:0,0:0:0:0:
317,43,40902,2,0,P|403:72|422:164,1,187.000005706787,2|8,0:0|0:0,0:0:0:0:
419,166,41315,1,0,0:0:0:0:
481,217,41453,5,2,0:0:0:0:
414,177,41590,1,0,0:0:0:0:
307,205,41728,1,0,3:0:0:0:
319,192,42003,6,0,P|316:239|308:285,1,93.5000028533936,2|0,0:0|0:0,0:0:0:0:
270,138,42278,2,0,P|223:140|177:149,1,93.5000028533936,10|0,0:0|0:0,0:0:0:0:
0,365,42553,2,0,P|75:388|173:322,1,187.000005706787,2|0,0:0|3:0,0:0:0:0:
19,182,42966,5,0,0:0:0:0:
82,229,43104,2,0,P|45:211|2:177,1,93.5000028533936,2|0,0:0|0:0,0:0:0:0:
162,51,43379,2,0,P|233:80|257:183,1,187.000005706787,8|2,0:0|0:0,0:0:0:0:
151,67,43792,2,0,P|138:41|182:-6,1,93.5000028533936,0|0,0:0|3:0,0:0:0:0:
313,126,44067,1,0,0:0:0:0:
480,93,44205,2,0,P|425:81|356:82,1,93.5000028533936,2|0,0:0|0:0,0:0:0:0:
512,384,44480,6,0,P|466:364|445:312,1,93.5000028533936,10|0,0:0|0:0,0:0:0:0:
189,73,44755,2,0,P|90:72|0:129,1,187.000005706787,2|0,0:0|3:0,0:0:0:0:
26,119,45168,1,0,0:0:0:0:
114,162,45306,6,0,P|154:133|166:89,1,93.5000028533936,2|0,0:0|0:0,0:0:0:0:
389,14,45581,2,0,P|438:8|490:45,1,93.5000028533936,10|0,0:0|0:0,0:0:0:0:
404,185,45856,1,2,0:0:0:0:
364,119,45994,2,0,P|362:85|374:21,1,93.5000028533936,0|0,0:0|3:0,0:0:0:0:
372,112,46269,1,0,0:0:0:0:
263,67,46407,6,0,P|188:93|135:188,1,187.000005706787,2|10,0:0|0:0,0:0:0:0:
212,328,46820,1,0,0:0:0:0:
206,341,46957,2,0,P|120:366|23:322,1,187.000005706787,0|0,0:0|3:0,0:0:0:0:
292,227,47370,5,0,0:0:0:0:
372,267,47508,1,2,0:0:0:0:
452,307,47645,1,0,0:0:0:0:
443,340,47783,5,8,0:0:0:0:
433,290,47920,1,0,0:0:0:0:
423,240,48058,1,2,0:0:0:0:
413,190,48196,1,0,0:0:0:0:
431,203,48333,5,0,3:0:0:0:
454,125,48471,1,0,0:0:0:0:
477,47,48609,1,0,0:0:0:0:
477,47,48884,5,8,0:0:0:0:
305,15,49021,1,0,0:0:0:0:
345,37,49159,5,2,3:2:0:0:
313,209,49297,1,0,0:0:0:0:
145,174,49434,6,0,P|83:119|27:25,1,187.000005706787,4|2,3:2|0:0,0:0:0:0:
269,150,49847,1,0,0:0:0:0:
235,222,49985,2,0,L|229:318,1,93.5000028533936,10|0,0:0|0:0,0:0:0:0:
377,364,50260,1,2,0:0:0:0:
445,311,50397,2,0,P|405:283|358:279,1,93.5000028533936,0|0,0:0|3:0,0:0:0:0:
451,320,50673,5,0,0:0:0:0:
349,282,50810,2,0,P|305:203|292:93,1,187.000005706787,0|8,0:0|0:0,0:0:0:0:
294,90,51361,1,2,0:0:0:0:
443,102,51498,1,2,0:0:0:0:
321,64,51636,5,2,3:2:0:0:
343,144,51774,1,0,0:0:0:0:
287,201,51911,2,0,P|235:209|161:199,1,93.5000028533936,2|0,0:0|0:0,0:0:0:0:
38,77,52186,2,0,P|35:26|155:12,1,187.000005706787,10|2,0:0|0:0,0:0:0:0:
58,73,52599,2,0,P|37:104|18:168,1,93.5000028533936,0|0,0:0|3:0,0:0:0:0:
138,247,52875,5,8,0:0:0:0:
58,309,53012,2,0,L|120:240,1,93.5000028533936,2|0,0:0|0:0,0:0:0:0:
219,176,53287,2,0,L|207:282,1,93.5000028533936,10|0,0:0|0:0,0:0:0:0:
194,364,53563,6,0,P|249:351|283:323,1,93.5000028533936,2|0,0:0|0:0,0:0:0:0:
512,164,53838,2,0,P|471:181|382:183,1,93.5000028533936,6|0,3:2|0:0,0:0:0:0:
195,33,54113,2,0,P|288:15|424:55,1,187.000005706787,2|10,0:0|0:0,0:0:0:0:
270,183,54526,1,0,0:0:0:0:
253,193,54664,5,2,0:0:0:0:
127,146,54801,1,0,0:0:0:0:
163,68,54939,2,0,P|209:84|202:131,1,93.5000028533936,0|0,3:0|0:0,0:0:0:0:
121,141,55214,2,0,L|156:52,1,93.5000028533936,2|0,0:0|0:0,0:0:0:0:
512,384,55489,6,0,L|478:185,1,187.000005706787,14|2,0:0|0:0,0:0:0:0:
182,37,55902,1,0,0:0:0:0:
11,213,56040,5,4,3:2:0:0:
106,292,56177,1,0,0:0:0:0:
201,371,56315,2,0,L|298:383,1,93.5000028533936,2|0,0:0|0:0,0:0:0:0:
438,26,56590,6,0,L|472:128,1,93.5000028533936,14|0,0:0|0:0,0:0:0:0:
459,116,56865,2,0,L|447:19,1,93.5000028533936,2|0,0:0|0:0,0:0:0:0:
508,343,57141,5,4,3:2:0:0:
272,233,57278,1,0,3:0:0:0:
436,312,57416,2,0,L|420:212,1,93.5000028533936,2|0,3:2|0:0,0:0:0:0:
2,12,57691,6,0,L|24:110,1,93.5000028533936,6|0,3:2|0:0,0:0:0:0:
14,116,57966,1,2,3:2:0:0:
20,0,58104,1,0,0:0:0:0:
8,232,58242,6,0,B|-73:268|419:240|333:273,2,374.000011413575,4|8|0,3:2|0:0|3:0,0:0:0:0:
76,193,59618,6,0,P|87:234|52:295,1,93.5000028533936,2|0,0:0|0:0,0:0:0:0:
69,280,59893,2,0,P|71:237|123:190,1,93.5000028533936,10|0,0:0|0:0,0:0:0:0:
343,368,60168,2,0,P|463:367|510:322,1,187.000005706787,2|0,0:0|3:0,0:0:0:0:
317,149,60581,5,0,0:0:0:0:
294,230,60719,2,0,P|274:272|230:321,1,93.5000028533936,2|0,0:0|0:0,0:0:0:0:
64,195,60994,2,0,L|22:9,1,187.000005706787,8|2,0:0|0:0,0:0:0:0:
54,212,61407,2,0,P|85:239|150:226,1,93.5000028533936,0|0,0:0|3:0,0:0:0:0:
209,140,61682,5,0,0:0:0:0:
354,182,61820,2,0,L|252:197,1,93.5000028533936,2|0,0:0|0:0,0:0:0:0:
374,16,62095,2,0,P|407:45|431:119,1,93.5000028533936,10|0,0:0|0:0,0:0:0:0:
385,360,62370,1,6,0:0:0:0:
272,297,62508,1,0,0:0:0:0:
325,240,62645,2,0,P|337:207|281:170,1,93.5000028533936,0|0,3:2|0:0,0:0:0:0:
342,243,62920,6,0,L|230:227,1,93.5000028533936,6|0,0:0|0:0,0:0:0:0:
5,7,63196,6,0,P|-7:79|71:152,1,187.000005706787,10|6,0:0|0:0,0:0:0:0:
276,91,63609,1,0,0:0:0:0:
190,58,63746,1,0,3:0:0:0:
183,137,63884,1,0,0:0:0:0:
236,195,64021,6,0,P|275:220|306:261,1,93.5000028533936,2|0,0:0|0:0,0:0:0:0:
471,341,64297,2,0,P|421:323|361:319,1,93.5000028533936,10|0,0:0|0:0,0:0:0:0:
52,282,64572,2,0,P|110:285|153:234,1,93.5000028533936,2|0,0:0|0:0,0:0:0:0:
464,0,64847,5,6,3:2:0:0:
265,358,65122,1,2,0:0:0:0:
111,312,65260,1,0,0:0:0:0:
137,218,65397,1,8,0:0:0:0:
147,188,65535,1,0,0:0:0:0:
157,158,65673,5,2,0:0:0:0:
56,207,65810,1,0,0:0:0:0:
230,260,65948,1,0,3:0:0:0:
262,247,66086,1,0,3:0:0:0:
294,234,66223,5,2,0:0:0:0:
218,344,66360,1,0,3:0:0:0:
430,295,66498,1,8,3:2:0:0:
390,209,66636,1,0,3:0:0:0:
487,216,66774,1,0,3:0:0:0:
430,295,66911,1,0,3:0:0:0:
447,130,67049,6,0,L|458:22,2,93.5000028533936,4|0|0,3:2|0:0|0:0,0:0:0:0:
447,130,67599,2,0,P|362:164|258:169,1,187.000005706787,8|2,0:0|0:0,0:0:0:0:
75,77,68012,1,0,0:0:0:0:
118,3,68150,6,0,P|103:40|114:107,1,93.5000028533936,2|0,3:2|0:0,0:0:0:0:
35,193,68425,2,0,P|52:228|109:265,1,93.5000028533936,2|0,0:2|0:0,0:0:0:0:
362,289,68700,2,0,P|316:290|250:324,1,93.5000028533936,10|0,0:0|0:0,0:0:0:0:
192,381,68975,1,2,0:0:0:0:
478,220,69251,5,6,3:2:0:0:
415,160,69388,1,0,0:0:0:0:
396,75,69526,2,0,P|411:31|450:-4,1,93.5000028533936
223,239,69801,2,0,P|159:164|60:118,1,187.000005706787,10|2,0:0|0:0,0:0:0:0:
392,339,70214,6,0,L|524:367,1,93.5000028533936,0|0,0:0|3:0,0:0:0:0:
281,161,70489,1,0,0:0:0:0:
199,258,70627,2,0,P|160:281|83:274,1,93.5000028533936,2|0,0:0|0:0,0:0:0:0:
45,85,70902,1,8,0:0:0:0:
53,57,71040,1,0,0:0:0:0:
8,149,71177,6,0,L|105:141,1,93.5000028533936,6|0,0:0|0:0,0:0:0:0:
482,25,71453,6,0,L|421:214,1,187.000005706787,6|0,3:2|0:0,0:0:0:0:
376,285,71865,1,0,0:0:0:0:
427,165,72003,2,0,L|457:71,1,93.5000028533936,10|0,0:0|0:0,0:0:0:0:
512,0,72278,1,2,0:0:0:0:
512,0,72416,1,0,0:0:0:0:
348,191,72553,6,0,L|170:217,1,140.25000428009,4|0,3:2|0:0,0:0:0:0:
187,214,72829,2,0,L|105:158,1,93.5000028533936,2|0,0:0|0:0,0:0:0:0:
0,0,73104,1,10,0:0:0:0:
0,0,73242,1,0,0:0:0:0:
26,19,73379,6,0,P|34:31|64:26,1,46.7500014266968
131,70,73517,1,0,0:0:0:0:
61,116,73654,6,0,L|36:215,1,93.5000028533936,0|0,3:0|0:0,0:0:0:0:
38,206,73930,2,0,B|42:191|42:191|121:172,1,93.5000028533936,4|0,0:0|0:0,0:0:0:0:
451,116,74205,6,0,L|476:215,1,93.5000028533936,0|0,3:0|0:0,0:0:0:0:
473,206,74481,2,0,B|466:177|466:177|436:267,1,93.5000028533936,4|0,0:0|0:0,0:0:0:0:
256,384,74755,5,4,3:2:0:0:
187,335,74893,1,0,3:0:0:0:
213,255,75031,1,4,3:2:0:0:
298,255,75168,1,0,3:0:0:0:
324,335,75306,1,4,3:2:0:0:
324,335,75581,6,0,L|324:342,1,4.25
256,384,75856,5,6,3:2:0:0:
46,103,76131,1,0,0:0:0:0:
97,43,76407,1,2,3:0:0:0:
174,57,76682,1,2,3:0:0:0:
188,93,76820,1,0,0:0:0:0:
200,130,76957,1,2,3:2:0:0:
175,161,77095,1,0,0:0:0:0:
149,190,77232,1,0,0:0:0:0:
72,176,77507,1,2,3:1:0:0:
46,103,77783,1,2,3:1:0:0:
72,176,78058,5,0,3:0:0:0:
111,183,78196,1,0,0:0:0:0:
123,219,78333,1,2,0:3:0:0:
175,161,78471,1,2,0:3:0:0:
199,235,78609,1,0,3:0:0:0:
238,242,78746,1,2,0:3:0:0:
290,184,78884,1,2,0:3:0:0:
216,15,79159,5,2,3:3:0:0:
216,369,79434,5,2,0:3:0:0:
296,369,79709,5,2,3:3:0:0:
296,15,79985,5,2,0:0:0:0:
256,0,80260,5,6,3:2:0:0:
466,281,80535,1,0,0:0:0:0:
415,341,80811,1,2,3:0:0:0:
338,327,81086,1,2,3:0:0:0:
324,291,81224,1,0,0:0:0:0:
312,254,81361,1,2,3:2:0:0:
337,223,81499,1,0,0:0:0:0:
363,194,81636,1,0,0:0:0:0:
440,208,81911,1,2,3:1:0:0:
466,281,82187,1,2,0:1:0:0:
440,208,82462,5,0,3:0:0:0:
401,201,82600,1,0,0:0:0:0:
366,114,82737,1,2,0:3:0:0:
364,108,82875,1,2,0:3:0:0:
321,249,83012,1,0,3:0:0:0:
319,255,83150,1,2,0:3:0:0:
317,261,83287,1,2,0:3:0:0:
315,267,83425,1,0,3:0:0:0:
286,347,83563,5,6,3:2:0:0:
196,244,83700,1,2,0:0:0:0:
182,207,83838,1,2,3:3:0:0:
226,347,83975,5,4,3:2:0:0:
316,244,84112,1,6,3:2:0:0:
330,207,84250,1,0,3:0:0:0:
256,167,84388,5,4,3:2:0:0:
256,275,84526,5,4,3:0:0:0:
256,384,84664,5,6,3:2:0:0:
466,103,84939,1,0,0:0:0:0:
415,43,85215,1,2,3:0:0:0:
338,57,85490,1,2,3:0:0:0:
324,93,85627,1,0,0:0:0:0:
312,130,85765,1,2,3:2:0:0:
337,161,85903,1,0,0:0:0:0:
363,190,86040,1,0,0:0:0:0:
440,176,86315,1,2,3:1:0:0:
466,103,86591,1,2,0:1:0:0:
440,176,86866,5,0,3:0:0:0:
401,183,87004,1,0,0:0:0:0:
389,219,87141,1,2,0:3:0:0:
337,161,87279,1,2,0:3:0:0:
313,235,87417,1,0,3:0:0:0:
274,242,87554,1,2,0:3:0:0:
222,184,87692,1,2,0:3:0:0:
296,15,87967,5,2,3:3:0:0:
296,369,88242,5,2,0:3:0:0:
216,369,88517,5,2,3:3:0:0:
216,15,88793,5,2,0:0:0:0:
256,0,89068,5,6,3:2:0:0:
46,281,89343,1,0,0:0:0:0:
97,341,89618,1,2,3:0:0:0:
174,327,89894,1,2,3:0:0:0:
188,291,90032,1,0,3:0:0:0:
200,254,90169,1,2,3:2:0:0:
175,223,90307,1,0,0:0:0:0:
149,194,90444,1,0,0:0:0:0:
72,208,90719,1,2,3:1:0:0:
46,281,90995,1,2,3:1:0:0:
72,208,91269,5,0,3:0:0:0:
111,201,91407,1,0,0:0:0:0:
146,114,91544,1,2,0:3:0:0:
148,108,91682,1,2,0:3:0:0:
191,249,91819,1,0,3:0:0:0:
193,255,91957,1,2,0:3:0:0:
195,261,92094,1,2,0:3:0:0:
197,267,92232,1,0,0:0:0:0:
226,347,92370,5,4,3:2:0:0:
292,210,92508,1,0,3:0:0:0:
343,192,92645,1,2,3:3:0:0:
347,280,92783,5,6,3:2:0:0:
259,97,92921,1,6,3:2:0:0:
191,73,93058,1,0,3:0:0:0:
152,161,93196,5,4,3:2:0:0:
256,13,93333,5,4,3:0:0:0:
360,161,93471,5,6,0:0:0:0:
