osu file format v14

[General]
AudioFilename: audio.mp3
AudioLeadIn: 0
PreviewTime: 39664
Countdown: 0
SampleSet: Soft
StackLeniency: 0.5
Mode: 0
LetterboxInBreaks: 0
WidescreenStoryboard: 1

[Editor]
Bookmarks: 13614,22422,31229,40587,49394,58202,65908,73614,75816,93431
DistanceSpacing: 0.6
BeatDivisor: 4
GridSize: 4
TimelineZoom: 1.7

[Metadata]
Title:Naraku no Hana (TV Size)
TitleUnicode:奈落の花 (TV Size)
Artist:Shimamiya Eiko
ArtistUnicode:島みやえい子
Creator:discode
Version:fooders' Hyper
Source:ひぐらしのなく頃に解
Tags:07th expansion when they cry wtc cicadas higurashi no naku koro ni kai 2nd season 2 two op opening short ver version anime japanese jpop j-pop pop SHOGUNMOON00999 [[Pause]] Lunicia Houtaro Subahibi kleune Phynta fooders kyrie irving nik nikolomara bbj0920 _todestrieb awayuru isome itscactus azamaki
BeatmapID:3516483
BeatmapSetID:1713658

[Difficulty]
HPDrainRate:5
CircleSize:3.5
OverallDifficulty:6.5
ApproachRate:8
SliderMultiplier:1.2
SliderTickRate:1

[Events]
//Background and Video events
Video,749,"Higurashi no Naku Koro ni Kai NCOP_Trim (no audio).mp4"
0,0,"cover (2) (1).jpg",0,0
//Break Periods
//Storyboard Layer 0 (Background)
//Storyboard Layer 1 (Fail)
//Storyboard Layer 2 (Pass)
//Storyboard Layer 3 (Foreground)
//Storyboard Layer 4 (Overlay)
//Storyboard Sound Samples

[TimingPoints]
443,550.45871559633,4,2,1,60,1,0
1268,-200,4,2,1,40,0,0
2094,-200,4,2,1,20,0,0
5398,550.45871559633,4,2,1,30,1,0
5398,-133.333333333333,4,2,1,30,0,0
5948,-133.333333333333,4,2,1,30,0,0
7599,-200,4,2,1,30,0,0
9801,-133.333333333333,4,2,1,30,0,0
13654,-66.6666666666667,4,2,1,30,0,0
14205,-133.333333333333,4,2,1,30,0,0
14755,-133.333333333333,4,2,1,30,0,0
16407,-200,4,2,1,30,0,0
18609,-133.333333333333,4,2,1,30,0,0
22462,-66.6666666666667,4,2,1,30,0,0
23012,-83.3333333333333,4,2,1,30,0,0
23563,-83.3333333333333,4,2,1,30,0,0
23838,-400,4,2,1,30,0,0
25214,-200,4,2,1,30,0,0
27416,-133.333333333333,4,2,1,30,0,0
31269,-66.6666666666667,4,2,1,30,0,0
31820,-83.3333333333333,4,2,1,30,0,0
32370,-83.3333333333333,4,2,1,30,0,0
32920,-133.333333333333,4,2,1,30,0,0
33471,-200,4,2,1,30,0,0
34021,-666.666666666667,4,2,1,30,0,0
36223,-133.333333333333,4,2,1,30,0,0
38425,-200,4,2,1,30,0,0
40627,-62.5,4,2,1,70,0,0
57416,-62.5,4,2,1,70,0,0
58242,-62.5,4,2,1,70,0,0
75306,-62.5,4,2,1,70,0,0
75856,-62.5,4,2,1,50,0,0
91820,-100,4,2,1,50,0,0

[Colours]
Combo1 : 207,201,148
Combo2 : 164,164,210
Combo3 : 225,91,95
Combo4 : 143,203,172

[HitObjects]
334,335,443,6,0,L|413:317,1,60
185,270,1268,6,0,L|148:262,1,30
311,213,2094,6,0,L|348:205,1,30
256,192,2644,12,0,5121,0:0:0:0:
399,66,5398,6,0,P|407:112|403:217,2,135.000005149841,4|2|0,0:0|0:0|0:0,0:0:0:0:
363,338,7599,2,0,P|361:308|364:268,1,60,2|0,0:0|0:0,0:0:0:0:
248,177,8700,2,0,P|250:147|247:107,1,60,2|0,0:0|0:0,0:0:0:0:
274,26,9526,1,0,3:0:0:0:
40,81,9801,6,0,P|32:127|36:232,2,135.000005149841,2|2|2,0:0|0:0|0:0,0:0:0:0:
35,373,13379,1,0,3:0:0:0:
101,298,13654,6,0,P|111:292|140:286,4,22.5000008583069,0|0|0|0|0,1:0|1:0|1:0|1:0|1:0,1:0:0:0:
213,348,14205,2,0,P|144:343|98:291,2,135.000005149841,4|2|0,0:1|0:0|0:0,0:0:0:0:
295,296,16131,1,0,3:0:0:0:
295,296,16407,2,0,P|295:255|298:226,1,60,0|0,3:0|0:0,0:0:0:0:
512,384,17508,5,2,0:1:0:0:
252,20,18609,2,0,P|244:66|248:171,2,135.000005149841,2|2|2,3:2|3:2|3:2,0:0:0:0:
5,0,22186,1,0,3:0:0:0:
76,69,22462,6,0,P|111:84|114:84,4,22.5000008583069,0|0|0|0|0,1:0|1:0|1:0|1:0|1:0,1:0:0:0:
16,265,23012,6,0,B|23:226|23:226|8:197|8:197|15:162|15:162|5:97,1,143.999995605469,4|2,0:1|0:0,0:0:0:0:
96,369,23838,2,0,P|98:341|97:320,1,45,0|2,3:0|0:0,0:0:0:0:
210,266,24939,1,0,3:0:0:0:
164,192,25214,2,0,P|162:163|166:130,1,60,0|0,3:0|0:0,0:0:0:0:
98,324,26315,5,2,0:1:0:0:
354,235,27416,2,0,P|362:281|358:386,2,135.000005149841,2|2|2,3:2|3:2|3:2,0:0:0:0:
278,174,29342,1,0,3:0:0:0:
357,64,29618,1,2,0:0:0:0:
357,64,30719,1,2,0:0:0:0:
425,151,30994,1,0,3:0:0:0:
496,22,31269,6,0,P|500:-9|502:-17,4,22.5000008583069,0|0|0|0|0,1:0|1:0|1:0|1:0|1:0,1:0:0:0:
228,85,31820,2,0,B|286:44|286:44|372:68,1,143.999995605469,4|0,0:1|0:0,0:0:0:0:
307,152,32645,1,0,3:0:0:0:
149,31,32920,2,0,P|122:23|92:19,1,45.0000017166138,2|0,0:0|0:0,0:0:0:0:
307,152,33471,6,0,P|320:146|335:143,1,30,2|0,0:0|0:0,0:0:0:0:
262,38,34021,2,0,B|268:55|255:66|255:66|247:49|260:38,1,62.9999980773926,0|0,0:0|3:0,0:0:0:0:
208,157,36223,6,0,P|246:102|260:37,2,135.000005149841,2|2|2,3:2|3:2|3:2,0:0:0:0:
432,292,38425,6,0,B|419:281|419:281|414:257|414:257|395:241|395:241|386:226|386:226|382:181,1,120
103,354,40627,6,0,P|177:332|270:339,1,144,4|0,3:2|0:0,0:0:0:0:
254,339,41177,2,0,P|251:287|256:231,1,96,8|0,0:0|3:0,0:0:0:0:
159,251,41590,1,2,3:0:0:0:
159,251,41728,1,2,3:2:0:0:
357,317,42003,5,0,3:0:0:0:
291,158,42278,1,8,3:2:0:0:
291,158,42553,1,0,3:0:0:0:
463,72,42829,6,0,P|471:117|466:227,1,144,4|0,3:2|0:0,0:0:0:0:
290,157,43379,2,0,P|334:132|350:82,1,96,8|0,3:2|3:0,0:0:0:0:
255,13,43792,1,2,3:0:0:0:
255,13,43930,2,0,P|253:47|260:85,2,48,2|0|0,3:2|0:0|3:0,0:0:0:0:
290,157,44480,1,8,0:0:0:0:
145,50,44755,5,0,3:0:0:0:
44,119,45031,2,0,P|36:55|23:6,1,96,4|0,3:2|0:0,0:0:0:0:
77,210,45581,5,8,0:0:0:0:
185,151,45856,1,0,3:0:0:0:
185,151,45994,1,2,3:0:0:0:
185,151,46131,2,0,P|174:197|169:245,1,96,4|0,3:2|3:0,0:0:0:0:
193,334,46682,1,8,0:0:0:0:
496,271,46957,6,0,B|455:246|455:246|393:250,1,96,2|0,3:2|3:0,0:0:0:0:
193,334,47508,2,0,B|240:337|240:337|281:312,1,96,2|8,3:2|0:0,0:0:0:0:
409,364,48058,5,0,3:0:0:0:
409,364,48196,1,2,3:0:0:0:
409,364,48333,2,0,P|437:366|464:377,2,48,2|0|0,3:2|0:0|3:0,0:0:0:0:
320,222,48884,5,2,3:2:0:0:
316,197,49021,1,0,3:0:0:0:
313,172,49159,1,2,3:0:0:0:
311,147,49297,1,0,3:0:0:0:
306,122,49434,2,0,P|298:58|285:8,1,96,4|0,0:0|0:0,0:0:0:0:
425,257,49985,2,0,P|433:193|446:144,1,96,8|0,0:0|3:0,0:0:0:0:
447,139,50397,1,2,3:0:0:0:
457,117,50535,1,2,3:2:0:0:
412,16,50810,5,0,3:0:0:0:
412,16,51086,1,8,0:0:0:0:
263,90,51361,5,0,3:0:0:0:
263,90,51498,1,2,3:0:0:0:
263,90,51636,1,4,3:2:0:0:
170,40,51911,1,0,3:0:0:0:
100,111,52186,1,8,0:0:0:0:
205,173,52462,5,0,3:0:0:0:
205,173,52599,1,0,3:0:0:0:
205,173,52737,1,2,3:2:0:0:
205,173,52875,1,0,3:0:0:0:
205,173,53012,1,2,3:0:0:0:
16,201,53287,1,8,0:0:0:0:
120,264,53563,1,0,3:0:0:0:
100,111,53838,6,0,P|96:58|90:10,3,96,6|2|10|2,3:2|3:2|3:2|3:0,0:0:0:0:
90,0,54801,1,2,3:0:0:0:
90,0,54939,1,2,3:2:0:0:
198,124,55214,5,0,3:0:0:0:
350,41,55489,1,8,0:0:0:0:
254,32,55764,1,0,3:0:0:0:
254,32,55902,1,2,3:0:0:0:
254,32,56040,1,2,3:2:0:0:
306,136,56315,1,0,3:0:0:0:
451,58,56590,5,8,0:0:0:0:
451,58,56865,1,0,3:0:0:0:
415,152,57141,5,4,0:0:0:0:
415,152,57278,1,2,3:0:0:0:
415,152,57416,1,0,3:2:0:0:
479,238,57691,5,12,3:2:0:0:
479,238,57829,1,0,3:0:0:0:
479,238,57966,1,0,3:0:0:0:
479,238,58104,1,0,3:0:0:0:
479,238,58242,2,0,P|455:300|433:388,1,144,4|0,0:0|0:0,0:0:0:0:
350,307,58792,2,0,P|344:259|334:212,1,96,8|0,0:0|3:0,0:0:0:0:
326,192,59205,1,2,3:0:0:0:
317,174,59342,1,2,3:2:0:0:
255,363,59618,5,0,3:0:0:0:
52,253,59893,1,8,0:0:0:0:
52,253,60168,1,0,3:0:0:0:
8,379,60443,6,0,P|79:355|167:338,1,144,4|0,0:0|0:0,0:0:0:0:
165,339,60994,2,0,P|170:291|180:244,1,96,8|0,0:0|3:0,0:0:0:0:
141,167,61407,1,2,3:0:0:0:
139,147,61544,1,2,3:2:0:0:
138,128,61682,1,0,3:0:0:0:
137,109,61819,1,0,3:0:0:0:
266,221,62095,5,8,0:0:0:0:
357,38,62370,1,0,3:0:0:0:
362,154,62645,5,4,0:0:0:0:
266,221,62920,1,0,3:0:0:0:
266,221,63057,1,2,3:0:0:0:
266,221,63196,2,0,P|263:147|253:84,1,96,8|0,0:0|3:0,0:0:0:0:
255,101,63609,1,2,3:0:0:0:
249,77,63746,1,2,3:2:0:0:
466,199,64021,5,2,3:0:0:0:
466,199,64158,1,2,3:0:0:0:
466,199,64297,1,2,3:2:0:0:
377,59,64571,1,2,3:0:0:0:
377,59,64847,6,0,P|365:129|359:176,1,96,4|0,0:0|3:0,0:0:0:0:
377,270,65260,1,2,3:0:0:0:
377,270,65397,1,8,0:0:0:0:
480,101,65673,5,0,3:0:0:0:
480,101,65810,1,2,3:0:0:0:
480,101,65948,1,2,3:2:0:0:
257,374,66223,5,0,3:0:0:0:
257,293,66498,1,8,3:2:0:0:
256,264,66636,1,0,3:0:0:0:
256,235,66774,1,2,3:2:0:0:
256,206,66911,1,0,3:0:0:0:
256,177,67049,1,6,3:2:0:0:
256,177,67599,1,10,3:2:0:0:
164,165,67875,5,0,3:0:0:0:
94,97,68150,1,2,3:2:0:0:
186,75,68425,1,0,3:0:0:0:
164,165,68700,2,0,P|146:221|120:268,1,96,8|0,0:0|0:0,0:0:0:0:
380,329,69251,6,0,P|291:298|250:214,2,192,4|8|2,0:0|0:0|3:2,0:0:0:0:
268,384,70627,1,0,3:0:0:0:
268,384,70764,1,2,3:0:0:0:
268,384,70902,1,8,0:0:0:0:
385,306,71177,1,0,3:0:0:0:
129,326,71453,6,0,P|81:335|35:349,2,96,12|0|8,0:0|3:0|0:0,0:0:0:0:
415,223,72278,5,0,3:2:0:0:
415,223,72416,1,2,3:0:0:0:
415,223,72553,2,0,P|462:232|508:246,2,96,12|0|8,0:0|3:0|0:0,0:0:0:0:
212,32,73379,5,0,3:0:0:0:
212,32,73517,1,2,3:0:0:0:
212,32,73654,2,0,P|205:71|189:93,3,48,12|0|0|0,0:0|3:0|3:0|3:0,0:0:0:0:
313,109,74205,2,0,P|315:132|324:154,3,48,12|0|0|0,0:0|3:0|3:0|3:0,0:0:0:0:
260,256,74755,5,12,3:2:0:0:
260,256,74893,1,0,3:0:0:0:
260,256,75031,1,0,3:0:0:0:
260,256,75168,1,0,3:0:0:0:
260,256,75306,1,12,3:2:0:0:
464,0,75856,6,0,P|472:57|466:151,1,144,4|0,3:2|0:0,0:0:0:0:
463,164,76407,1,2,3:0:0:0:
361,81,76682,1,0,3:0:0:0:
183,152,76957,5,8,3:2:0:0:
159,147,77094,1,0,3:0:0:0:
135,143,77232,1,2,3:2:0:0:
112,139,77369,1,0,3:0:0:0:
88,135,77507,1,8,3:2:0:0:
299,175,77783,5,0,3:0:0:0:
264,82,78058,1,8,3:2:0:0:
262,71,78195,1,0,3:0:0:0:
260,59,78333,1,2,3:2:0:0:
258,47,78470,1,0,3:0:0:0:
256,35,78608,1,8,3:2:0:0:
299,175,78884,5,0,3:0:0:0:
361,81,79159,2,0,B|357:55|383:43|383:43|387:71|358:83,1,96,2|0,3:2|0:0,0:0:0:0:
217,239,79709,6,0,B|207:263|179:259|179:259|189:234|220:237,1,96,10|0,3:2|0:0,0:0:0:0:
299,175,80260,2,0,B|320:224|316:269|292:328,1,144,4|0,3:2|0:0,0:0:0:0:
286,346,80810,1,2,3:0:0:0:
402,172,81086,1,0,3:0:0:0:
439,369,81361,5,8,3:2:0:0:
434,345,81498,1,0,3:0:0:0:
430,321,81636,1,2,3:2:0:0:
426,298,81773,1,0,3:0:0:0:
422,274,81911,1,8,3:2:0:0:
402,172,82186,1,0,3:0:0:0:
506,92,82462,5,8,3:2:0:0:
503,104,82599,1,0,3:0:0:0:
501,116,82737,1,2,3:2:0:0:
499,127,82874,1,0,3:0:0:0:
497,139,83012,1,8,3:2:0:0:
374,62,83287,1,0,3:0:0:0:
179,196,83563,5,8,3:2:0:0:
179,196,83700,1,0,3:0:0:0:
179,196,83838,1,2,3:2:0:0:
179,196,83975,1,0,3:0:0:0:
179,196,84113,2,0,P|154:189|122:184,3,48,8|0|2|0,3:2|3:0|3:2|3:0,0:0:0:0:
0,134,84664,6,0,P|61:120|123:42,1,144,4|0,3:2|0:0,0:0:0:0:
129,32,85214,1,2,3:0:0:0:
214,106,85489,1,0,3:0:0:0:
385,56,85764,5,8,3:2:0:0:
361,51,85901,1,0,3:0:0:0:
337,47,86039,1,2,3:2:0:0:
314,43,86176,1,0,3:0:0:0:
290,39,86314,1,8,3:2:0:0:
214,106,86590,1,0,3:0:0:0:
385,56,86865,5,8,3:2:0:0:
373,53,87002,1,0,3:0:0:0:
361,51,87140,1,2,3:2:0:0:
349,49,87277,1,0,3:0:0:0:
337,47,87415,1,8,3:2:0:0:
214,106,87691,1,0,3:0:0:0:
342,179,87966,5,2,3:2:0:0:
426,145,88242,1,0,3:0:0:0:
479,215,88517,5,10,3:2:0:0:
426,145,88793,1,0,3:0:0:0:
393,261,89067,6,0,P|316:273|243:293,1,144,4|0,3:2|0:0,0:0:0:0:
222,298,89618,1,2,3:0:0:0:
338,366,89893,1,0,3:0:0:0:
253,194,90168,5,8,3:2:0:0:
253,194,90306,1,0,3:0:0:0:
253,194,90443,1,2,3:2:0:0:
253,194,90581,1,0,3:0:0:0:
253,194,90719,1,8,3:2:0:0:
79,280,90994,1,0,3:0:0:0:
145,143,91269,5,8,3:2:0:0:
148,155,91406,1,0,3:0:0:0:
150,167,91544,1,2,3:2:0:0:
152,179,91681,1,0,3:0:0:0:
154,191,91820,2,0,P|156:218|156:246,4,30,8|0|2|0|12,3:2|3:0|3:2|3:0|3:2,0:0:0:0:
54,93,92645,5,8,3:2:0:0:
144,76,92920,1,8,3:2:0:0:
172,67,93057,1,8,3:2:0:0:
197,51,93195,1,8,3:2:0:0:
216,28,93332,1,8,3:2:0:0:
227,0,93470,1,12,3:2:0:0:
