osu file format v14

[General]
AudioFilename: audio.mp3
AudioLeadIn: 0
PreviewTime: 39664
Countdown: 0
SampleSet: Soft
StackLeniency: 0.9
Mode: 0
LetterboxInBreaks: 0
WidescreenStoryboard: 1

[Editor]
Bookmarks: 13614,22422,31229,40587,49394,58202,65908,73614,75816,93431
DistanceSpacing: 1.4
BeatDivisor: 4
GridSize: 32
TimelineZoom: 1.6

[Metadata]
Title:Naraku no Hana (TV Size)
TitleUnicode:奈落の花 (TV Size)
Artist:Shimamiya Eiko
ArtistUnicode:島みやえい子
Creator:discode
Version:subahibi's Light Insane
Source:ひぐらしのなく頃に解
Tags:07th expansion when they cry wtc cicadas higurashi no naku koro ni kai 2nd season 2 two op opening short ver version anime japanese jpop j-pop pop SHOGUNMOON00999 [[Pause]] Lunicia Houtaro Subahibi kleune Phynta fooders kyrie irving nik nikolomara bbj0920 _todestrieb awayuru isome itscactus azamaki
BeatmapID:3512208
BeatmapSetID:1713658

[Difficulty]
HPDrainRate:5
CircleSize:4
OverallDifficulty:8
ApproachRate:8
SliderMultiplier:1.2
SliderTickRate:1

[Events]
//Background and Video events
Video,749,"Higurashi no Naku Koro ni Kai NCOP_Trim (no audio).mp4"
0,0,"cover (2) (1).jpg",0,0
//Break Periods
//Storyboard Layer 0 (Background)
//Storyboard Layer 1 (Fail)
//Storyboard Layer 2 (Pass)
//Storyboard Layer 3 (Foreground)
//Storyboard Layer 4 (Overlay)
//Storyboard Sound Samples

[TimingPoints]
443,550.45871559633,4,2,1,60,1,0
443,-55.5555555555556,4,2,1,60,0,0
1268,-62.5,4,2,1,40,0,0
2094,-62.5,4,2,1,20,0,0
5398,550.45871559633,4,2,2,30,1,0
5398,-100,4,2,2,30,0,0
5432,-100,4,2,1,30,0,0
5948,-100,4,2,1,30,0,0
6223,-250,4,2,1,30,0,0
8425,-666.666666666667,4,2,1,30,0,0
9801,-100,4,2,1,30,0,0
11453,-500,4,2,1,30,0,0
13654,-50,4,2,1,30,0,0
14205,-100,4,2,2,30,0,0
14239,-100,4,2,1,30,0,0
14755,-100,4,2,1,30,0,0
15031,-250,4,2,1,30,0,0
18333,-250,4,2,1,5,0,0
18609,-100,4,2,1,30,0,0
20260,-500,4,2,1,30,0,0
22462,-50,4,2,1,30,0,0
23012,-50,4,2,2,30,0,0
23047,-50,4,2,1,30,0,0
23425,-50,4,2,1,5,0,0
23563,-50,4,2,1,30,0,0
23838,-250,4,2,1,30,0,0
27416,-100,4,2,1,30,0,0
31269,-50,4,2,1,30,0,0
31820,-55.5555555555556,4,2,2,30,0,0
31854,-55.5555555555556,4,2,1,30,0,0
32232,-20,4,2,1,5,0,0
32370,-20,4,2,1,30,0,0
32645,-250,4,2,1,30,0,0
39801,-250,4,2,1,15,0,0
40627,-40,4,2,1,75,0,0
51636,-37.037037037037,4,2,1,75,0,0
52186,-40,4,2,1,75,0,0
53563,-36.3636363636364,4,2,1,75,0,0
57416,-36.3636363636364,4,2,1,75,0,0
57691,-30.3030303030303,4,2,1,75,0,0
58242,-40,4,2,1,75,0,0
60168,-33.3333333333333,4,2,1,75,0,0
60443,-40,4,2,1,75,0,0
61820,-50,4,2,1,75,0,0
62370,-33.3333333333333,4,2,1,75,0,0
67049,-40,4,2,1,75,0,0
68700,-35.7142857142857,4,2,1,75,0,0
69251,-40,4,2,1,75,0,0
70902,-33.3333333333333,4,2,1,75,0,0
71453,-40,4,2,1,75,0,0
73930,-33.3333333333333,4,2,1,75,0,0
74067,-40,4,2,1,75,0,0
75306,-33.3333333333333,4,2,1,75,0,0
75856,-40,4,2,1,50,0,0
76269,-43.4782608695652,4,2,1,50,0,0
76682,-50,4,2,1,50,0,0
77508,-40,4,2,1,50,0,0
78058,-40,4,2,1,50,0,0
78333,-50,4,2,1,50,0,0
80260,-40,4,2,1,50,0,0
80673,-43.4782608695652,4,2,1,50,0,0
81086,-50,4,2,1,50,0,0
81911,-40,4,2,1,50,0,0
82462,-40,4,2,1,50,0,0
82875,-50,4,2,1,50,0,0
83563,-40,4,2,1,50,0,0
84664,-41.6666666666667,4,2,1,50,0,0
85076,-43.4782608695652,4,2,1,50,0,0
85489,-40,4,2,1,50,0,0
85902,-47.6190476190476,4,2,1,50,0,0
86315,-40,4,2,1,50,0,0
87278,-50,4,2,1,50,0,0
89067,-40,4,2,1,50,0,0
89480,-43.4782608695652,4,2,1,50,0,0
89893,-40,4,2,1,50,0,0
90306,-50,4,2,1,50,0,0
90719,-40,4,2,1,50,0,0
91544,-50,4,2,1,50,0,0

[Colours]
Combo1 : 207,201,148
Combo2 : 164,164,210
Combo3 : 225,91,95
Combo4 : 143,203,172

[HitObjects]
266,202,443,6,0,B|280:191|280:191|268:125|268:125|287:112,1,107.999996704102,2|2,0:1|0:1,0:0:0:0:
189,276,1268,6,0,B|172:202|172:202|139:192,1,96,2|2,0:1|0:1,0:0:0:0:
353,331,2094,6,0,B|340:316|340:316|366:232,1,96,2|2,0:1|0:1,0:0:0:0:
256,192,2920,12,0,5121,0:0:0:0:
256,192,5398,6,0,B|201:180|192:216|136:201,1,120,2|2,3:2|0:0,0:0:0:0:
130,198,6223,2,0,P|127:150|154:101,1,96,2|2,3:2|0:0,0:0:0:0:
118,112,7599,1,2,0:0:0:0:
86,99,7875,1,2,0:0:0:0:
66,71,8150,1,2,0:0:0:0:
55,39,8425,2,0,P|54:16|60:2,1,35.9999989013672,2|2,0:0|0:0,0:0:0:0:
146,30,9801,6,0,P|179:40|276:45,1,120,2|2,3:2|0:0,0:0:0:0:
247,137,10627,2,0,P|214:127|117:122,1,120,2|2,3:2|0:0,0:0:0:0:
334,104,11453,2,0,P|359:80|389:40,1,84,2|0,0:0|0:0,0:0:0:0:
324,198,13654,6,0,B|333:215|333:215|327:233|327:233|337:250,2,60,2|2|2,0:1|0:1|0:1,0:0:0:0:
318,185,14205,6,0,B|373:173|382:209|438:194,1,120,2|2,3:2|0:0,0:0:0:0:
447,191,15031,2,0,P|452:150|427:104,1,96,2|2,3:2|0:0,0:0:0:0:
398,85,16407,1,2,0:0:0:0:
365,75,16682,1,2,0:0:0:0:
332,82,16957,1,2,0:0:0:0:
303,100,17232,1,2,0:0:0:0:
272,182,17508,6,0,B|276:197|262:215|262:215|256:193|268:178,1,72,2|0,0:0|0:0,0:0:0:0:
362,167,18609,6,0,P|347:221|336:302,1,120,2|2,3:2|0:0,0:0:0:0:
168,244,19434,2,0,P|182:189|193:108,1,120,2|2,3:2|0:0,0:0:0:0:
275,341,20260,2,0,P|240:320|199:321,1,84,2|0,0:0|0:0,0:0:0:0:
270,190,22462,6,0,B|262:207|262:207|269:225|269:225|259:242,2,60,2|2|2,0:1|0:1|0:1,0:0:0:0:
309,120,23012,2,2,B|287:96|287:96|260:107|260:107|205:79|123:79,1,180,2|0,3:2|0:0,0:1:0:0:
139,81,23563,1,2,0:0:0:0:
178,175,23838,6,0,P|179:228|155:261,1,96,2|2,3:2|0:0,0:0:0:0:
124,274,25214,1,2,0:0:0:0:
89,276,25489,1,2,0:0:0:0:
56,267,25764,1,2,0:0:0:0:
33,240,26040,1,2,0:0:0:0:
41,150,26315,6,0,B|37:134|51:117|51:117|57:139|45:154,1,72,2|2,0:0|0:0,0:0:0:0:
25,341,27416,6,0,P|82:345|142:362,1,120,2|0,3:2|0:0,0:0:0:0:
197,260,28242,2,0,P|107:260|20:238,1,180,2|2,3:2|0:0,0:0:0:0:
221,338,29618,5,2,0:0:0:0:
318,186,30031,5,2,0:0:0:0:
474,293,30443,5,2,0:0:0:0:
357,258,31269,6,0,B|339:270|339:270|321:263|321:263|304:271,2,60,2|2|2,0:1|0:1|0:1,0:0:0:0:
425,224,31820,2,2,B|449:246|449:246|438:273|438:273|466:328|466:405,1,161.999995056153,2|0,3:2|0:0,0:1:0:0:
466,380,32370,1,0,0:0:0:0:
382,348,32645,5,2,3:2:0:0:
349,338,32920,1,2,0:0:0:0:
315,336,33196,1,2,0:0:0:0:
282,346,33471,1,2,0:0:0:0:
256,367,33746,1,2,0:0:0:0:
304,208,35397,5,2,0:0:0:0:
244,144,35673,1,2,0:0:0:0:
224,228,35948,1,2,0:0:0:0:
256,192,36223,5,0,3:0:0:0:
256,192,38425,12,0,39526,0:0:0:0:
256,192,39801,6,0,L|260:164,2,24,2|2|2,0:0|0:0|0:0,0:0:0:0:
170,270,40627,6,0,P|251:277|323:304,1,150,4|2,3:2|0:0,0:0:0:0:
343,374,41040,1,0,0:0:0:0:
333,384,41177,2,0,P|291:378|232:340,1,75,8|0,0:0|0:0,0:0:0:0:
402,326,41453,5,2,0:0:0:0:
475,383,41590,1,0,0:0:0:0:
497,294,41728,2,0,P|499:255|509:218,1,75,0|0,3:0|0:0,0:0:0:0:
433,158,42003,2,0,P|430:195|420:232,1,75,2|0,0:0|0:0,0:0:0:0:
355,134,42278,2,0,P|420:131|505:107,1,150,10|2,0:0|0:0,0:0:0:0:
403,0,42691,5,0,0:0:0:0:
483,29,42829,2,0,P|417:31|332:55,1,150,0|2,3:0|0:0,0:0:0:0:
275,115,43242,1,0,0:0:0:0:
267,121,43379,2,0,P|226:122|187:133,1,75,8|0,0:0|0:0,0:0:0:0:
39,185,43654,5,2,0:0:0:0:
118,153,43792,1,0,0:0:0:0:
177,214,43930,2,0,P|144:229|107:235,1,75,0|0,3:0|0:0,0:0:0:0:
260,209,44205,6,0,L|249:285,1,75,2|0,0:0|0:0,0:0:0:0:
54,382,44480,2,0,L|65:308,1,75,10|0,0:0|0:0,0:0:0:0:
345,175,44755,2,0,P|349:256|379:359,1,150,2|0,0:0|3:0,0:0:0:0:
269,210,45168,5,0,0:0:0:0:
263,201,45306,2,0,P|252:159|249:123,1,75,2|0,0:0|0:0,0:0:0:0:
434,278,45581,2,0,P|432:236|420:200,1,75,10|0,0:0|0:0,0:0:0:0:
182,72,45856,2,0,P|257:93|336:101,1,150,2|0,0:0|3:0,0:0:0:0:
407,125,46269,1,0,0:0:0:0:
411,115,46407,2,0,P|449:55|507:-3,2,150,2|10|0,0:0|0:0|0:0,0:0:0:0:
286,254,47232,5,0,3:0:0:0:
276,259,47370,1,0,0:0:0:0:
267,265,47508,1,2,0:0:0:0:
258,272,47645,1,0,0:0:0:0:
184,343,47783,6,0,P|184:305|169:271,1,75,8|0,0:0|0:0,0:0:0:0:
391,244,48058,1,2,0:0:0:0:
381,250,48196,1,0,0:0:0:0:
372,257,48333,2,0,P|355:284|348:332,1,75,0|0,3:0|0:0,0:0:0:0:
216,207,48609,2,0,P|233:180|240:132,1,75
268,345,48884,2,0,P|278:270|335:169,1,150,8|2,0:0|3:2,0:0:0:0:
387,89,49297,5,0,0:0:0:0:
447,137,49434,2,0,P|417:163|361:162,1,75,4|0,3:2|0:0,0:0:0:0:
316,128,49709,2,0,P|308:88|336:41,1,75,2|0,0:0|0:0,0:0:0:0:
394,11,49985,2,0,P|428:23|459:71,1,75,10|0,0:0|0:0,0:0:0:0:
449,218,50260,5,2,0:0:0:0:
449,218,50397,1,0,0:0:0:0:
449,218,50535,2,0,P|459:250|461:294,1,75,0|0,3:0|0:0,0:0:0:0:
373,247,50810,2,0,P|365:280|345:319,1,75
246,262,51086,2,0,P|280:239|304:214,1,75,8|0,0:0|0:0,0:0:0:0:
266,347,51361,5,2,0:0:0:0:
168,278,51498,1,2,0:0:0:0:
271,342,51636,2,0,P|233:344|183:357,1,81.0000003089905,2|0,3:2|0:0,0:0:0:0:
112,340,51911,2,0,P|78:316|41:300,1,81.0000003089905,2|0,0:0|0:0,0:0:0:0:
247,105,52186,2,0,P|235:145|229:187,1,75,10|0,0:0|0:0,0:0:0:0:
238,256,52462,2,0,P|169:274|103:187,1,150,2|0,0:0|3:0,0:0:0:0:
152,142,52875,5,8,0:0:0:0:
75,135,53012,2,0,P|115:147|157:153,1,75,2|0,0:0|0:0,0:0:0:0:
311,57,53287,2,0,P|351:45|393:39,1,75,10|0,0:0|0:0,0:0:0:0:
249,228,53563,6,0,P|248:176|286:145,1,82.5000007867813,2|0,0:0|0:0,0:0:0:0:
420,172,53838,2,0,P|429:211|412:247,1,82.5000007867813,6|0,3:2|0:0,0:0:0:0:
226,308,54113,2,0,P|189:292|172:256,1,82.5000007867813,2|0,0:0|0:0,0:0:0:0:
406,332,54388,2,0,P|446:330|476:302,1,82.5000007867813,10|0,0:0|0:0,0:0:0:0:
349,122,54664,2,0,L|318:308,1,165.000001573563,2|0,0:0|3:0,0:0:0:0:
266,150,55076,5,0,0:0:0:0:
266,138,55214,2,0,P|252:99|227:66,1,82.5000007867813,2|0,0:0|0:0,0:0:0:0:
488,122,55489,2,0,P|453:145|428:177,1,82.5000007867813,14|0,0:0|0:0,0:0:0:0:
333,287,55764,5,2,0:0:0:0:
252,319,55902,1,0,0:0:0:0:
168,311,56040,2,0,B|250:333|321:374,1,165.000001573563,4|2,3:2|0:0,0:0:0:0:
401,340,56453,5,0,0:0:0:0:
322,280,56590,1,14,0:0:0:0:
247,240,56728,1,0,0:0:0:0:
176,233,56865,1,2,0:0:0:0:
120,237,57003,1,0,0:0:0:0:
94,245,57141,5,4,3:2:0:0:
143,166,57278,1,0,3:0:0:0:
79,253,57416,2,0,P|59:206|3:151,1,82.5000007867813,2|0,3:2|0:0,0:0:0:0:
237,131,57691,2,0,L|38:168,1,198.000001888275,6|2,3:2|3:2,0:0:0:0:
279,42,58104,5,0,0:0:0:0:
371,46,58242,2,0,P|343:115|330:189,1,150,4|2,3:2|0:0,0:0:0:0:
412,213,58654,1,0,0:0:0:0:
412,213,58792,2,0,P|432:164|450:64,1,150,8|2,0:0|0:0,0:0:0:0:
306,279,59205,1,0,0:0:0:0:
383,292,59342,2,0,P|352:273|315:273,1,75,0|0,3:0|0:0,0:0:0:0:
494,256,59618,6,0,P|475:274|466:332,1,75,2|0,0:0|0:0,0:0:0:0:
212,331,59893,2,0,P|248:341|274:368,1,75,10|0,0:0|0:0,0:0:0:0:
373,367,60168,2,0,P|347:273|334:138,1,180.000006866455,2|0,0:0|3:0,0:0:0:0:
250,176,60581,1,0,0:0:0:0:
255,167,60719,2,0,P|266:130|270:82,1,75,2|0,0:0|0:0,0:0:0:0:
410,155,60994,2,0,P|392:120|379:74,1,75,8|0,0:0|0:0,0:0:0:0:
400,5,61269,5,2,0:0:0:0:
241,16,61407,1,0,0:0:0:0:
323,36,61544,5,0,3:0:0:0:
389,83,61682,1,0,0:0:0:0:
462,58,61820,2,0,P|476:35|511:25,1,60,2|0,0:0|0:0,0:0:0:0:
185,98,62095,2,0,P|163:81|127:83,1,60,10|0,0:0|0:0,0:0:0:0:
368,371,62370,2,0,P|358:281|337:194,1,180.000006866455,6|0,0:0|3:2,0:0:0:0:
75,339,62920,6,0,L|166:355,1,90.0000034332277,6|0,0:0|0:0,0:0:0:0:
244,192,63196,2,0,L|155:176,1,90.0000034332277,10|0,0:0|0:0,0:0:0:0:
69,249,63471,2,0,L|306:290,1,180.000006866455,6|0,0:0|3:0,0:0:0:0:
32,52,64021,6,0,P|42:96|49:141,1,90.0000034332277,2|0,0:0|0:0,0:0:0:0:
194,93,64297,2,0,P|169:130|148:170,1,90.0000034332277,10|0,0:0|0:0,0:0:0:0:
29,321,64572,6,0,P|61:284|75:241,1,90.0000034332277,2|0,0:0|0:0,0:0:0:0:
399,302,64847,2,0,P|351:258|330:132,2,180.000006866455,6|2|8,3:2|0:0|0:0,0:0:0:0:
407,307,65535,5,0,0:0:0:0:
445,231,65673,1,2,0:0:0:0:
403,154,65810,1,0,0:0:0:0:
467,72,65948,2,0,P|437:71|365:46,1,90.0000034332277,0|0,3:0|3:0,0:0:0:0:
188,110,66223,2,0,P|214:99|275:51,1,90.0000034332277,2|0,0:0|3:0,0:0:0:0:
315,7,66498,5,8,3:2:0:0:
185,28,66636,1,0,3:0:0:0:
283,144,66774,1,0,3:0:0:0:
263,68,66911,5,0,3:0:0:0:
206,202,67049,2,0,P|261:183|338:229,1,150,4|0,3:2|0:0,0:0:0:0:
299,300,67462,1,0,0:0:0:0:
294,293,67599,2,0,P|259:298|216:274,1,75,8|0,0:0|0:0,0:0:0:0:
135,384,67875,2,0,P|151:352|143:304,1,75,2|0,0:0|0:0,0:0:0:0:
132,235,68150,6,0,B|125:204|125:204|127:196|127:196|118:161,1,75,2|0,3:2|0:0,0:0:0:0:
56,255,68425,2,0,B|49:224|49:224|44:217|44:217|36:182,1,75,2|0,0:2|0:0,0:0:0:0:
216,271,68700,6,0,P|246:235|289:202,1,83.9999974365235,10|0,0:0|0:0,0:0:0:0:
274,326,68975,2,0,P|305:298|332:266,1,83.9999974365235,2|0,0:0|0:0,0:0:0:0:
161,82,69251,6,0,P|183:114|305:115,1,150,6|0,3:2|0:0,0:0:0:0:
423,79,69664,1,0,0:0:0:0:
414,82,69801,2,0,P|374:76|331:65,1,75,10|0,0:0|0:0,0:0:0:0:
164,4,70076,5,2,0:0:0:0:
243,53,70214,1,0,0:0:0:0:
279,135,70352,2,0,P|241:140|205:150,1,75,0|0,3:0|0:0,0:0:0:0:
240,311,70627,2,0,P|277:307|313:298,1,75,2|0,0:0|0:0,0:0:0:0:
410,296,70902,6,0,P|360:224|273:221,1,180.000006866455,8|6,0:0|0:0,0:0:0:0:
13,40,71453,2,0,L|205:4,1,150,6|0,3:2|0:0,0:0:0:0:
177,87,71865,5,0,0:0:0:0:
177,98,72003,2,0,P|180:136|195:192,1,75,10|0,0:0|0:0,0:0:0:0:
257,223,72278,1,2,0:0:0:0:
241,303,72416,1,0,0:0:0:0:
154,327,72553,2,0,P|163:293|167:254,1,75,4|0,3:2|0:0,0:0:0:0:
102,192,72829,2,0,P|94:153|75:99,1,75,2|0,0:0|0:0,0:0:0:0:
83,275,73104,5,10,0:0:0:0:
406,94,73379,2,0,L|420:9,1,75
317,149,73654,6,0,P|318:112|293:67,1,75,0|0,3:0|0:0,0:0:0:0:
377,265,73930,2,0,L|392:175,1,90.0000034332277,4|0,0:0|0:0,0:0:0:0:
475,170,74205,2,0,P|486:134|525:101,1,75,0|0,3:0|0:0,0:0:0:0:
400,346,74480,2,0,B|363:351|363:351|330:332,1,75,4|0,0:0|0:0,0:0:0:0:
393,169,74755,5,4,3:2:0:0:
411,79,74893,1,0,3:0:0:0:
391,179,75031,5,4,3:2:0:0:
412,71,75168,1,0,3:0:0:0:
389,188,75306,5,4,3:2:0:0:
387,195,75856,6,0,B|376:277|323:234|310:320,1,150,6|0,3:2|0:0,0:0:0:0:
308,323,76269,2,0,B|333:241|275:248|303:172,1,138.000002632141,2|0,0:3|0:0,0:0:0:0:
223,253,76682,2,0,P|218:283|226:312,1,60,2|0,0:0|0:0,0:0:0:0:
185,152,76957,1,2,3:2:0:0:
187,160,77095,2,0,P|158:211|87:257,1,120
28,243,77508,6,0,B|17:205|17:205|20:244,1,75,2|0,3:1|0:0,0:0:0:0:
47,331,77783,2,0,B|57:365|57:365|56:326,1,75,2|0,3:1|0:0,0:0:0:0:
111,258,78058,6,0,L|183:238,1,75,0|0,3:0|0:0,0:0:0:0:
361,237,78333,1,2,0:3:0:0:
365,229,78471,2,0,B|378:203|378:203|353:152,1,60,2|0,0:3|3:0,0:0:0:0:
271,227,78746,1,2,0:3:0:0:
267,219,78884,2,0,B|257:191|257:191|291:145,1,60,2|0,0:3|0:0,0:0:0:0:
393,42,79159,6,0,B|389:72|389:72|367:92,1,60,2|2,3:3|0:3,0:0:0:0:
288,86,79434,2,0,B|269:63|269:63|264:33,1,60,2|0,0:3|0:0,0:0:0:0:
456,106,79709,2,0,P|475:117|500:156,1,60,2|0,3:3|0:0,0:0:0:0:
194,90,79985,2,0,P|175:101|150:140,1,60,2|0,0:0|0:0,0:0:0:0:
352,305,80260,6,0,B|369:223|304:245|321:159,1,150,6|0,3:2|0:0,0:0:0:0:
326,156,80673,2,0,B|327:238|268:205|270:288,1,138.000002632141,2|0,0:3|0:0,0:0:0:0:
207,326,81086,2,0,P|222:346|268:359,1,60,2|0,0:0|0:0,0:0:0:0:
197,246,81361,1,2,3:2:0:0:
185,247,81498,2,0,P|128:227|69:233,1,120
116,308,81911,6,0,B|114:346|114:346|130:294,1,75,2|0,3:1|0:0,0:0:0:0:
139,181,82186,2,0,B|140:143|140:143|123:195,1,75,2|0,0:1|0:0,0:0:0:0:
201,250,82462,6,0,L|274:265,1,75,0|0,3:0|0:0,0:0:0:0:
425,260,82737,1,2,0:3:0:0:
418,254,82875,2,0,B|392:240|392:240|361:242,1,60,2|0,0:3|3:0,0:0:0:0:
339,325,83150,1,2,0:3:0:0:
348,330,83288,2,0,B|371:344|371:344|404:341,1,60,2|0,0:3|3:0,0:0:0:0:
188,169,83563,6,0,P|183:129|172:90,1,75,6|2,3:2|0:3,0:0:0:0:
335,116,83838,2,0,P|314:149|302:188,1,75,2|4,3:3|3:2,0:0:0:0:
256,94,84113,5,6,3:2:0:0:
262,76,84251,1,0,3:0:0:0:
272,63,84388,1,4,3:2:0:0:
286,52,84526,1,4,3:0:0:0:
303,43,84664,6,0,B|369:12|366:63|441:25,1,143.999995605469,6|0,3:2|0:0,0:0:0:0:
452,30,85076,6,0,B|388:58|427:88|352:121,1,138.000002632141,2|0,0:3|0:0,0:0:0:0:
353,130,85489,2,0,P|383:154|401:198,1,75,2|0,0:0|0:0,0:0:0:0:
463,34,85764,1,2,3:2:0:0:
473,32,85902,2,0,P|457:92|472:152,1,125.999996154785
464,233,86315,6,0,B|499:247|499:247|448:240,1,75,2|0,3:1|0:0,0:0:0:0:
324,221,86590,2,0,B|286:212|286:212|337:210,1,75,2|0,0:1|0:0,0:0:0:0:
377,371,86865,6,0,L|387:281,1,75,0|0,3:0|0:0,0:0:0:0:
304,309,87141,1,2,0:3:0:0:
304,309,87278,2,0,B|287:333|287:333|298:382,1,60,2|0,0:3|3:0,0:0:0:0:
459,379,87553,1,2,0:3:0:0:
459,379,87690,2,0,B|471:351|471:351|451:305,1,60,2|0,0:3|0:0,0:0:0:0:
298,190,87966,6,0,B|308:217|308:217|355:236,1,60,2|2,3:3|0:3,0:0:0:0:
487,208,88242,2,0,B|471:233|471:233|422:244,1,60,2|0,0:3|0:0,0:0:0:0:
377,371,88517,2,0,L|383:312,1,60,2|0,3:3|0:0,0:0:0:0:
397,158,88792,2,0,L|402:98,1,60,2|0,0:0|0:0,0:0:0:0:
357,29,89067,6,0,B|428:-13|429:54|499:9,1,150,6|0,3:2|0:0,0:0:0:0:
495,0,89480,2,0,B|444:50|508:69|478:135,1,138.000002632141,2|0,0:3|0:0,0:0:0:0:
477,123,89893,2,0,P|447:106|407:93,1,75,2|0,0:0|0:0,0:0:0:0:
329,115,90168,1,2,3:2:0:0:
334,122,90306,2,0,P|357:202|352:291,1,120
326,109,90719,6,0,B|305:72|305:72|326:121,1,75,2|0,3:1|0:0,0:0:0:0:
359,248,90994,2,0,B|347:287|347:287|367:239,1,75,2|0,3:1|0:0,0:0:0:0:
206,211,91269,6,0,L|279:199,1,75,0|0,3:0|0:0,0:0:0:0:
142,167,91544,1,2,0:3:0:0:
145,158,91682,2,0,B|158:131|158:131|215:122,1,60,2|0,0:3|3:0,0:0:0:0:
155,276,91957,1,2,0:3:0:0:
161,283,92095,2,0,B|182:303|182:303|238:292,1,60,2|0,0:3|0:0,0:0:0:0:
88,232,92370,5,4,3:2:0:0:
64,233,92508,1,0,3:0:0:0:
42,241,92645,1,2,3:3:0:0:
24,256,92783,1,6,3:2:0:0:
69,384,92920,5,6,3:2:0:0:
81,362,93058,1,0,3:0:0:0:
85,339,93195,1,4,3:2:0:0:
81,316,93333,1,4,3:0:0:0:
0,179,93471,5,6,0:0:0:0:
