osu file format v14

[General]
AudioFilename: audio.mp3
AudioLeadIn: 0
PreviewTime: 39664
Countdown: 0
SampleSet: Soft
StackLeniency: 0.5
Mode: 0
LetterboxInBreaks: 0
WidescreenStoryboard: 1

[Editor]
Bookmarks: 13614,22422,31229,40587,49394,58202,65908,73614,75816,93431
DistanceSpacing: 1.4
BeatDivisor: 8
GridSize: 4
TimelineZoom: 2

[Metadata]
Title:Naraku no Hana (TV Size)
TitleUnicode:奈落の花 (TV Size)
Artist:Shimamiya Eiko
ArtistUnicode:島みやえい子
Creator:discode
Version:SHOGUN's Insane
Source:ひぐらしのなく頃に解
Tags:07th expansion when they cry wtc cicadas higurashi no naku koro ni kai 2nd season 2 two op opening short ver version anime japanese jpop j-pop pop SHOGUNMOON00999 [[Pause]] Lunicia Houtaro Subahibi kleune Phynta fooders kyrie irving nik nikolomara bbj0920 _todestrieb awayuru isome itscactus azamaki
BeatmapID:3503690
BeatmapSetID:1713658

[Difficulty]
HPDrainRate:5
CircleSize:4
OverallDifficulty:8
ApproachRate:8
SliderMultiplier:1.6
SliderTickRate:1

[Events]
//Background and Video events
Video,749,"Higurashi no Naku Koro ni Kai NCOP_Trim (no audio).mp4"
0,0,"cover (2) (1).jpg",0,0
//Break Periods
//Storyboard Layer 0 (Background)
//Storyboard Layer 1 (Fail)
//Storyboard Layer 2 (Pass)
//Storyboard Layer 3 (Foreground)
//Storyboard Layer 4 (Overlay)
//Storyboard Sound Samples

[TimingPoints]
443,550.45871559633,4,2,1,60,1,0
443,-66.6666666666667,4,2,1,60,0,0
1268,-66.6666666666667,4,2,1,40,0,0
2094,-66.6666666666667,4,2,1,20,0,0
5398,550.45871559633,4,2,2,30,1,0
5432,-100,4,2,2,30,0,0
5948,-100,4,2,1,30,0,0
8425,-500,4,2,1,30,0,0
9801,-100,4,2,1,30,0,0
11453,-1000,4,2,1,30,0,0
13654,-16.6666666666667,4,2,1,30,0,0
14205,-100,4,2,2,30,0,0
14239,-100,4,2,1,30,0,0
14755,-100,4,2,1,30,0,0
18333,-100,4,2,1,5,0,0
18609,-100,4,2,1,30,0,0
20260,-1000,4,2,1,30,0,0
22462,-16.6666666666667,4,2,1,30,0,0
23012,-50,4,2,2,30,0,0
23047,-50,4,2,1,30,0,0
23425,-50,4,2,1,5,0,0
23563,-50,4,2,1,30,0,0
23838,-100,4,2,1,30,0,0
31269,-16.6666666666667,4,2,1,30,0,0
31820,-50,4,2,2,30,0,0
31854,-50,4,2,1,30,0,0
32232,-50,4,2,1,5,0,0
32370,-50,4,2,1,30,0,0
36223,-100,4,2,1,30,0,0
38425,-33.3333333333333,4,2,1,30,0,0
39251,-50,4,2,1,30,0,0
39801,-1000,4,2,1,45,0,0
40627,-33.3333333333333,4,2,1,75,0,0
41453,-50,4,2,1,75,0,0
42003,-100,4,2,1,75,0,0
42278,-66.6666666666667,4,2,1,75,0,0
42553,-50,4,2,1,75,0,0
42829,-33.3333333333333,4,2,1,75,0,0
45994,-100,4,2,1,75,0,0
46407,-33.3333333333333,4,2,1,75,0,0
46957,-50,4,2,1,75,0,0
48609,-33.3333333333333,4,2,1,75,0,0
48884,-33.3333333333333,4,2,1,75,0,0
49709,-100,4,2,1,75,0,0
49985,-50,4,2,1,75,0,0
54113,-33.3333333333333,4,2,1,75,0,0
54801,-50,4,2,1,75,0,0
55489,-40,4,2,1,75,0,0
55764,-33.3333333333333,4,2,1,75,0,0
56590,-50,4,2,1,75,0,0
57416,-50,4,2,1,75,0,0
57691,-33.3333333333333,4,2,1,75,0,0
58242,-33.3333333333333,4,2,1,75,0,0
59205,-50,4,2,1,75,0,0
59618,-100,4,2,1,75,0,0
59893,-66.6666666666667,4,2,1,75,0,0
60168,-50,4,2,1,75,0,0
60443,-40,4,2,1,75,0,0
62370,-33.3333333333333,4,2,1,75,0,0
63471,-50,4,2,1,75,0,0
64297,-33.3333333333333,4,2,1,75,0,0
67599,-50,4,2,1,75,0,0
68150,-66.6666666666667,4,2,1,75,0,0
68425,-50,4,2,1,75,0,0
68700,-40,4,2,1,75,0,0
68975,-33.3333333333333,4,2,1,75,0,0
69251,-100,4,2,1,75,0,0
70627,-50,4,2,1,75,0,0
71177,-33.3333333333333,4,2,1,75,0,0
71453,-133.333333333333,4,2,1,75,0,0
72553,-33.3333333333333,4,2,1,75,0,0
75306,-33.3333333333333,4,2,1,45,0,0
75856,-50,4,2,1,50,0,0

[Colours]
Combo1 : 207,201,148
Combo2 : 164,164,210
Combo3 : 225,91,95
Combo4 : 143,203,172

[HitObjects]
204,71,443,6,0,B|251:56|251:56|256:59|256:59|262:56|262:56|315:77,1,120.000004577637,2|2,0:1|0:1,0:0:0:0:
6,193,1268,6,0,B|43:162|43:162|43:167|43:167|50:170|50:170|28:235,1,120.000004577637,2|2,0:1|0:1,0:0:0:0:
506,193,2094,6,0,B|469:162|469:162|469:167|469:167|462:170|462:170|484:235,1,120.000004577637,2|2,0:1|0:1,0:0:0:0:
90,355,2920,6,0,B|130:342|130:342|119:338|119:338|127:331|127:331|118:327|118:327|170:308,1,120.000004577637
375,383,3745,6,0,B|335:370|335:370|346:366|346:366|338:359|338:359|347:355|347:355|280:334|280:334|293:326|293:326|279:316|279:316|295:302|295:302|233:285|233:285|245:275|245:275|236:257|236:257|246:244|246:244|156:221|156:221|171:210|171:210|162:195|162:195|181:177|181:177|41:146|41:146,1,600.000022888184
17,80,5398,6,0,P|49:43|151:70,1,160,2|2,3:2|0:0,0:0:0:0:
212,16,6223,2,0,P|179:84|287:27,1,320,2|2,3:2|0:0,0:0:0:0:
287,27,7599,1,2,0:0:0:0:
256,99,7875,1,2,0:0:0:0:
291,167,8150,1,2,0:0:0:0:
249,233,8425,2,0,L|241:297,1,64,2|2,0:0|0:0,0:0:0:0:
332,377,9801,5,2,3:2:0:0:
332,377,10076,2,0,P|362:347|406:335,1,80,0|2,0:0|0:0,0:0:0:0:
497,357,10627,2,0,P|494:296|448:199,1,160,2|2,3:2|0:0,0:0:0:0:
396,255,11453,2,0,P|362:252|343:243,1,56,2|0,0:0|0:0,0:0:0:0:
489,69,13654,6,0,B|434:38|434:38|429:-18|429:-18|444:38|444:38|407:86,2,240.000009155274,2|0|0,0:1|0:0|0:0,0:0:0:0:
488,68,14205,6,0,P|392:72|325:118,1,160,2|2,3:2|0:0,0:0:0:0:
190,101,15031,2,0,P|249:15|243:144,1,320,2|2,3:2|0:0,0:0:0:0:
256,144,16407,1,2,0:0:0:0:
228,234,16682,1,2,0:0:0:0:
311,271,16957,1,2,0:0:0:0:
333,370,17232,1,2,0:0:0:0:
84,384,17508,5,2,0:0:0:0:
14,325,18609,5,2,3:2:0:0:
84,384,18884,2,0,P|97:329|127:285,1,80,0|2,0:0|0:0,0:0:0:0:
0,217,19434,2,0,P|74:235|143:182,1,160,2|2,3:2|0:0,0:0:0:0:
206,225,20260,2,0,L|255:217,1,48,2|0,0:0|0:0,0:0:0:0:
25,119,22462,6,0,B|48:62|48:62|105:47|105:47|52:71|52:71|0:39,2,240.000009155274,2|0|0,0:1|0:0|0:0,0:0:0:0:
0,39,23012,6,0,B|17:68|17:68|124:114,1,120,2|0,3:2|0:0,0:0:0:0:
169,137,23287,2,0,B|196:51|196:51|223:34,1,120
221,35,23563,1,2,0:0:0:0:
276,178,23838,2,0,P|219:171|42:219,1,240,2|0,3:2|0:0,0:0:0:0:
133,260,24939,5,2,0:0:0:0:
141,341,25214,1,2,0:0:0:0:
63,313,25489,1,2,0:0:0:0:
210,296,25764,1,2,0:0:0:0:
326,370,26040,1,2,0:0:0:0:
497,172,26315,6,0,P|426:194|513:203,1,240,2|2,0:0|0:0,0:0:0:0:
512,346,27416,6,0,P|447:330|342:278,1,160,2|0,3:2|0:0,0:0:0:0:
145,263,28242,2,0,P|210:247|315:195,1,160,2|0,3:2|0:0,0:0:0:0:
338,137,29067,2,0,B|367:130|356:67|349:66|307:105|327:135,1,120,2|0,0:0|0:0,0:0:0:0:
412,182,29618,5,2,0:0:0:0:
256,33,30031,5,0,0:0:0:0:
100,182,30443,5,2,0:0:0:0:
100,182,31269,6,0,B|45:151|45:151|40:94|40:94|55:151|55:151|18:199,2,240.000009155274,2|0|0,0:1|0:0|0:0,0:0:0:0:
134,372,31820,6,0,B|224:351|224:351|239:319,1,120,2|0,3:2|0:0,0:0:0:0:
306,354,32095,2,0,B|344:243|344:243|401:229,1,160
504,212,32645,5,2,3:2:0:0:
426,155,32920,1,2,0:0:0:0:
342,128,33196,1,2,0:0:0:0:
251,135,33471,1,2,0:0:0:0:
171,166,33746,1,2,0:0:0:0:
171,166,35397,5,2,0:0:0:0:
224,222,35673,1,2,0:0:0:0:
204,296,35948,1,2,0:0:0:0:
283,384,36223,6,0,P|351:349|437:351,1,160,0|0,3:0|0:0,0:0:0:0:
496,304,37049,2,0,P|461:246|469:151,1,160,0|0,3:0|0:0,0:0:0:0:
509,0,38425,6,0,B|472:7|472:7|480:7|480:7|448:13|448:13|459:13|459:13|424:19|424:19|436:20|436:20|402:25|402:25|415:26|415:26|379:32|379:32|389:33|389:33|356:38|356:38|367:38|367:38|330:45|330:45|282:9,1,360.000013732911
228,279,38975,2,0,B|265:144|265:144|301:122,1,180.000006866455
231,69,39251,2,0,B|206:44|206:44|74:18,1,160
384,271,39801,6,0,L|385:264,2,8,2|2|2,0:0|0:0|0:0,0:0:0:0:
423,372,40627,5,4,3:2:0:0:
474,317,40764,1,0,0:0:0:0:
454,240,40902,2,0,B|299:208|299:208|267:171,1,180.000006866455,2|0,0:0|0:0,0:0:0:0:
220,232,41177,2,0,P|152:242|109:284,1,120.000004577637,8|0,0:0|0:0,0:0:0:0:
5,61,41453,1,2,0:0:0:0:
78,39,41590,1,0,0:0:0:0:
60,111,41728,2,0,B|73:194|73:194|41:241,1,120,0|0,3:0|0:0,0:0:0:0:
36,303,42003,6,0,P|19:329|14:345,1,40,2|0,0:0|0:0,0:0:0:0:
112,333,42278,6,0,P|109:303|114:274,1,60.0000022888184,10|0,0:0|0:0,0:0:0:0:
198,228,42553,6,0,P|203:288|216:330,1,80,2|0,0:0|0:0,0:0:0:0:
310,368,42829,6,0,P|385:332|492:342,1,180.000006866455,0|0,3:0|0:0,0:0:0:0:
500,263,43104,2,0,P|444:166|456:99,1,180.000006866455,2|0,0:0|0:0,0:0:0:0:
512,55,43379,2,0,P|454:11|424:36,1,120.000004577637,8|0,0:0|0:0,0:0:0:0:
368,97,43654,5,2,0:0:0:0:
356,127,43792,1,0,0:0:0:0:
277,52,43930,5,0,3:0:0:0:
243,122,44067,1,0,0:0:0:0:
193,0,44205,5,2,0:0:0:0:
120,65,44342,1,0,0:0:0:0:
25,28,44480,6,0,P|71:84|81:135,1,120.000004577637,10|0,0:0|0:0,0:0:0:0:
9,314,44755,2,0,P|57:272|76:217,1,120.000004577637,2|0,0:0|0:0,0:0:0:0:
14,172,45031,5,0,3:0:0:0:
313,223,45306,2,0,B|361:231|361:231|371:310|289:354,1,180.000006866455,2|0,0:0|0:0,0:0:0:0:
204,363,45581,2,0,B|224:270|293:313|303:198,1,180.000006866455,10|0,0:0|0:0,0:0:0:0:
220,213,45856,5,2,0:0:0:0:
206,137,45994,2,0,P|203:117|200:97,1,40,0|0,0:0|3:0,0:0:0:0:
123,318,46269,5,0,0:0:0:0:
129,330,46407,2,0,P|207:325|312:361,1,180.000006866455,2|0,0:0|0:0,0:0:0:0:
379,374,46682,2,0,P|371:304|329:283,1,120.000004577637,10|0,0:0|0:0,0:0:0:0:
495,246,46957,2,0,P|481:301|464:317,1,80
465,315,47232,5,0,3:0:0:0:
418,230,47370,1,0,0:0:0:0:
463,149,47508,1,2,0:0:0:0:
453,160,47645,1,0,0:0:0:0:
425,60,47783,1,8,0:0:0:0:
208,157,48058,5,2,0:0:0:0:
145,102,48196,1,0,0:0:0:0:
186,235,48333,1,0,3:0:0:0:
125,178,48471,1,0,0:0:0:0:
26,133,48609,6,0,B|35:94|35:94|129:94|126:197,1,180.000006866455
53,206,48884,2,0,P|71:244|80:329,1,120.000004577637,8|0,0:0|0:0,0:0:0:0:
208,157,49159,2,0,P|232:80|230:30,1,120.000004577637,2|0,3:2|0:0,0:0:0:0:
227,371,49434,5,4,3:2:0:0:
496,320,49709,2,0,L|486:374,1,40,2|0,0:0|0:0,0:0:0:0:
403,383,49985,2,0,P|397:290|355:222,1,160,10|2,0:0|0:0,0:0:0:0:
364,233,50397,1,0,0:0:0:0:
480,137,50535,1,0,3:0:0:0:
412,173,50673,1,0,0:0:0:0:
511,205,50810,1,0,0:0:0:0:
306,317,51086,6,0,B|272:341|272:341|227:325,1,80,8|0,0:0|0:0,0:0:0:0:
82,277,51361,1,2,0:0:0:0:
113,204,51498,1,2,0:0:0:0:
98,287,51636,2,0,P|106:336|108:366,1,80,2|0,3:2|0:0,0:0:0:0:
33,215,51911,2,0,P|21:167|10:135,1,80,2|0,0:0|0:0,0:0:0:0:
182,262,52186,2,0,P|226:243|271:233,1,80,10|0,0:0|0:0,0:0:0:0:
322,140,52462,5,2,0:0:0:0:
394,159,52599,1,0,0:0:0:0:
452,109,52737,2,0,P|476:56|479:24,1,80,0|8,3:0|0:0,0:0:0:0:
467,192,53012,2,0,P|488:241|489:268,1,80,2|0,0:0|0:0,0:0:0:0:
401,11,53287,1,10,0:0:0:0:
115,102,53563,6,0,P|78:75|71:38,1,80,2|0,0:0|0:0,0:0:0:0:
193,83,53838,2,0,P|210:35|196:5,1,80,6|0,3:2|0:0,0:0:0:0:
6,160,54113,2,0,P|56:190|114:182,1,120.000004577637,2|0,0:0|0:0,0:0:0:0:
310,84,54388,2,0,P|279:134|224:156,1,120.000004577637,10|0,0:0|0:0,0:0:0:0:
73,338,54664,5,2,0:0:0:0:
73,338,54801,2,0,P|139:332|229:372,1,160
301,378,55214,2,0,P|291:325|266:303,1,80,2|0,0:0|0:0,0:0:0:0:
329,243,55489,2,0,P|267:224|225:237,1,100,14|0,0:0|0:0,0:0:0:0:
218,132,55764,2,0,P|156:176|141:227,1,120.000004577637,2|0,0:0|0:0,0:0:0:0:
0,25,56040,5,4,3:2:0:0:
82,0,56177,1,0,0:0:0:0:
147,58,56315,1,2,0:0:0:0:
512,223,56590,2,0,B|387:243|387:243|361:284,1,160,14|2,0:0|0:0,0:0:0:0:
437,312,57003,1,0,0:0:0:0:
478,384,57141,1,4,3:2:0:0:
348,346,57278,1,0,3:0:0:0:
306,212,57416,2,0,L|295:127,1,80,2|0,3:2|0:0,0:0:0:0:
431,11,57691,6,0,L|406:141,1,120.000004577637,6|0,3:2|0:0,0:0:0:0:
207,258,57966,2,0,L|166:140,1,120.000004577637,2|0,3:2|0:0,0:0:0:0:
0,88,58242,6,0,P|84:139|262:-39,1,360.000013732911,4|0,3:2|0:0,0:0:0:0:
76,31,58792,2,0,P|156:94|155:4,1,240.000009155274,8|2,0:0|0:0,0:0:0:0:
326,130,59205,1,0,0:0:0:0:
316,125,59342,2,0,P|279:164|298:248,1,120,0|0,3:0|0:0,0:0:0:0:
280,243,59618,6,0,P|297:269|301:285,1,40,2|0,0:0|0:0,0:0:0:0:
375,313,59893,6,0,P|392:269|389:241,1,60.0000022888184,10|0,0:0|0:0,0:0:0:0:
497,312,60168,6,0,P|463:361|429:383,1,80,2|0,0:0|0:0,0:0:0:0:
244,356,60443,6,0,B|121:331|121:331|107:293,1,150,0|0,3:0|0:0,0:0:0:0:
40,343,60719,1,2,0:0:0:0:
73,237,60856,1,0,0:0:0:0:
178,200,60994,2,0,B|191:129|191:129|181:95,1,100,8|0,0:0|0:0,0:0:0:0:
67,18,61269,5,2,0:0:0:0:
3,64,61407,1,0,0:0:0:0:
0,74,61544,1,0,3:0:0:0:
77,28,61682,1,0,0:0:0:0:
154,30,61820,2,0,P|209:23|249:54,1,100,2|0,0:0|0:0,0:0:0:0:
61,130,62095,2,0,P|49:193|79:230,1,100,10|0,0:0|0:0,0:0:0:0:
232,1,62370,6,0,P|185:59|192:132,1,120.000004577637,6|0,0:0|0:0,0:0:0:0:
210,306,62645,1,0,3:2:0:0:
322,120,62920,6,0,P|383:172|502:147,1,180.000006866455,6|0,0:0|0:0,0:0:0:0:
490,168,63196,2,0,P|499:102|460:65,1,120.000004577637,10|0,0:0|0:0,0:0:0:0:
325,44,63471,2,0,P|370:21|414:23,1,80,6|0,0:0|0:0,0:0:0:0:
406,135,63746,1,0,3:0:0:0:
406,135,64021,6,0,P|400:194|370:215,1,80,2|0,0:0|0:0,0:0:0:0:
222,280,64297,2,0,P|162:236|158:191,1,120.000004577637,10|0,0:0|0:0,0:0:0:0:
208,13,64572,2,0,P|275:-17|316:2,1,120.000004577637,2|0,0:0|0:0,0:0:0:0:
500,288,64847,6,0,P|419:258|317:249,1,180.000006866455,6|0,3:2|0:0,0:0:0:0:
303,155,65122,2,0,P|222:125|120:116,1,180.000006866455,2|0,0:0|0:0,0:0:0:0:
129,116,65397,1,8,0:0:0:0:
12,324,65673,5,2,0:0:0:0:
49,257,65810,1,0,0:0:0:0:
85,363,65948,1,0,3:0:0:0:
160,373,66086,1,0,3:0:0:0:
230,333,66223,1,2,0:0:0:0:
256,255,66361,1,0,3:0:0:0:
185,200,66498,5,8,3:2:0:0:
266,174,66636,1,0,3:0:0:0:
349,113,66774,5,0,3:0:0:0:
231,78,66911,1,0,3:0:0:0:
260,0,67049,6,0,L|260:140,2,120.000004577637,4|0|0,3:2|0:0|0:0,0:0:0:0:
506,114,67599,6,0,P|477:192|482:277,1,160,8|2,0:0|0:0,0:0:0:0:
479,267,68012,1,0,0:0:0:0:
503,348,68150,2,0,P|465:348|440:333,1,60.0000022888184,2|0,3:2|0:0,0:0:0:0:
374,363,68425,2,0,P|339:331|328:289,1,80,2|0,0:2|0:0,0:0:0:0:
222,318,68700,2,0,P|213:254|222:212,1,100,10|0,0:0|0:0,0:0:0:0:
85,220,68975,2,0,P|117:135|147:96,1,120.000004577637,2|0,0:0|0:0,0:0:0:0:
16,68,69251,6,0,P|24:28|-5:-4,1,80,6|0,3:2|0:0,0:0:0:0:
4,142,69664,1,0,0:0:0:0:
5,152,69801,2,0,L|12:195,1,40,10|0,0:0|0:0,0:0:0:0:
32,278,70076,5,2,0:0:0:0:
156,277,70214,1,0,0:0:0:0:
209,376,70352,1,0,3:0:0:0:
94,333,70489,1,0,0:0:0:0:
88,210,70627,2,0,P|119:170|148:166,1,80,2|0,0:0|0:0,0:0:0:0:
232,194,70902,2,0,P|278:197|308:171,1,80,8|0,0:0|0:0,0:0:0:0:
240,0,71177,6,0,L|254:122,1,120.000004577637,6|0,0:0|0:0,0:0:0:0:
276,277,71453,6,0,L|288:372,1,90.0000034332277,6|0,3:2|0:0,0:0:0:0:
296,373,72003,1,10,0:0:0:0:
408,197,72278,5,2,0:0:0:0:
486,215,72416,1,0,0:0:0:0:
459,139,72553,2,0,L|478:19,2,120.000004577637,4|0|2,3:2|0:0|0:0,0:0:0:0:
432,275,73104,1,10,0:0:0:0:
162,337,73379,5,0,0:0:0:0:
80,376,73517,1,0,0:0:0:0:
163,374,73654,2,0,P|134:313|82:296,1,120.000004577637,0|0,3:0|0:0,0:0:0:0:
10,226,73930,2,0,P|68:80|63:0,1,240.000009155274,4|0,0:0|3:0,0:0:0:0:
124,195,74342,1,0,0:0:0:0:
123,210,74480,2,0,P|183:170|195:109,1,120.000004577637,4|0,0:0|0:0,0:0:0:0:
276,5,74755,5,4,3:2:0:0:
203,45,74893,1,0,3:0:0:0:
310,77,75031,1,4,3:2:0:0:
393,139,75168,1,0,3:0:0:0:
392,62,75306,1,4,3:2:0:0:
507,321,75856,6,0,P|407:333|342:374,1,160,6|0,3:2|0:0,0:0:0:0:
247,366,76269,2,0,P|283:317|378:257,1,160,2|0,0:3|0:0,0:0:0:0:
328,190,76682,2,0,P|281:211|252:234,1,80,2|0,3:0|0:0,0:0:0:0:
139,291,76957,1,2,3:2:0:0:
132,281,77095,2,0,P|162:220|234:140,1,160
190,81,77508,1,2,3:1:0:0:
202,72,77645,2,0,P|176:25|66:27,1,160
12,60,78058,6,0,L|23:142,1,80,0|0,3:0|0:0,0:0:0:0:
55,221,78333,1,2,0:3:0:0:
46,225,78471,2,0,B|34:268|34:268|56:229,1,80,2|0,0:3|3:0,0:0:0:0:
140,200,78746,1,2,0:3:0:0:
157,197,78884,2,0,B|187:179|187:179|144:191,1,80,2|0,0:3|0:0,0:0:0:0:
55,372,79159,6,0,P|95:340|129:336,1,80,2|2,3:3|0:3,0:0:0:0:
252,304,79434,2,0,P|214:281|174:282,1,80,2|0,0:3|0:0,0:0:0:0:
55,372,79709,2,0,P|95:340|129:336,1,80,2|0,3:3|0:0,0:0:0:0:
252,304,79984,2,0,P|214:281|174:282,1,80,2|0,0:0|0:0,0:0:0:0:
32,119,80260,6,0,P|81:173|105:257,1,160,6|0,3:2|0:0,0:0:0:0:
170,170,80673,2,0,P|150:101|92:30,1,160,2|0,0:3|0:0,0:0:0:0:
193,6,81086,2,0,P|219:50|228:84,1,80,2|0,3:0|0:0,0:0:0:0:
282,203,81361,1,2,3:2:0:0:
299,193,81498,2,0,P|312:128|297:23,1,160
408,72,81911,2,0,P|400:121|385:154,2,80,2|0|2,3:1|0:0|0:1,0:0:0:0:
477,232,82462,6,0,L|500:318,1,80,0|0,3:0|0:0,0:0:0:0:
294,381,82737,2,0,L|306:293,1,80,2|2,0:3|0:3,0:0:0:0:
380,227,83012,1,0,3:0:0:0:
387,274,83149,1,2,0:3:0:0:
395,321,83287,1,2,0:3:0:0:
403,369,83424,1,0,3:0:0:0:
318,349,83563,6,0,P|296:321|298:263,1,80,6|2,3:2|0:0,0:0:0:0:
219,202,83838,2,0,P|197:234|191:274,1,80,2|4,3:3|3:2,0:0:0:0:
89,343,84113,1,6,3:2:0:0:
47,279,84251,1,0,3:0:0:0:
24,206,84388,1,4,3:2:0:0:
18,129,84526,1,4,3:0:0:0:
38,55,84664,6,0,P|101:23|216:6,1,160,6|0,3:2|0:0,0:0:0:0:
285,105,85076,2,0,P|217:89|119:105,1,160,2|0,0:3|0:0,0:0:0:0:
196,167,85489,2,0,P|246:177|283:199,1,80,2|0,3:0|0:0,0:0:0:0:
327,343,85764,1,2,3:2:0:0:
318,349,85902,2,0,P|291:306|195:241,1,160
176,318,86315,2,0,P|216:349|229:378,2,80,2|0|2,3:1|0:0|0:1,0:0:0:0:
367,240,86865,6,0,L|384:152,1,80,0|0,3:0|0:0,0:0:0:0:
393,316,87141,1,2,0:3:0:0:
399,328,87278,2,0,B|414:364|414:364|410:321,1,80,2|0,0:3|3:0,0:0:0:0:
475,281,87553,1,2,0:3:0:0:
480,272,87690,2,0,B|483:231|483:231|468:267,1,80,2|0,0:3|0:0,0:0:0:0:
312,323,87966,6,0,P|266:302|260:256,1,80,2|2,3:3|0:3,0:0:0:0:
312,107,88242,2,0,P|358:128|364:174,1,80,2|0,0:3|0:0,0:0:0:0:
363,241,88517,2,0,P|291:203|190:183,1,160,2|2,3:3|0:0,0:0:0:0:
150,226,88930,1,0,0:0:0:0:
62,144,89067,6,0,P|40:60|-14:-16,1,160,6|0,3:2|0:0,0:0:0:0:
126,34,89480,2,0,P|159:77|267:79,1,160,2|0,0:3|0:0,0:0:0:0:
334,129,89893,2,0,P|289:174|278:202,1,80,2|0,3:0|3:0,0:0:0:0:
254,275,90168,1,2,3:2:0:0:
244,265,90306,2,0,P|193:251|87:300,1,160
40,343,90719,2,0,P|20:298|26:262,2,80,2|0|2,3:1|0:0|3:1,0:0:0:0:
253,372,91269,6,0,L|338:363,1,80,0|0,3:0|0:0,0:0:0:0:
475,308,91544,1,2,0:3:0:0:
465,298,91682,2,0,L|381:305,1,80,2|0,0:3|3:0,0:0:0:0:
257,259,91957,1,2,0:3:0:0:
264,247,92095,2,0,L|343:240,1,80,2|0,0:3|0:0,0:0:0:0:
463,171,92370,5,4,3:2:0:0:
403,124,92508,1,0,3:0:0:0:
335,91,92645,1,2,3:3:0:0:
263,67,92783,1,6,3:2:0:0:
189,48,92920,5,6,3:2:0:0:
185,38,93058,1,0,3:0:0:0:
175,42,93196,1,4,3:2:0:0:
180,55,93333,1,4,3:0:0:0:
192,127,93471,5,6,0:0:0:0:
