osu file format v14

[General]
AudioFilename: audio.mp3
AudioLeadIn: 0
PreviewTime: 39664
Countdown: 0
SampleSet: Soft
StackLeniency: 0.3
Mode: 0
LetterboxInBreaks: 0
WidescreenStoryboard: 1

[Editor]
Bookmarks: 13614,22422,31229,40587,49394,58202,65908,73614,75816,93431
DistanceSpacing: 1.2
BeatDivisor: 4
GridSize: 8
TimelineZoom: 2.599999

[Metadata]
Title:Naraku no Hana (TV Size)
TitleUnicode:奈落の花 (TV Size)
Artist:Shimamiya Eiko
ArtistUnicode:島みやえい子
Creator:discode
Version:Phynta's Insane
Source:ひぐらしのなく頃に解
Tags:07th expansion when they cry wtc cicadas higurashi no naku koro ni kai 2nd season 2 two op opening short ver version anime japanese jpop j-pop pop SHOGUNMOON00999 [[Pause]] Lunicia Houtaro Subahibi kleune Phynta fooders kyrie irving nik nikolomara bbj0920 _todestrieb awayuru isome itscactus azamaki
BeatmapID:3514949
BeatmapSetID:1713658

[Difficulty]
HPDrainRate:5
CircleSize:3.5
OverallDifficulty:7.5
ApproachRate:8.5
SliderMultiplier:1.8
SliderTickRate:1

[Events]
//Background and Video events
Video,749,"Higurashi no Naku Koro ni Kai NCOP_Trim (no audio).mp4"
0,0,"cover (2) (1).jpg",0,0
//Break Periods
//Storyboard Layer 0 (Background)
//Storyboard Layer 1 (Fail)
//Storyboard Layer 2 (Pass)
//Storyboard Layer 3 (Foreground)
//Storyboard Layer 4 (Overlay)
//Storyboard Sound Samples

[TimingPoints]
443,550.45871559633,4,2,1,60,1,0
443,-66.6666666666667,4,2,1,60,0,0
718,-100,4,2,1,60,0,0
1268,-80,4,2,1,40,0,0
1543,-133.333333333333,4,2,1,40,0,0
2094,-100,4,2,1,20,0,0
2369,-200,4,2,1,20,0,0
5398,550.45871559633,4,2,2,30,1,0
5398,-100,4,2,2,30,0,0
5432,-100,4,2,2,30,0,0
5948,-100,4,2,1,30,0,0
13654,-40,4,2,1,30,0,0
14205,-100,4,2,2,30,0,0
14239,-100,4,2,1,30,0,0
14755,-100,4,2,1,30,0,0
18333,-100,4,2,1,5,0,0
18609,-100,4,2,1,30,0,0
22462,-40,4,2,1,30,0,0
23012,-100,4,2,2,30,0,0
23047,-100,4,2,1,30,0,0
23425,-100,4,2,1,5,0,0
23563,-100,4,2,1,30,0,0
29618,-86.9565217391304,4,2,1,30,0,0
31269,-40,4,2,1,30,0,0
31820,-100,4,2,2,30,0,0
31854,-100,4,2,1,30,0,0
32232,-100,4,2,1,5,0,0
32370,-100,4,2,1,30,0,0
39801,-55.5555555555556,4,2,1,45,0,0
40627,-50,4,2,1,75,0,1
49434,-50,4,2,1,75,0,1
53838,-40,4,2,1,75,0,1
55489,-50,4,2,1,75,0,1
57416,-50,4,2,1,75,0,0
58242,-50,4,2,1,75,0,1
75306,-66.6666666666667,4,2,1,45,0,0
75856,-55.5555555555556,4,2,1,50,0,0

[Colours]
Combo1 : 207,201,148
Combo2 : 164,164,210
Combo3 : 225,91,95
Combo4 : 143,203,172

[HitObjects]
417,177,443,6,0,L|439:71,1,101.250003862381,2|0,0:1|0:0,0:0:0:0:
443,56,718,2,0,L|388:64,1,45,2|0,0:1|0:0,0:0:0:0:
92,239,1268,6,0,L|73:150,1,84.375,2|0,0:1|0:0,0:0:0:0:
71,138,1543,2,0,L|116:144,1,33.7500012874604,2|0,0:1|0:0,0:0:0:0:
370,358,2094,6,0,L|385:281,1,67.5,2|0,0:1|0:0,0:0:0:0:
388,270,2369,2,0,L|361:273,1,22.5,2|0,0:1|0:0,0:0:0:0:
256,192,2644,12,0,5121,0:0:0:0:
36,346,5398,6,0,L|226:320,1,180,2|2,3:2|0:0,0:0:0:0:
234,328,6223,2,0,P|195:336|137:225,1,180,2|0,3:2|0:0,0:0:0:0:
133,234,7324,5,2,0:0:0:0:
205,170,7599,2,0,P|201:125|194:78,2,90,2|2|2,0:0|0:0|0:0,0:0:0:0:
292,202,8425,2,0,P|337:222|455:172,1,180,2|0,0:0|0:0,0:0:0:0:
451,176,9526,5,2,0:0:0:0:
461,84,9801,2,0,L|280:107,1,180,2|2,3:2|0:0,0:0:0:0:
265,120,10627,2,0,L|103:28,1,180,2|2,3:2|0:0,0:0:0:0:
96,9,11453,2,0,L|5:20,1,90,2|0,0:0|0:0,0:0:0:0:
399,270,13379,5,0,0:0:0:0:
489,341,13654,6,0,B|489:350|489:350|484:354|484:354|473:354,8,28.125,2|0|0|0|0|0|0|0|0,0:1|0:0|0:0|0:0|0:0|0:0|0:0|0:0|0:0,0:0:0:0:
305,201,14205,6,0,L|318:13,1,180,2|2,3:2|0:0,0:0:0:0:
310,11,15031,2,0,P|315:78|426:96,1,180,2|0,3:2|0:0,0:0:0:0:
411,105,16131,5,2,0:0:0:0:
430,20,16407,2,0,P|475:14|516:50,2,90,2|2|2,0:0|0:0|0:0,0:0:0:0:
411,105,17232,1,2,0:0:0:0:
345,46,17508,2,0,B|313:14|238:38|269:98|190:101,1,180,2|0,0:0|0:0,0:0:0:0:
37,306,18609,6,0,P|114:319|226:344,1,180,2|2,3:2|0:0,0:0:0:0:
230,253,19434,2,0,P|142:233|53:218,1,180,2|2,3:2|0:0,0:0:0:0:
33,131,20260,2,0,P|21:93|49:44,1,90,2|0,0:0|0:0,0:0:0:0:
399,114,22186,5,0,0:0:0:0:
489,43,22462,6,0,B|489:32|489:32|484:28|484:28|472:28,8,28.125,2|0|0|0|0|0|0|0|0,0:1|0:0|0:0|0:0|0:0|0:0|0:0|0:0|0:0,0:0:0:0:
307,178,23012,6,0,L|329:362,1,180,2|2,3:2|0:0,0:0:0:0:
343,368,23838,2,0,B|259:391|264:306|169:336,1,180,2|0,3:2|0:0,0:0:0:0:
174,334,24939,5,2,0:0:0:0:
90,366,25214,2,0,P|47:349|33:306,2,90,2|2|2,0:0|0:0|0:0,0:0:0:0:
174,334,26040,1,2,0:0:0:0:
255,296,26315,2,0,P|255:199|247:105,1,180,2|0,0:0|0:0,0:0:0:0:
200,34,27141,1,2,0:0:0:0:
293,35,27416,6,0,B|372:42|372:42|393:58|393:58|467:64,1,180,2|0,3:2|0:0,0:0:0:0:
248,116,28242,6,0,B|169:123|169:123|148:139|148:139|74:145,1,180,2|0,3:2|0:0,0:0:0:0:
8,93,29067,2,0,B|3:47|3:47|43:21,1,90,2|0,0:0|0:0,0:0:0:0:
312,188,29618,6,0,B|346:232|346:232|333:333,2,155.250002961159,2|0|2,0:0|0:0|0:0,0:0:0:0:
23,341,31269,6,0,B|23:351|23:351|27:355|27:355|39:355,8,28.125,2|0|0|0|0|0|0|0|0,0:1|0:0|0:0|0:0|0:0|0:0|0:0|0:0|0:0,0:0:0:0:
49,207,31820,6,0,L|232:228,1,180,2|0,3:2|0:0,0:0:0:0:
300,295,32645,5,2,3:2:0:0:
391,277,32920,1,2,0:0:0:0:
482,259,33196,1,2,0:0:0:0:
409,368,33471,1,2,0:0:0:0:
373,186,33746,1,2,0:0:0:0:
373,186,35397,5,2,0:0:0:0:
482,259,35673,1,2,0:0:0:0:
409,368,35948,1,2,0:0:0:0:
391,277,36223,6,0,P|394:188|419:83,1,180,0|0,3:0|0:0,0:0:0:0:
341,57,37049,2,0,P|252:54|147:29,1,180,0|0,3:0|0:0,0:0:0:0:
121,107,37875,2,0,P|121:164|117:209,1,90
256,192,38425,12,0,39526,0:0:0:0:
171,327,39801,5,2,0:0:0:0:
256,192,40076,1,2,0:0:0:0:
391,277,40352,1,2,0:0:0:0:
78,362,40627,6,0,P|62:268|37:164,1,180,4|2,3:2|0:0,0:0:0:0:
160,251,41040,1,0,0:0:0:0:
69,364,41177,2,0,P|53:270|28:166,1,180,8|2,0:0|0:0,0:0:0:0:
151,253,41590,1,0,0:0:0:0:
60,366,41727,2,0,P|44:272|19:168,1,180,0|2,3:0|0:0,0:0:0:0:
88,88,42141,5,0,0:0:0:0:
175,97,42278,2,0,P|163:135|127:166,1,90,10|0,0:0|0:0,0:0:0:0:
0,77,42553,2,0,P|11:38|47:7,1,90,2|0,0:0|0:0,0:0:0:0:
264,106,42829,6,0,B|312:127|346:91|340:75|380:49|430:69,1,180,0|2,3:0|0:0,0:0:0:0:
376,178,43242,1,0,0:0:0:0:
260,95,43379,2,0,B|308:116|342:80|336:64|376:38|424:57,1,180,8|2,0:0|0:0,0:0:0:0:
501,120,43792,2,0,P|478:160|471:206,1,90,0|0,0:0|3:0,0:0:0:0:
460,370,44067,1,0,0:0:0:0:
371,346,44205,2,0,P|363:301|340:263,1,90,2|0,0:0|0:0,0:0:0:0:
159,230,44480,6,0,B|195:204|195:204|238:214,1,90,10|0,0:0|0:0,0:0:0:0:
255,323,44755,2,0,B|218:348|218:348|175:338,1,90,2|0,0:0|0:0,0:0:0:0:
63,137,45031,6,0,P|53:90|156:32,1,180,0|2,3:0|0:0,0:0:0:0:
162,127,45443,1,0,0:0:0:0:
50,144,45581,2,0,P|38:97|128:14,1,180,10|2,0:0|0:0,0:0:0:0:
232,44,45994,2,0,P|278:51|316:32,1,90,0|0,0:0|3:0,0:0:0:0:
464,50,46269,1,0,0:0:0:0:
380,103,46407,2,0,P|350:139|348:181,1,90,2|0,0:0|0:0,0:0:0:0:
411,258,46682,6,0,B|445:253|445:253|457:239|457:239|493:233,1,90,10|0,0:0|0:0,0:0:0:0:
354,332,46957,2,0,B|320:327|320:327|308:313|308:313|272:307,1,90
109,282,47233,5,0,3:0:0:0:
20,267,47370,1,0,0:0:0:0:
5,356,47508,2,0,B|93:370,1,90,2|0,0:0|0:0,0:0:0:0:
124,193,47783,2,0,B|35:178,1,90,8|0,0:0|0:0,0:0:0:0:
4,94,48058,5,2,0:0:0:0:
60,24,48195,1,0,0:0:0:0:
149,38,48333,1,0,3:0:0:0:
181,123,48471,1,0,0:0:0:0:
124,193,48609,2,0,P|105:236|110:282,1,90
336,192,48884,2,0,P|308:154|265:135,1,90,8|0,0:0|0:0,0:0:0:0:
141,362,49159,5,2,3:2:0:0:
201,290,49297,1,0,0:0:0:0:
230,376,49434,6,0,B|289:388|334:337|313:320|363:292|401:304,1,180,4|2,3:2|0:0,0:0:0:0:
458,356,49847,1,0,0:0:0:0:
512,284,49985,2,0,P|509:234|503:192,1,90,10|0,0:0|0:0,0:0:0:0:
381,30,50260,1,2,0:0:0:0:
327,102,50398,2,0,P|330:152|336:194,1,90,0|0,0:0|3:0,0:0:0:0:
201,290,50673,5,0,0:0:0:0:
147,218,50811,2,0,P|152:120|164:38,2,180,0|8|2,0:0|0:0|0:0,0:0:0:0:
201,290,51498,1,2,0:0:0:0:
136,358,51636,6,0,P|43:349|24:274,1,180,2|2,3:2|0:0,0:0:0:0:
123,92,52049,1,0,0:0:0:0:
197,141,52186,2,0,P|259:131|274:25,1,180,10|2,0:0|0:0,0:0:0:0:
117,187,52599,2,0,P|101:231|114:270,1,90,0|0,0:0|3:0,0:0:0:0:
345,342,52875,1,8,0:0:0:0:
397,270,53012,2,0,P|410:228|395:187,1,90,2|0,0:0|0:0,0:0:0:0:
167,342,53287,6,0,B|127:365|127:365|81:357,1,90,10|0,0:0|0:0,0:0:0:0:
345,342,53563,2,0,B|385:365|385:365|431:357,1,90,2|0,0:0|0:0,0:0:0:0:
256,236,53838,6,0,L|256:12,1,225,6|2,3:2|0:0,0:0:0:0:
93,103,54251,1,0,0:0:0:0:
170,257,54388,2,0,P|77:207|93:103,1,225,10|2,0:0|0:0,0:0:0:0:
419,103,54801,1,0,0:0:0:0:
341,257,54939,2,0,P|435:207|419:103,1,225,0|2,3:0|0:0,0:0:0:0:
369,38,55352,5,0,0:0:0:0:
369,38,55489,2,0,P|340:78|340:119,1,90,14|0,0:0|0:0,0:0:0:0:
483,173,55764,2,0,P|512:133|512:92,1,90,2|0,0:0|0:0,0:0:0:0:
256,11,56040,5,4,3:2:0:0:
256,101,56177,1,0,0:0:0:0:
256,192,56315,1,2,0:0:0:0:
29,173,56590,6,0,P|0:133|0:92,1,90,14|0,0:0|0:0,0:0:0:0:
143,38,56865,2,0,P|172:78|172:119,1,90,2|0,0:0|0:0,0:0:0:0:
166,283,57141,5,4,3:2:0:0:
256,373,57278,1,0,3:0:0:0:
347,283,57416,1,2,3:2:0:0:
129,362,57691,6,0,P|95:337|79:290,1,90,6|0,3:2|0:0,0:0:0:0:
116,211,57966,2,0,P|155:194|203:204,1,90,2|0,3:2|0:0,0:0:0:0:
434,362,58242,6,0,P|450:268|475:164,1,180,4|2,3:2|0:0,0:0:0:0:
352,251,58655,1,0,0:0:0:0:
443,364,58792,2,0,P|459:270|484:166,1,180,8|2,0:0|0:0,0:0:0:0:
361,253,59205,1,0,0:0:0:0:
452,366,59342,2,0,P|468:272|493:168,1,180,0|2,3:0|0:0,0:0:0:0:
424,88,59755,5,0,0:0:0:0:
337,97,59892,2,0,P|349:135|385:166,1,90,10|0,0:0|0:0,0:0:0:0:
459,8,60167,2,0,P|419:-1|374:13,1,90,2|0,0:0|0:0,0:0:0:0:
185,114,60443,6,0,B|161:165|161:165|186:293,1,180,0|2,3:0|0:0,0:0:0:0:
265,180,60856,1,0,0:0:0:0:
176,112,60994,2,0,B|152:163|152:163|177:291,1,180,8|2,0:0|0:0,0:0:0:0:
252,352,61407,2,0,P|278:321|281:274,1,90,0|0,0:0|3:0,0:0:0:0:
64,215,61682,1,0,0:0:0:0:
80,308,61820,2,0,P|96:349|134:371,1,90,2|0,0:0|0:0,0:0:0:0:
354,216,62095,6,0,B|387:186|387:186|430:201,1,90,10|0,0:0|0:0,0:0:0:0:
447,317,62370,2,0,B|413:346|413:346|370:331,1,90,6|0,0:0|0:0,0:0:0:0:
297,156,62645,6,0,B|369:92|369:92|462:125,1,180,0|6,3:2|0:0,0:0:0:0:
512,177,63058,1,0,0:0:0:0:
446,107,63196,2,0,B|367:79|367:79|295:143,1,180,10|6,0:0|0:0,0:0:0:0:
273,241,63609,2,0,P|278:284|254:327,1,90,0|0,0:0|3:0,0:0:0:0:
90,357,63884,1,0,0:0:0:0:
36,295,64021,2,0,P|30:251|54:208,1,90,2|0,0:0|0:0,0:0:0:0:
177,149,64297,6,0,B|212:154|212:154|229:145|229:145|265:151,1,90,10|0,0:0|0:0,0:0:0:0:
86,46,64572,6,0,B|51:51|51:51|34:42|34:42|-2:48,1,90,2|0,0:0|0:0,0:0:0:0:
257,64,64847,5,6,3:2:0:0:
346,56,64985,1,0,0:0:0:0:
435,48,65122,2,0,L|444:152,1,90,2|0,0:0|0:0,0:0:0:0:
451,225,65397,5,8,0:0:0:0:
362,233,65535,1,0,0:0:0:0:
273,241,65672,2,0,L|263:136,1,90,2|0,0:0|0:0,0:0:0:0:
130,178,65948,5,0,3:0:0:0:
40,186,66086,1,0,3:0:0:0:
4,271,66223,1,2,0:0:0:0:
61,342,66361,1,0,3:0:0:0:
184,250,66498,5,8,3:2:0:0:
273,241,66636,1,0,3:0:0:0:
329,311,66774,2,0,P|323:336|320:361,2,45,0|0|0,3:0|0:0|3:0,0:0:0:0:
451,225,67049,6,0,P|454:147|435:47,1,180,4|0,3:2|0:0,0:0:0:0:
225,9,67462,1,0,0:0:0:0:
168,72,67599,2,0,P|165:150|184:250,1,180,8|2,0:0|0:0,0:0:0:0:
364,236,68012,5,0,0:0:0:0:
364,236,68150,2,0,P|366:185|362:135,1,90,2|0,3:2|0:0,0:0:0:0:
72,150,68425,6,0,P|85:192|72:234,1,90,2|0,0:2|0:0,0:0:0:0:
384,54,68699,2,0,P|342:44|312:12,1,90,10|0,0:0|0:0,0:0:0:0:
312,372,68975,2,0,P|342:340|384:330,1,90,2|0,0:0|0:0,0:0:0:0:
279,152,69251,5,6,3:2:0:0:
209,192,69388,1,0,0:0:0:0:
279,232,69526,1,0,0:0:0:0:
35,365,69801,6,0,P|20:327|18:275,1,90,10|0,0:0|0:0,0:0:0:0:
124,259,70076,1,2,0:0:0:0:
124,259,70214,2,0,P|139:297|141:349,1,90,0|0,0:0|3:0,0:0:0:0:
52,190,70489,1,0,0:0:0:0:
52,190,70627,2,0,P|50:145|34:103,1,90,2|0,0:0|0:0,0:0:0:0:
76,28,70902,2,0,P|120:26|162:10,1,90,8|0,0:0|0:0,0:0:0:0:
419,162,71177,2,0,P|375:164|333:180,1,90,6|0,0:0|0:0,0:0:0:0:
238,52,71453,5,6,3:2:0:0:
238,52,71590,1,0,0:0:0:0:
238,52,71728,2,0,P|240:95|256:138,1,90
472,95,72003,2,0,P|470:51|454:9,1,90,10|0,0:0|0:0,0:0:0:0:
260,228,72278,5,2,0:0:0:0:
260,228,72416,2,0,P|258:272|242:314,1,90,0|4,0:0|3:2,0:0:0:0:
27,271,72691,1,0,0:0:0:0:
27,271,72829,2,0,P|29:227|45:185,1,90,2|0,0:0|0:0,0:0:0:0:
352,359,73104,6,0,B|388:334|388:334|433:347,1,90,10|0,0:0|0:0,0:0:0:0:
160,359,73379,2,0,B|123:334|123:334|78:347,1,90
168,156,73654,5,0,3:0:0:0:
256,138,73792,1,0,0:0:0:0:
344,120,73930,2,0,P|343:170|323:203,1,90,4|0,0:0|0:0,0:0:0:0:
168,156,74205,2,0,P|169:106|189:73,1,90,0|0,3:0|0:0,0:0:0:0:
325,32,74480,5,4,0:0:0:0:
411,60,74618,2,0,P|431:103|428:148,1,90,0|4,0:0|3:2,0:0:0:0:
187,244,74893,5,0,3:0:0:0:
101,216,75031,1,4,3:2:0:0:
254,183,75168,1,0,3:0:0:0:
206,333,75306,1,4,3:2:0:0:
486,22,75856,6,0,L|312:31,1,161.999995056153,6|0,3:2|0:0,0:0:0:0:
331,118,76269,2,0,L|492:108,1,161.999995056153,2|0,0:3|0:0,0:0:0:0:
498,195,76682,1,2,3:0:0:0:
498,195,76820,2,0,L|417:199,1,80.9999975280763,0|2,0:0|3:2,0:0:0:0:
343,290,77095,1,0,0:0:0:0:
343,290,77233,2,0,L|423:285,1,80.9999975280763
510,367,77508,1,2,3:1:0:0:
510,367,77645,1,0,0:0:0:0:
510,367,77783,1,2,3:1:0:0:
256,192,78058,5,0,3:0:0:0:
256,192,78196,1,0,0:0:0:0:
256,192,78333,1,2,0:3:0:0:
191,262,78609,6,0,P|166:231|160:192,1,80.9999975280763,0|2,3:0|0:3,0:0:0:0:
320,121,78884,1,2,0:3:0:0:
320,121,79021,2,0,P|345:152|352:192,1,80.9999975280763,0|2,0:0|3:3,0:0:0:0:
290,287,79297,5,2,0:3:0:0:
290,287,79434,2,0,B|273:326|273:326|284:365,1,80.9999975280763,2|0,0:3|0:0,0:0:0:0:
393,373,79709,2,0,B|409:333|409:333|398:294,1,80.9999975280763,2|0,3:3|0:0,0:0:0:0:
174,358,79985,1,2,0:0:0:0:
26,22,80260,6,0,L|199:31,1,161.999995056153,6|0,3:2|0:0,0:0:0:0:
181,118,80673,2,0,L|19:108,1,161.999995056153,2|0,0:3|0:0,0:0:0:0:
14,195,81086,1,2,3:0:0:0:
14,195,81224,2,0,L|94:199,1,80.9999975280763,0|2,0:0|3:2,0:0:0:0:
169,290,81499,1,0,0:0:0:0:
169,290,81637,2,0,L|88:285,1,80.9999975280763
2,367,81912,1,2,3:1:0:0:
2,367,82049,1,0,0:0:0:0:
2,367,82187,1,2,0:1:0:0:
256,192,82462,5,0,3:0:0:0:
256,192,82599,1,0,0:0:0:0:
256,192,82737,2,0,P|286:212|329:211,1,80.9999975280763,2|2,0:3|0:3,0:0:0:0:
463,80,83012,2,0,P|430:95|410:133,1,80.9999975280763,0|2,3:0|0:3,0:0:0:0:
456,315,83287,2,0,P|458:279|435:242,1,80.9999975280763,2|0,0:3|3:0,0:0:0:0:
353,42,83563,5,6,3:2:0:0:
353,42,83700,1,2,0:0:0:0:
353,42,83838,2,0,P|332:77|322:117,1,80.9999975280763,2|4,3:3|3:2,0:0:0:0:
158,210,84113,5,6,3:2:0:0:
158,210,84250,1,0,3:0:0:0:
158,210,84388,2,0,P|177:245|207:274,1,80.9999975280763,4|4,3:2|3:0,0:0:0:0:
317,366,84664,6,0,P|379:339|485:371,1,161.999995056153,6|0,3:2|0:0,0:0:0:0:
501,277,85076,2,0,P|439:210|364:184,1,161.999995056153,2|0,0:3|0:0,0:0:0:0:
285,194,85489,1,2,3:0:0:0:
285,194,85627,2,0,P|296:232|301:281,1,80.9999975280763,0|2,0:0|3:2,0:0:0:0:
218,129,85902,1,0,0:0:0:0:
218,129,86040,2,0,P|222:88|233:49,1,80.9999975280763
317,18,86315,1,2,3:1:0:0:
317,18,86453,1,0,0:0:0:0:
317,18,86590,1,2,0:1:0:0:
195,366,86865,5,0,3:0:0:0:
195,366,87003,1,0,0:0:0:0:
195,366,87140,1,2,0:3:0:0:
329,293,87416,6,0,P|310:326|302:380,1,80.9999975280763,0|2,3:0|0:3,0:0:0:0:
197,193,87691,1,2,0:3:0:0:
197,193,87829,2,0,P|216:226|224:280,1,80.9999975280763,0|2,0:0|3:3,0:0:0:0:
305,97,88104,5,2,0:3:0:0:
305,97,88242,2,0,B|316:54|316:54|298:21,1,80.9999975280763,2|0,0:3|0:0,0:0:0:0:
208,28,88517,2,0,B|197:71|197:71|215:104,1,80.9999975280763,2|0,3:3|0:0,0:0:0:0:
404,77,88792,1,2,0:0:0:0:
195,366,89067,6,0,P|133:339|27:371,1,161.999995056153,6|0,3:2|0:0,0:0:0:0:
11,277,89479,2,0,P|73:210|148:184,1,161.999995056153,2|0,0:3|0:0,0:0:0:0:
227,194,89892,1,2,3:0:0:0:
227,194,90030,2,0,P|216:232|211:281,1,80.9999975280763,0|2,3:0|3:2,0:0:0:0:
294,133,90305,1,0,0:0:0:0:
294,133,90443,2,0,P|289:92|278:53,1,80.9999975280763
196,26,90718,1,2,3:1:0:0:
196,26,90856,1,0,0:0:0:0:
196,26,90993,1,2,3:1:0:0:
316,358,91269,5,0,3:0:0:0:
316,358,91407,1,0,0:0:0:0:
316,358,91544,2,0,L|412:346,1,80.9999975280763,2|2,0:3|0:3,0:0:0:0:
421,172,91820,2,0,L|413:261,1,80.9999975280763,0|2,3:0|0:3,0:0:0:0:
196,358,92095,1,2,0:3:0:0:
196,358,92232,2,0,L|115:347,1,80.9999975280763,0|4,0:0|3:2,0:0:0:0:
91,172,92508,1,0,3:0:0:0:
91,172,92645,2,0,L|99:261,1,80.9999975280763,2|6,3:3|3:2,0:0:0:0:
333,137,92920,5,6,3:2:0:0:
304,46,93058,1,0,3:0:0:0:
208,46,93196,1,4,3:2:0:0:
179,137,93334,1,4,3:0:0:0:
256,192,93471,5,6,0:0:0:0:
