osu file format v14

[General]
AudioFilename: audio.mp3
AudioLeadIn: 0
PreviewTime: 39664
Countdown: 0
SampleSet: Soft
StackLeniency: 0.5
Mode: 0
LetterboxInBreaks: 0
WidescreenStoryboard: 1

[Editor]
Bookmarks: 13614,22422,31229,39939,40587,49394,58202,65908,73614,75816,93431
DistanceSpacing: 1.3
BeatDivisor: 4
GridSize: 4
TimelineZoom: 1.5

[Metadata]
Title:Naraku no Hana (TV Size)
TitleUnicode:奈落の花 (TV Size)
Artist:Shimamiya Eiko
ArtistUnicode:島みやえい子
Creator:discode
Version:Normal
Source:ひぐらしのなく頃に解
Tags:07th expansion when they cry wtc cicadas higurashi no naku koro ni kai 2nd season 2 two op opening short ver version anime japanese jpop j-pop pop SHOGUNMOON00999 [[Pause]] Lunicia Houtaro Subahibi kleune Phynta fooders kyrie irving nik nikolomara bbj0920 _todestrieb awayuru isome itscactus azamaki
BeatmapID:3525462
BeatmapSetID:1713658

[Difficulty]
HPDrainRate:4
CircleSize:3.5
OverallDifficulty:4
ApproachRate:4
SliderMultiplier:1
SliderTickRate:1

[Events]
//Background and Video events
Video,749,"Higurashi no Naku Koro ni Kai NCOP_Trim (no audio).mp4"
0,0,"cover (2) (1).jpg",0,0
//Break Periods
//Storyboard Layer 0 (Background)
//Storyboard Layer 1 (Fail)
//Storyboard Layer 2 (Pass)
//Storyboard Layer 3 (Foreground)
//Storyboard Layer 4 (Overlay)
//Storyboard Sound Samples

[TimingPoints]
443,550.45871559633,4,2,1,60,1,0
443,-76.9230769230769,4,2,1,60,0,0
1268,-76.9230769230769,4,2,1,40,0,0
2094,-76.9230769230769,4,2,1,20,0,0
5398,550.45871559633,4,2,2,30,1,0
5398,-100,4,2,2,30,0,0
5432,-100,4,2,2,30,0,0
5948,-100,4,2,1,30,0,0
14205,-100,4,2,2,30,0,0
14239,-100,4,2,1,30,0,0
14755,-100,4,2,1,30,0,0
18333,-100,4,2,1,5,0,0
18609,-100,4,2,1,30,0,0
23012,-100,4,2,2,30,0,0
23047,-100,4,2,1,30,0,0
23425,-100,4,2,1,5,0,0
23563,-100,4,2,1,30,0,0
31820,-100,4,2,2,30,0,0
31854,-100,4,2,1,30,0,0
32232,-100,4,2,1,5,0,0
32370,-100,4,2,1,30,0,0
39801,-83.3333333333333,4,2,1,45,0,0
40627,-76.9230769230769,4,2,1,75,0,1
48884,-83.3333333333333,4,2,1,75,0,1
49434,-76.9230769230769,4,2,1,75,0,1
57416,-76.9230769230769,4,2,1,75,0,0
58242,-76.9230769230769,4,2,1,75,0,1
75306,-76.9230769230769,4,2,1,45,0,1
75856,-76.9230769230769,4,2,1,50,0,0

[Colours]
Combo1 : 207,201,148
Combo2 : 164,164,210
Combo3 : 225,91,95
Combo4 : 143,203,172

[HitObjects]
265,329,443,6,0,P|212:326|136:318,1,129.999994049073,2|0,0:1|0:0,0:0:0:0:
69,265,1268,2,0,B|42:226|42:226|56:140,1,129.999994049073,2|0,0:1|0:0,0:0:0:0:
133,111,2094,2,0,B|160:150|160:150|146:236,1,129.999994049073,2|0,0:1|0:0,0:0:0:0:
256,192,2782,12,0,4846,0:0:0:0:
207,35,5398,6,0,P|243:35|296:91,1,100,2|2,3:2|0:0,0:0:0:0:
304,122,6223,2,0,L|408:113,1,100,2|0,3:2|0:0,0:0:0:0:
490,162,7324,2,0,L|496:100,2,50,2|2|2,0:0|0:0|0:0,0:0:0:0:
449,190,8150,1,2,0:0:0:0:
449,190,8425,2,0,B|424:237|424:237|437:295,1,100,2|0,0:0|0:0,0:0:0:0:
476,373,9526,5,2,0:0:0:0:
476,373,9801,2,0,P|417:367|355:353,1,100,2|2,3:2|0:0,0:0:0:0:
341,323,10627,2,0,P|282:329|220:343,1,100,2|2,3:2|0:0,0:0:0:0:
195,319,11453,1,2,0:0:0:0:
195,319,13654,2,0,L|190:267,1,50,2|0,0:1|0:0,0:0:0:0:
209,223,14205,6,0,P|250:201|269:135,1,100,2|2,3:2|0:0,0:0:0:0:
239,114,15031,2,0,L|136:121,1,100,2|0,3:2|0:0,0:0:0:0:
59,70,16131,1,2,0:0:0:0:
59,70,16407,2,0,P|44:104|44:137,1,50,2|2,0:0|0:0,0:0:0:0:
9,154,16957,2,0,P|13:178|25:200,1,50,2|2,0:0|0:0,0:0:0:0:
59,237,17508,2,0,P|110:224|180:290,1,150,2|0,0:0|0:0,0:0:0:0:
202,327,18609,6,0,P|249:323|310:311,1,100,2|2,3:2|0:0,0:0:0:0:
344,336,19434,2,0,P|391:340|452:352,1,100,2|2,3:2|0:0,0:0:0:0:
485,323,20260,1,2,0:0:0:0:
485,323,22462,2,0,L|487:268,1,50,2|0,0:1|0:0,0:0:0:0:
459,231,23012,6,0,P|416:215|359:217,1,100,2|2,3:2|0:0,0:0:0:0:
318,239,23838,2,0,P|283:211|276:149,1,100,2|0,3:2|0:0,0:0:0:0:
321,70,24939,1,2,0:0:0:0:
321,70,25214,2,0,L|253:62,1,50,2|2,0:0|0:0,0:0:0:0:
223,77,25764,2,0,L|155:69,1,50,2|2,0:0|0:0,0:0:0:0:
123,77,26315,2,0,P|117:124|99:194,1,100,2|0,0:0|0:0,0:0:0:0:
73,214,27141,5,2,0:0:0:0:
73,214,27416,2,0,P|88:256|152:266,1,100,2|0,3:2|0:0,0:0:0:0:
183,291,28242,2,0,P|208:272|279:259,1,100,2|0,3:2|0:0,0:0:0:0:
312,290,29067,1,2,0:0:0:0:
391,228,29618,2,0,P|421:265|425:296,2,75,2|0|2,0:0|0:0|0:0,0:0:0:0:
326,92,31269,2,0,L|319:143,1,50,2|0,0:1|0:0,0:0:0:0:
283,177,31820,6,0,B|241:188|241:188|166:177,1,100,2|0,3:2|0:0,0:0:0:0:
142,154,32645,2,0,P|129:134|119:92,1,50,2|2,3:2|0:0,0:0:0:0:
84,74,33196,2,0,P|91:50|105:29,1,50,2|2,0:0|0:0,0:0:0:0:
147,2,33746,1,2,0:0:0:0:
367,205,35397,2,0,L|376:260,2,50,2|2|2,0:0|0:0|0:0,0:0:0:0:
328,173,36223,5,0,3:0:0:0:
289,127,36498,1,0,0:0:0:0:
289,127,36774,2,0,P|259:120|217:118,2,50,0|0|0,0:0|3:0|0:0,0:0:0:0:
319,87,37600,2,0,P|343:84|368:78,2,50
293,44,38425,2,0,B|258:26|258:26|225:26|199:12|199:12|176:24|144:29|144:29|163:46|173:66,1,200
132,132,39801,6,0,P|100:119|63:118,2,59.9999981689454,2|2|2,0:0|0:0|0:0,0:0:0:0:
170,207,40627,1,4,3:2:0:0:
129,280,40902,2,0,L|127:355,1,64.9999970245363,2|8,0:0|0:0,0:0:0:0:
208,383,41453,1,2,0:0:0:0:
280,338,41728,1,0,3:0:0:0:
280,338,42003,6,0,L|352:323,2,64.9999970245363,2|10|2,0:0|0:0|0:0,0:0:0:0:
214,284,42829,1,0,3:0:0:0:
260,205,43104,2,0,P|313:227|326:255,1,64.9999970245363,2|8,0:0|0:0,0:0:0:0:
394,261,43654,2,0,P|412:223|410:184,1,64.9999970245363,2|0,0:0|3:0,0:0:0:0:
457,128,44205,5,2,0:0:0:0:
376,125,44480,1,10,0:0:0:0:
376,125,44755,2,0,P|325:116|295:42,1,129.999994049073,2|2,0:0|0:0,0:0:0:0:
219,9,45581,1,10,0:0:0:0:
152,59,45856,2,0,B|92:78|92:78|31:49,1,129.999994049073,2|2,0:0|0:0,0:0:0:0:
4,130,46682,6,0,L|-1:194,1,64.9999970245363,10|0,0:0|0:0,0:0:0:0:
81,179,47232,1,0,3:0:0:0:
111,258,47508,2,0,P|115:296|112:338,1,64.9999970245363,2|8,0:0|0:0,0:0:0:0:
171,384,48058,1,2,0:0:0:0:
213,311,48333,2,0,P|209:273|212:231,2,64.9999970245363,0|0|8,3:0|0:0|0:0,0:0:0:0:
291,316,49159,5,2,3:2:0:0:
352,372,49434,2,0,L|427:365,1,64.9999970245363,4|2,3:2|0:0,0:0:0:0:
448,287,49985,2,0,L|523:280,1,64.9999970245363,10|2,0:0|0:0,0:0:0:0:
505,196,50535,2,0,L|524:151,2,32.4999985122681,0|0|0,3:0|0:0|0:0,0:0:0:0:
445,135,51086,1,8,0:0:0:0:
504,74,51361,5,2,0:0:0:0:
447,23,51636,2,0,L|351:29,1,64.9999970245363,2|2,3:2|0:0,0:0:0:0:
332,95,52186,2,0,P|266:100|209:157,1,129.999994049073,10|0,0:0|3:0,0:0:0:0:
244,220,53012,2,0,L|318:230,2,64.9999970245363,2|10|2,0:0|0:0|0:0,0:0:0:0:
159,211,53838,6,0,P|133:176|132:130,1,64.9999970245363,6|2,3:2|0:0,0:0:0:0:
52,184,54388,1,10,0:0:0:0:
52,184,54664,2,0,P|30:208|21:239,1,64.9999970245363,2|0,0:0|3:0,0:0:0:0:
48,318,55214,1,2,0:0:0:0:
128,343,55489,6,0,L|204:336,1,64.9999970245363,14|2,0:0|0:0,0:0:0:0:
264,291,56040,2,0,L|271:245,2,32.4999985122681,4|0|2,3:2|0:0|0:0,0:0:0:0:
335,336,56590,2,0,L|409:334,1,64.9999970245363,14|2,0:0|0:0,0:0:0:0:
447,171,57416,6,0,P|479:176|509:186,2,64.9999970245363,2|6|2,3:2|3:2|3:2,0:0:0:0:
371,133,58242,1,4,3:2:0:0:
293,167,58517,2,0,L|287:89,1,64.9999970245363,2|8,0:0|0:0,0:0:0:0:
206,124,59067,2,0,L|200:46,1,64.9999970245363,2|0,0:0|3:0,0:0:0:0:
267,6,59618,1,2,0:0:0:0:
348,29,59893,6,0,P|379:19|411:14,2,64.9999970245363,10|2|0,0:0|0:0|3:0,0:0:0:0:
402,93,60719,2,0,L|480:99,1,64.9999970245363,2|8,0:0|0:0,0:0:0:0:
506,172,61269,2,0,L|502:211,2,32.4999985122681,2|0|0,0:0|0:0|3:0,0:0:0:0:
426,189,61820,1,2,0:0:0:0:
426,189,62095,6,0,P|366:192|286:207,1,129.999994049073,10|0,0:0|3:2,0:0:0:0:
244,270,62920,2,0,P|184:267|104:252,1,129.999994049073,6|6,0:0|0:0,0:0:0:0:
54,195,63746,1,0,3:0:0:0:
101,124,64021,2,0,P|144:178|144:215,1,64.9999970245363,2|10,0:0|0:0,0:0:0:0:
223,149,64572,1,2,0:0:0:0:
292,100,64847,2,0,L|448:81,1,129.999994049073,6|8,3:2|0:0,0:0:0:0:
479,145,65673,5,2,0:0:0:0:
414,198,65948,2,0,L|362:190,2,32.4999985122681,0|0|2,3:0|3:0|0:0,0:0:0:0:
465,264,66498,1,8,3:2:0:0:
433,342,66774,1,0,3:0:0:0:
348,338,67049,6,0,P|281:323|196:318,1,129.999994049073,4|8,3:2|0:0,0:0:0:0:
141,351,67875,1,2,0:0:0:0:
111,271,68150,2,0,P|135:221|130:178,1,64.9999970245363,2|2,3:2|0:2,0:0:0:0:
51,201,68700,2,0,P|44:169|26:142,1,64.9999970245363,10|2,0:0|0:0,0:0:0:0:
101,102,69251,6,0,B|159:94|159:94|185:54|168:6,1,129.999994049073,6|10,3:2|0:0,0:0:0:0:
257,54,70076,1,2,0:0:0:0:
257,54,70352,2,0,L|354:47,1,64.9999970245363,0|2,3:0|0:0,0:0:0:0:
394,91,70902,2,0,L|491:84,1,64.9999970245363,8|6,0:0|0:0,0:0:0:0:
503,158,71453,6,0,P|435:189|393:256,1,129.999994049073,6|10,3:2|0:0,0:0:0:0:
320,253,72278,1,2,0:0:0:0:
383,316,72553,1,4,3:2:0:0:
383,316,72829,2,0,L|478:318,2,64.9999970245363,2|10|0,0:0|0:0|0:0,0:0:0:0:
313,361,73654,5,0,3:0:0:0:
313,361,73930,2,0,P|277:334|262:287,1,64.9999970245363,4|0,0:0|3:0,0:0:0:0:
184,330,74480,1,4,0:0:0:0:
130,264,74755,2,0,L|120:213,2,32.4999985122681,4|0|4,3:2|3:0|3:2,0:0:0:0:
207,230,75306,1,4,3:2:0:0:
350,320,75856,6,0,P|367:281|371:237,1,64.9999970245363,6|0,3:2|0:0,0:0:0:0:
335,181,76407,1,2,3:0:0:0:
306,101,76682,1,2,3:0:0:0:
306,101,76957,2,0,L|223:88,1,64.9999970245363,2|0,3:2|0:0,0:0:0:0:
178,34,77508,2,0,L|175:-1,2,32.4999985122681,2|0|2,3:1|0:0|3:1,0:0:0:0:
130,104,78058,2,0,P|127:124|127:139,2,32.4999985122681,0|0|2,3:0|0:0|0:3,0:0:0:0:
49,77,78609,2,0,P|45:117|36:170,1,64.9999970245363,0|2,3:0|0:3,0:0:0:0:
85,213,79159,1,2,3:3:0:0:
85,213,79434,2,0,B|52:229|52:229|3:225,2,64.9999970245363,2|2|2,0:3|3:3|0:0,0:0:0:0:
155,259,80260,6,0,P|201:244|236:244,1,64.9999970245363,6|0,3:2|0:0,0:0:0:0:
278,300,80810,1,2,3:0:0:0:
353,349,81086,1,2,3:0:0:0:
353,349,81361,2,0,P|374:303|375:261,1,64.9999970245363,2|0,3:2|0:0,0:0:0:0:
447,244,81911,2,0,L|488:251,2,32.4999985122681,2|0|2,3:1|0:0|0:1,0:0:0:0:
401,172,82462,2,0,P|377:179|355:182,2,32.4999985122681,0|0|2,3:0|0:0|0:3,0:0:0:0:
419,89,83012,2,0,P|378:79|349:68,1,64.9999970245363,0|2,3:0|0:3,0:0:0:0:
289,19,83563,2,0,P|242:59|238:132,1,129.999994049073,6|6,3:2|3:2,0:0:0:0:
274,198,84388,5,4,3:2:0:0:
234,272,84664,2,0,P|191:280|161:277,1,64.9999970245363,6|0,3:2|0:0,0:0:0:0:
88,256,85214,1,2,3:0:0:0:
36,189,85489,1,2,3:0:0:0:
36,189,85764,2,0,L|24:100,1,64.9999970245363,2|0,3:2|0:0,0:0:0:0:
90,68,86315,2,0,L|91:20,2,32.4999985122681,2|0|2,3:1|0:0|0:1,0:0:0:0:
161,112,86865,2,0,P|167:139|176:163,2,32.4999985122681,0|0|2,3:0|0:0|0:3,0:0:0:0:
230,63,87416,2,0,P|237:33|239:-11,1,64.9999970245363,0|2,3:0|0:3,0:0:0:0:
316,47,87966,1,2,3:3:0:0:
316,47,88242,2,0,B|329:17|329:17|361:-5,2,64.9999970245363,2|2|2,0:3|3:3|0:0,0:0:0:0:
394,78,89067,6,0,P|414:119|416:150,1,64.9999970245363,6|0,3:2|0:0,0:0:0:0:
429,221,89618,1,2,3:0:0:0:
367,278,89893,1,2,3:0:0:0:
367,278,90168,2,0,L|273:287,1,64.9999970245363,2|0,3:2|0:0,0:0:0:0:
234,233,90719,2,0,L|230:195,2,32.4999985122681,2|0|2,3:1|0:0|3:1,0:0:0:0:
192,306,91269,2,0,P|187:332|190:346,2,32.4999985122681,0|0|2,3:0|0:0|0:3,0:0:0:0:
119,262,91820,2,0,P|119:227|111:182,1,64.9999970245363,0|2,3:0|0:3,0:0:0:0:
66,128,92370,2,0,P|38:136|20:138,2,32.4999985122681,4|0|2,3:2|3:0|3:3,0:0:0:0:
135,79,92920,2,0,P|163:87|181:89,2,32.4999985122681,6|0|4,3:2|3:0|3:2,0:0:0:0:
68,26,93471,1,6,0:0:0:0:
