osu file format v14

[General]
AudioFilename: audio.mp3
AudioLeadIn: 0
PreviewTime: 39664
Countdown: 0
SampleSet: Soft
StackLeniency: 0.1
Mode: 0
LetterboxInBreaks: 0
WidescreenStoryboard: 1

[Editor]
DistanceSpacing: 1.5
BeatDivisor: 8
GridSize: 4
TimelineZoom: 1.7

[Metadata]
Title:Naraku no Hana (TV Size)
TitleUnicode:奈落の花 (TV Size)
Artist:Shimamiya Eiko
ArtistUnicode:島みやえい子
Creator:discode
Version:Lunicia's Another
Source:ひぐらしのなく頃に解
Tags:07th expansion when they cry wtc cicadas higurashi no naku koro ni kai 2nd season 2 two op opening short ver version anime japanese jpop j-pop pop SHOGUNMOON00999 [[Pause]] Lunicia Houtaro Subahibi kleune Phynta fooders kyrie irving nik nikolomara bbj0920 _todestrieb awayuru isome itscactus azamaki
BeatmapID:3505882
BeatmapSetID:1713658

[Difficulty]
HPDrainRate:5
CircleSize:4.2
OverallDifficulty:8
ApproachRate:7.5
SliderMultiplier:1.6
SliderTickRate:1

[Events]
//Background and Video events
Video,749,"Higurashi no Naku Koro ni Kai NCOP_Trim (no audio).mp4"
0,0,"cover (2) (1).jpg",0,0
//Break Periods
//Storyboard Layer 0 (Background)
//Storyboard Layer 1 (Fail)
//Storyboard Layer 2 (Pass)
//Storyboard Layer 3 (Foreground)
//Storyboard Layer 4 (Overlay)
//Storyboard Sound Samples

[TimingPoints]
443,550.45871559633,4,2,1,60,1,0
443,-50,4,2,1,60,0,0
718,-50,4,2,1,50,0,0
1268,-66.6666666666667,4,2,1,40,0,0
1543,-66.6666666666667,4,2,1,30,0,0
2094,-100,4,2,1,20,0,0
2369,-100,4,2,1,10,0,0
2644,-100,4,2,1,60,0,0
5121,-100,4,2,1,5,0,0
5398,550.45871559633,4,2,1,40,1,0
5398,-100,4,2,1,40,0,0
5948,-100,4,2,1,40,0,0
6223,-1000,4,2,1,40,0,0
7462,-1000,4,2,1,5,0,0
7599,-1000,4,2,1,40,0,0
9664,-1000,4,2,1,5,0,0
9801,-100,4,2,1,40,0,0
10627,-1000,4,2,1,40,0,0
13517,-1000,4,2,1,5,0,0
13654,-10,4,2,1,40,0,1
13930,-10,4,2,1,40,0,0
14205,-100,4,2,1,40,0,0
14755,-100,4,2,1,40,0,0
15031,-1000,4,2,1,40,0,0
16270,-1000,4,2,1,5,0,0
16407,-1000,4,2,1,40,0,0
17370,-1000,4,2,1,5,0,0
17508,-1000,4,2,1,40,0,0
18609,-100,4,2,1,40,0,0
19435,-1000,4,2,1,40,0,0
22325,-1000,4,2,1,5,0,0
22462,-10,4,2,1,40,0,1
22737,-10,4,2,1,40,0,0
23012,-100,4,2,1,40,0,0
23563,-100,4,2,1,40,0,0
23838,-1000,4,2,1,40,0,0
25076,-1000,4,2,1,5,0,0
25214,-1000,4,2,1,40,0,0
26177,-1000,4,2,1,5,0,0
26315,-1000,4,2,1,40,0,0
27416,-83.3333333333333,4,2,1,40,0,0
29480,-83.3333333333333,4,2,1,5,0,0
29618,-1000,4,2,1,40,0,0
31131,-1000,4,2,1,5,0,0
31269,-10,4,2,1,40,0,1
31544,-10,4,2,1,40,0,0
31820,-100,4,2,1,40,0,0
32370,-100,4,2,1,40,0,0
32645,-1000,4,2,1,40,0,0
33884,-1000,4,2,1,5,0,0
34021,-1000,4,2,1,40,0,0
36086,-1000,4,2,1,5,0,0
36223,-1000,4,2,1,40,0,0
39526,-1000,4,2,1,5,0,0
40627,-66.6666666666667,4,2,1,60,0,0
53838,-20,4,2,1,60,0,1
54664,-59.8802395209581,4,2,1,60,0,1
55076,-133.333333333333,4,2,1,5,0,1
55214,-20,4,2,1,60,0,1
55489,-14.2857142857143,4,2,1,60,0,1
55764,-42.7350427350427,4,2,1,60,0,1
56177,-66.6666666666667,4,2,1,5,0,1
56315,-14.2857142857143,4,2,1,60,0,1
56590,-14.2857142857143,4,2,1,60,0,1
56865,-14.2857142857143,4,2,1,60,0,1
57141,-200,4,2,1,60,0,0
57416,-200,4,2,1,60,0,0
58242,-66.6666666666667,4,2,1,60,0,0
75306,-1000,4,2,1,60,0,0
75856,-55.5555555555556,4,2,1,60,0,1
84113,-55.5555555555556,4,2,1,60,0,0
84664,-55.5555555555556,4,2,1,60,0,1
93471,-55.5555555555556,4,2,1,60,0,0

[Colours]
Combo1 : 207,201,148
Combo2 : 164,164,210
Combo3 : 225,91,95
Combo4 : 143,203,172

[HitObjects]
302,105,443,6,0,L|222:95,1,80,8|0,3:0|0:0,0:0:0:0:
296,115,718,2,0,L|216:105,1,80,4|0,3:0|0:0,0:0:0:0:
103,271,1268,6,0,L|163:263,1,60.0000022888184,8|0,3:0|0:0,0:0:0:0:
109,280,1543,2,0,L|169:272,1,60.0000022888184,4|0,3:0|0:0,0:0:0:0:
382,337,2094,6,0,L|342:331,1,40,8|0,3:0|0:0,0:0:0:0:
377,343,2369,2,0,L|337:337,1,40,4|0,3:0|0:0,0:0:0:0:
256,192,2644,12,0,5121,0:0:0:0:
255,0,5398,6,0,P|180:4|153:74,1,160,4|0,3:2|0:0,0:0:0:0:
160,88,6223,6,0,L|156:124,1,36,0|0,3:0|0:0,0:0:0:0:
184,296,7599,6,0,L|176:236,1,60,2|0,0:0|0:0,0:0:0:0:
0,264,9801,6,0,P|76:268|103:338,1,160,0|0,3:0|0:0,0:0:0:0:
332,368,10627,6,0,L|414:378,1,84,0|0,3:0|0:0,0:0:0:0:
256,192,13654,70,0,B|275:179|275:179|264:190|264:192|273:205|273:205|259:199|257:199|247:211|247:211|250:196|248:193|233:189|233:189|249:186|251:184|251:169|251:169|258:182|260:183|275:179|275:179|256:192|256:192,4,200,0|0|0|0|0,1:0|1:0|1:0|1:0|1:0,1:0:0:0:
256,0,14205,6,0,P|331:4|358:74,1,160,4|0,3:2|0:0,0:0:0:0:
352,88,15031,6,0,L|356:124,1,36,0|0,3:0|0:0,0:0:0:0:
328,296,16407,6,0,L|331:268,1,28,2|0,0:0|0:0,0:0:0:0:
256,384,17508,5,2,0:1:0:0:
512,264,18609,6,0,P|436:268|409:338,1,160,0|0,3:0|0:0,0:0:0:0:
180,364,19435,6,0,L|98:374,1,84,0|0,3:0|0:0,0:0:0:0:
256,192,22462,70,0,B|236:179|236:179|247:190|247:192|238:205|238:205|252:199|254:199|264:211|264:211|261:196|263:193|278:189|278:189|262:186|260:184|260:169|260:169|253:182|251:183|236:179|236:179|256:192|256:192,4,200,0|0|0|0|0,1:0|1:0|1:0|1:0|1:0,1:0:0:0:
152,12,23012,6,0,B|145:27|145:27|142:18|142:18|141:50|141:50|99:100|99:100|92:143,1,160,4|0,3:2|0:0,0:0:0:0:
395,308,23838,6,0,P|408:297|425:289,1,36,0|0,3:0|0:0,0:0:0:0:
350,138,25214,6,0,P|339:129|326:123,1,28,2|0,0:0|0:0,0:0:0:0:
460,54,26315,5,2,0:1:0:0:
92,152,27141,5,0,0:0:0:0:
32,232,27416,2,0,B|83:246|122:190|96:203|133:140|196:156,1,191.999994140625,0|0,3:0|0:0,0:0:0:0:
484,344,28242,2,0,B|432:358|393:302|419:315|382:252|320:268,1,191.999994140625,0|0,3:0|0:0,0:0:0:0:
212,40,29067,6,0,P|280:43|305:107,1,143.999995605469,2|0,0:0|0:0,0:0:0:0:
200,332,29618,6,0,L|194:286,1,44,2|0,0:0|0:0,0:0:0:0:
256,192,31269,70,0,B|236:179|236:179|247:190|247:192|238:205|238:205|252:199|254:199|264:211|264:211|261:196|263:193|278:189|278:189|262:186|260:184|260:169|260:169|253:182|251:183|236:179|236:179|256:192|256:192,4,200,0|0|0|0|0,1:0|1:0|1:0|1:0|1:0,1:0:0:0:
360,12,31820,6,0,B|366:27|366:27|369:18|369:18|370:50|370:50|412:100|412:100|419:143,1,160,4|0,3:2|0:0,0:0:0:0:
117,308,32645,6,0,P|104:297|87:289,1,36,0|0,3:0|0:0,0:0:0:0:
162,138,34021,6,0,P|184:118|212:106,1,60,2|0,0:0|0:0,0:0:0:0:
20,12,36223,6,0,P|10:3|-1:-1,1,24,0|0,3:0|3:0,0:0:0:0:
256,192,37875,12,0,39526,0:0:0:0:
506,372,40627,6,0,P|448:369|427:315,1,120.000004577637,6|0,3:2|0:0,0:0:0:0:
331,337,41040,5,2,0:0:0:0:
506,202,41177,2,0,P|490:234|482:266,1,60.0000022888184,8|0,0:0|0:0,0:0:0:0:
356,240,41453,2,0,P|352:180|333:123,2,120.000004577637,0|2|0,3:0|3:2|0:0,0:0:0:0:
352,252,42141,1,2,0:0:0:0:
108,372,42278,5,8,0:0:0:0:
96,380,42691,1,2,0:0:0:0:
8,320,42829,6,0,P|30:267|86:265,1,120.000004577637,2|0,3:2|0:0,0:0:0:0:
10,334,43242,5,2,0:0:0:0:
160,304,43379,2,0,P|186:290|215:281,1,60.0000022888184,8|0,0:0|0:0,0:0:0:0:
144,140,43654,2,0,P|86:122|33:94,2,120.000004577637,0|2|0,3:0|3:2|0:0,0:0:0:0:
152,152,44342,1,2,0:0:0:0:
317,96,44480,5,8,0:0:0:0:
319,88,44618,1,0,0:0:0:0:
325,82,44755,1,2,3:2:0:0:
332,77,44893,1,0,0:0:0:0:
279,12,45031,6,0,P|221:14|200:68,1,120.000004577637,2|0,3:2|0:0,0:0:0:0:
242,137,45443,5,2,0:0:0:0:
414,193,45581,2,0,P|440:179|469:170,1,60.0000022888184,8|0,0:0|0:0,0:0:0:0:
381,0,45856,2,0,P|433:28|492:46,1,120.000004577637,0|2,3:0|3:2,0:0:0:0:
162,296,46407,2,0,L|154:236,1,60.0000022888184,2|0,3:2|0:0,0:0:0:0:
321,381,46682,2,0,L|336:260,1,120.000004577637,10|0,0:0|0:0,0:0:0:0:
331,249,47095,1,2,0:0:0:0:
199,65,47232,5,2,3:1:0:0:
197,57,47370,1,0,0:0:0:0:
191,51,47507,1,0,0:0:0:0:
184,46,47645,1,2,0:1:0:0:
116,147,47783,5,8,0:0:0:0:
123,142,47921,1,0,0:0:0:0:
127,135,48058,1,2,0:1:0:0:
130,127,48196,1,0,0:0:0:0:
15,88,48333,5,2,3:1:0:0:
21,93,48471,1,0,0:0:0:0:
29,95,48608,1,2,0:1:0:0:
38,96,48884,5,8,3:0:0:0:
103,46,49021,5,4,3:0:0:0:
217,150,49159,5,8,3:0:0:0:
336,4,49297,5,4,3:0:0:0:
228,143,49434,6,0,P|286:146|307:200,1,120.000004577637,6|0,3:2|0:0,0:0:0:0:
417,187,49847,5,2,0:0:0:0:
253,302,49985,2,0,P|244:273|230:246,1,60.0000022888184,8|0,0:0|0:0,0:0:0:0:
394,273,50260,2,0,P|367:326|350:384,2,120.000004577637,0|2|0,3:0|3:2|0:0,0:0:0:0:
390,260,50948,1,2,0:0:0:0:
96,228,51086,5,8,0:0:0:0:
91,215,51498,1,2,0:0:0:0:
100,324,51636,6,0,P|42:321|21:267,1,120.000004577637,2|0,3:2|0:0,0:0:0:0:
110,319,52049,5,2,0:0:0:0:
198,372,52186,2,0,P|224:358|253:349,1,60.0000022888184,8|0,0:0|0:0,0:0:0:0:
504,318,52462,2,0,P|446:300|393:272,2,120.000004577637,0|2|0,3:0|3:2|0:0,0:0:0:0:
511,328,53150,1,2,0:0:0:0:
348,351,53287,5,8,0:0:0:0:
346,343,53425,1,0,0:0:0:0:
340,337,53562,1,2,3:2:0:0:
333,332,53700,1,0,0:0:0:0:
193,240,53838,6,0,B|130:257|156:304|117:286|117:286|132:224|193:240,1,200,6|0,0:0|0:0,0:0:0:0:
278,121,54113,2,0,B|319:70|271:47|313:39|313:39|337:98|278:121,1,200,2|0,0:0|0:0,0:0:0:0:
279,262,54388,2,0,B|276:326|329:317|299:348|299:348|245:315|279:262,1,200,8|0,0:0|0:0,0:0:0:0:
195,148,54664,2,0,B|159:93|122:132|127:90|127:90|191:85|195:148,1,200,2|0,0:0|0:0,0:0:0:0:
330,191,55214,2,0,B|391:214|397:161|418:199|418:199|369:240|330:191,1,200,4|0,0:0|0:0,0:0:0:0:
193,240,55489,6,0,B|104:263|140:330|85:304|85:304|107:218|193:240,1,280.000002670288,10|0,0:0|0:0,0:0:0:0:
278,121,55764,2,0,B|335:48|267:16|325:6|325:6|360:87|278:121,1,280.000002670288,4|0,0:0|0:0,0:0:0:0:
279,262,56315,2,0,B|273:354|347:340|305:383|305:383|231:337|278:263,1,280.000002670288,2|0,0:0|0:0,0:0:0:0:
195,148,56590,2,0,B|144:71|93:126|100:67|100:67|189:60|195:148,1,280.000002670288,10|0,0:0|0:0,0:0:0:0:
330,191,56865,2,0,B|415:223|424:149|454:201|454:201|386:259|330:191,1,280.000002670288,4|0,0:1|0:0,0:0:0:0:
256,192,57141,5,6,0:0:0:0:
256,192,57691,1,14,0:0:0:0:
400,3,58242,6,0,P|458:6|479:60,1,120.000004577637,6|0,3:2|0:0,0:0:0:0:
385,177,58654,5,2,0:0:0:0:
330,77,58792,2,0,P|321:48|307:21,1,60.0000022888184,8|0,0:0|0:0,0:0:0:0:
452,143,59067,2,0,P|424:194|406:252,1,120.000004577637,0|2,3:0|3:2,0:0:0:0:
410,264,59618,1,2,0:0:0:0:
180,368,59755,5,0,0:0:0:0:
100,312,59893,2,0,P|122:259|179:257,1,120.000004577637,10|0,0:0|0:0,0:0:0:0:
190,268,60306,1,2,0:0:0:0:
304,352,60443,6,0,L|364:360,1,60.0000022888184,2|0,3:2|0:0,0:0:0:0:
140,144,60719,2,0,L|80:152,1,60.0000022888184,0|2,0:0|0:0,0:0:0:0:
256,192,60994,5,8,0:0:0:0:
258,184,61132,1,0,0:0:0:0:
264,178,61269,1,2,0:0:0:0:
271,173,61407,1,0,0:0:0:0:
252,64,61544,5,2,3:2:0:0:
250,56,61682,1,0,0:0:0:0:
244,50,61819,1,2,0:0:0:0:
360,100,62095,6,0,L|368:40,1,60.0000022888184,8|0,0:0|0:0,0:0:0:0:
197,327,62370,2,0,L|189:267,1,60.0000022888184,0|0,3:0|0:0,0:0:0:0:
432,252,62645,5,2,3:2:0:0:
512,176,62783,1,0,0:0:0:0:
436,244,62920,6,0,P|413:191|356:189,2,120.000004577637,4|10|0,3:2|0:0|0:0,0:0:0:0:
376,380,63609,5,2,0:0:0:0:
280,256,63746,2,0,P|306:270|335:279,1,60.0000022888184,0|0,3:0|0:0,0:0:0:0:
500,336,64021,2,0,P|442:353|388:382,2,120.000004577637,2|8|0,0:0|0:0|0:0,0:0:0:0:
512,340,64709,1,0,0:0:0:0:
192,336,64847,6,0,L|132:328,1,60.0000022888184,2|0,3:1|0:0,0:0:0:0:
80,88,65122,2,0,L|20:96,1,60.0000022888184,0|2,0:0|0:1,0:0:0:0:
0,208,65397,5,0,3:0:0:0:
3,200,65535,1,0,0:0:0:0:
10,196,65672,1,2,0:1:0:0:
19,193,65810,1,0,0:1:0:0:
148,176,65948,5,2,3:1:0:0:
151,184,66086,1,0,3:0:0:0:
157,190,66223,1,2,0:1:0:0:
164,195,66361,1,4,3:0:0:0:
172,197,66499,5,8,3:0:0:0:
256,136,66636,5,4,3:0:0:0:
328,256,66774,5,8,3:0:0:0:
452,116,66911,5,4,3:0:0:0:
324,244,67049,6,0,P|380:247|403:299,2,120.000004577637,6|0|8,3:2|0:0|0:0,0:0:0:0:
88,76,67875,6,0,L|80:16,1,60.0000022888184,0|2,0:0|0:0,0:0:0:0:
180,100,68150,2,0,P|236:96|259:44,1,120.000004577637,0|0,3:0|0:0,0:0:0:0:
348,100,68563,5,2,0:0:0:0:
280,176,68700,2,0,P|251:184|224:199,1,60.0000022888184,8|0,0:0|0:0,0:0:0:0:
432,52,68975,2,0,P|458:66|487:75,1,60.0000022888184,2|0,0:0|0:0,0:0:0:0:
416,384,69251,6,0,P|443:294|487:212,1,180.000006866455,2|2,3:2|0:0,0:0:0:0:
312,256,69801,2,0,P|326:282|334:311,1,60.0000022888184,8|0,0:0|0:0,0:0:0:0:
388,172,70076,5,2,0:0:0:0:
332,88,70214,2,0,P|340:59|354:32,1,60.0000022888184,0|0,3:0|0:0,0:0:0:0:
132,176,70489,5,2,0:0:0:0:
280,176,70627,2,0,P|251:184|224:199,1,60.0000022888184,0|0,3:0|0:0,0:0:0:0:
92,248,70902,5,10,0:0:0:0:
84,246,71040,1,0,0:0:0:0:
78,240,71177,1,6,0:0:0:0:
73,233,71315,1,0,0:0:0:0:
0,384,71453,6,0,P|22:331|79:328,1,120.000004577637,6|0,3:2|0:0,0:0:0:0:
232,352,71865,5,2,0:0:0:0:
172,312,72003,2,0,P|198:326|227:335,1,60.0000022888184,8|0,0:0|0:0,0:0:0:0:
344,260,72278,5,2,0:0:0:0:
404,220,72416,2,0,P|377:234|348:243,1,60.0000022888184,0|4,3:0|0:0,0:0:0:0:
184,112,72691,5,2,0:0:0:0:
124,72,72829,2,0,P|150:86|179:95,1,60.0000022888184,0|0,3:0|0:0,0:0:0:0:
332,56,73104,5,10,0:0:0:0:
184,212,73242,5,0,0:0:0:0:
344,260,73379,5,2,3:2:0:0:
312,368,73517,5,0,0:0:0:0:
276,197,73654,5,2,3:2:0:0:
278,189,73792,1,0,0:0:0:0:
283,182,73930,1,6,1:0:0:0:
243,0,74205,2,0,L|251:60,1,60.0000022888184,8|2,0:0|0:1,0:0:0:0:
434,250,74480,5,4,0:1:0:0:
456,84,74618,2,0,L|448:144,1,60.0000022888184,2|0,0:1|0:0,0:0:0:0:
512,192,74893,5,2,0:1:0:0:
364,140,75031,5,0,3:1:0:0:
148,244,75168,5,2,0:1:0:0:
0,192,75306,6,0,L|15:191,1,16,2|4,0:0|3:2,0:0:0:0:
167,143,75994,5,0,0:0:0:0:
167,143,76131,1,0,0:0:0:0:
167,143,76269,1,2,0:0:0:0:
275,92,76544,1,0,0:0:0:0:
275,92,76681,1,0,0:0:0:0:
275,92,76819,1,2,0:0:0:0:
356,179,77095,1,2,0:0:0:0:
356,179,77233,1,0,0:0:0:0:
299,283,77508,1,2,0:0:0:0:
299,283,77646,1,0,0:0:0:0:
299,283,77783,1,2,0:0:0:0:
181,261,78058,1,2,0:0:0:0:
181,261,78196,1,0,0:0:0:0:
181,261,78333,1,0,0:0:0:0:
181,261,78471,1,2,0:0:0:0:
181,261,78609,1,0,0:0:0:0:
167,143,78884,1,2,0:0:0:0:
167,143,79022,1,0,0:0:0:0:
275,92,79297,1,2,0:0:0:0:
275,92,79435,1,0,0:0:0:0:
356,179,79709,1,2,0:0:0:0:
356,179,79847,1,0,0:0:0:0:
356,179,79985,1,2,0:0:0:0:
299,283,80260,5,6,3:2:0:0:
299,283,80398,1,0,0:0:0:0:
299,283,80535,1,0,0:0:0:0:
299,283,80673,1,2,0:0:0:0:
356,179,80948,1,0,0:0:0:0:
356,179,81085,1,2,0:0:0:0:
356,179,81223,1,0,0:0:0:0:
275,92,81498,1,2,0:0:0:0:
275,92,81636,1,0,0:0:0:0:
167,143,81911,1,2,0:0:0:0:
167,143,82049,1,0,0:0:0:0:
167,143,82186,1,2,0:0:0:0:
181,261,82462,1,2,0:0:0:0:
181,261,82600,1,0,0:0:0:0:
181,261,82737,1,0,0:0:0:0:
181,261,82875,1,2,0:0:0:0:
181,261,83012,1,0,0:0:0:0:
299,283,83287,1,2,0:0:0:0:
299,283,83425,1,0,0:0:0:0:
356,179,83700,1,2,0:0:0:0:
356,179,83838,1,0,0:0:0:0:
275,92,84113,5,0,3:0:0:0:
275,92,84251,1,0,3:0:0:0:
275,92,84388,1,0,3:0:0:0:
275,92,84526,1,0,3:0:0:0:
356,179,84664,5,6,3:2:0:0:
356,179,84801,1,0,0:0:0:0:
356,179,84939,1,0,0:0:0:0:
356,179,85076,1,2,0:0:0:0:
299,283,85352,1,0,0:0:0:0:
299,283,85490,1,2,0:0:0:0:
299,283,85627,1,0,0:0:0:0:
181,261,85902,1,2,0:0:0:0:
181,261,86040,1,0,0:0:0:0:
167,143,86315,1,2,0:0:0:0:
167,143,86453,1,0,0:0:0:0:
167,143,86590,1,2,0:0:0:0:
275,92,86865,1,2,0:0:0:0:
275,92,87002,1,0,0:0:0:0:
275,92,87140,1,0,0:0:0:0:
275,92,87277,1,2,0:0:0:0:
275,92,87416,1,0,0:0:0:0:
356,179,87691,1,2,0:0:0:0:
356,179,87830,1,0,0:0:0:0:
299,283,88104,1,2,0:0:0:0:
299,283,88243,1,0,0:0:0:0:
181,261,88517,1,2,0:0:0:0:
181,261,88654,1,0,0:0:0:0:
181,261,88793,1,2,0:0:0:0:
167,143,89067,5,6,3:2:0:0:
167,143,89204,1,0,0:0:0:0:
167,143,89342,1,0,0:0:0:0:
167,143,89479,1,2,0:0:0:0:
181,261,89755,1,0,0:0:0:0:
181,261,89893,1,2,0:0:0:0:
181,261,90030,1,0,0:0:0:0:
299,283,90306,1,2,0:0:0:0:
299,283,90443,1,0,0:0:0:0:
356,179,90719,1,2,0:0:0:0:
356,179,90857,1,0,0:0:0:0:
356,179,90994,1,2,0:0:0:0:
275,92,91269,1,2,0:0:0:0:
275,92,91406,1,0,0:0:0:0:
275,92,91544,1,0,0:0:0:0:
275,92,91681,1,2,0:0:0:0:
275,92,91820,1,0,0:0:0:0:
167,143,92095,1,2,0:0:0:0:
167,143,92232,1,0,0:0:0:0:
167,143,92370,1,4,0:0:0:0:
167,143,92645,5,8,3:0:0:0:
181,261,92783,5,4,3:0:0:0:
299,283,92920,5,8,3:0:0:0:
356,179,93058,5,4,3:0:0:0:
275,92,93196,5,8,3:0:0:0:
256,192,93333,5,4,3:0:0:0:
256,192,93471,1,4,0:1:0:0:
