osu file format v14

[General]
AudioFilename: audio.mp3
AudioLeadIn: 0
PreviewTime: 39664
Countdown: 0
SampleSet: Soft
StackLeniency: 0.5
Mode: 0
LetterboxInBreaks: 0
WidescreenStoryboard: 1

[Editor]
DistanceSpacing: 1.3
BeatDivisor: 4
GridSize: 32
TimelineZoom: 1.6

[Metadata]
Title:Naraku no Hana (TV Size)
TitleUnicode:奈落の花 (TV Size)
Artist:Shimamiya Eiko
ArtistUnicode:島みやえい子
Creator:discode
Version:ItsCactus' Hard
Source:ひぐらしのなく頃に解
Tags:07th expansion when they cry wtc cicadas higurashi no naku koro ni kai 2nd season 2 two op opening short ver version anime japanese jpop j-pop pop SHOGUNMOON00999 [[Pause]] Lunicia Houtaro Subahibi kleune Phynta fooders kyrie irving nik nikolomara bbj0920 _todestrieb awayuru isome itscactus azamaki
BeatmapID:3601341
BeatmapSetID:1713658

[Difficulty]
HPDrainRate:4
CircleSize:3.5
OverallDifficulty:5.5
ApproachRate:6
SliderMultiplier:1.4
SliderTickRate:1

[Events]
//Background and Video events
0,0,"cover (2) (1).jpg",0,0
Video,749,"Higurashi no Naku Koro ni Kai NCOP_Trim (no audio).mp4"
//Break Periods
//Storyboard Layer 0 (Background)
//Storyboard Layer 1 (Fail)
//Storyboard Layer 2 (Pass)
//Storyboard Layer 3 (Foreground)
//Storyboard Layer 4 (Overlay)
//Storyboard Sound Samples

[TimingPoints]
443,550.45871559633,4,2,1,60,1,0
443,-100,4,2,1,60,0,0
1268,-100,4,2,1,40,0,0
2094,-100,4,2,1,20,0,0
5398,550.45871559633,4,2,2,30,1,0
5398,-90.9090909090909,4,2,2,30,0,0
5432,-90.9090909090909,4,2,2,30,0,0
5948,-90.9090909090909,4,2,1,30,0,0
14205,-90.9090909090909,4,2,2,30,0,0
14239,-90.9090909090909,4,2,1,30,0,0
14755,-90.9090909090909,4,2,1,30,0,0
18333,-90.9090909090909,4,2,1,5,0,0
18609,-90.9090909090909,4,2,1,30,0,0
23012,-90.9090909090909,4,2,2,30,0,0
23047,-90.9090909090909,4,2,1,30,0,0
23425,-90.9090909090909,4,2,1,5,0,0
23563,-90.9090909090909,4,2,1,30,0,0
31820,-90.9090909090909,4,2,2,30,0,0
31854,-90.9090909090909,4,2,1,30,0,0
32232,-90.9090909090909,4,2,1,5,0,0
32370,-90.9090909090909,4,2,1,30,0,0
39801,-90.9090909090909,4,2,1,45,0,0
40627,-76.9230769230769,4,2,1,75,0,1
57416,-76.9230769230769,4,2,1,75,0,1
58242,-76.9230769230769,4,2,1,75,0,1
75306,-76.9230769230769,4,2,1,45,0,0
75856,-83.3333333333333,4,2,1,50,0,0

[Colours]
Combo1 : 207,201,148
Combo2 : 164,164,210
Combo3 : 225,91,95
Combo4 : 143,203,172

[HitObjects]
256,192,2644,12,0,5121,0:0:0:0:
69,51,5398,6,0,L|222:61,1,154.000004699707,2|2,3:2|0:0,0:0:0:0:
310,109,6223,1,2,3:2:0:0:
310,109,7324,1,2,0:0:0:0:
400,66,7599,2,0,P|412:103|406:140,2,77.0000023498536,2|2|2,0:0|0:0|0:0,0:0:0:0:
310,109,8425,1,2,0:0:0:0:
310,109,9526,1,2,0:0:0:0:
389,170,9801,6,0,L|373:323,1,154.000004699707,2|2,3:2|0:0,0:0:0:0:
287,374,10627,2,0,P|213:365|182:298,1,154.000004699707,2|2,3:2|0:0,0:0:0:0:
237,215,11453,1,2,0:0:0:0:
237,215,13654,2,0,B|197:208|197:208|162:218,1,77.0000023498536,2|0,0:1|0:0,0:0:0:0:
72,263,14205,6,0,P|57:190|110:137,1,154.000004699707,2|2,3:2|0:0,0:0:0:0:
200,181,15031,1,2,3:2:0:0:
200,181,16131,1,2,0:0:0:0:
272,111,16407,2,0,L|348:105,2,77.0000023498536,2|2|2,0:0|0:0|0:0,0:0:0:0:
200,181,17232,1,2,0:0:0:0:
259,261,17508,1,2,0:0:0:0:
259,261,18609,6,0,B|317:266|317:266|340:290|340:290|402:297,1,154.000004699707,2|2,3:2|0:0,0:0:0:0:
479,233,19434,2,0,P|460:165|392:181,1,154.000004699707,2|2,3:2|0:0,0:0:0:0:
298,216,20260,1,2,0:0:0:0:
298,216,22462,2,0,B|283:183|283:183|294:144,1,77.0000023498536,2|0,0:1|0:0,0:0:0:0:
346,58,23012,6,0,P|273:40|214:86,1,154.000004699707,2|2,3:2|0:0,0:0:0:0:
192,182,23838,1,2,3:2:0:0:
192,182,24939,1,2,0:0:0:0:
118,114,25214,2,0,P|80:111|47:131,2,77.0000023498536,2|2|2,0:0|0:0|0:0,0:0:0:0:
192,182,26040,1,2,0:0:0:0:
127,258,26315,1,2,0:0:0:0:
127,258,27141,1,2,0:0:0:0:
127,258,27416,6,0,L|279:281,1,154.000004699707,2|0,3:2|0:0,0:0:0:0:
362,226,28242,2,0,B|383:133|383:133|354:81,1,154.000004699707,2|0,3:2|0:0,0:0:0:0:
271,25,29067,1,2,0:0:0:0:
127,165,29618,2,0,L|241:153,2,115.50000352478,2|0|2,0:0|0:0|0:0,0:0:0:0:
127,165,31269,2,0,B|114:202|114:202|124:238,1,77.0000023498536,2|0,0:1|0:0,0:0:0:0:
95,334,31820,6,0,P|169:327|217:269,1,154.000004699707,2|0,3:2|0:0,0:0:0:0:
224,173,32645,1,2,3:2:0:0:
224,173,32920,2,0,L|300:180,1,77.0000023498536,2|2,0:0|0:0,0:0:0:0:
381,239,33471,1,2,0:0:0:0:
443,161,33746,1,2,0:0:0:0:
443,161,35397,2,0,P|451:123|437:88,2,77.0000023498536,2|2|2,0:0|0:0|0:0,0:0:0:0:
381,239,36223,6,0,B|342:260|291:248|291:248|264:286|264:286|215:276|174:295,1,231.000007049561,0|0,3:0|3:0,0:0:0:0:
256,192,38425,12,0,39526,0:0:0:0:
174,295,40627,6,0,P|144:221|222:206,1,181.999991668702,4|8,3:2|0:0,0:0:0:0:
292,314,41453,1,2,0:0:0:0:
292,314,41590,1,0,0:0:0:0:
292,314,41728,1,0,3:0:0:0:
383,239,42003,2,0,P|389:194|372:152,2,90.9999958343508,2|10|2,0:0|0:0|0:0,0:0:0:0:
495,275,42829,6,0,P|507:186|473:102,1,181.999991668702,0|8,3:0|0:0,0:0:0:0:
383,44,43654,1,2,0:0:0:0:
383,44,43792,1,0,0:0:0:0:
383,44,43930,1,0,3:0:0:0:
335,152,44205,2,0,P|294:170|250:161,1,90.9999958343508,2|10,0:0|0:0,0:0:0:0:
171,88,44755,1,2,0:0:0:0:
171,88,44893,1,0,0:0:0:0:
171,88,45031,5,0,3:0:0:0:
81,164,45306,2,0,L|91:254,1,90.9999958343508,2|10,0:0|0:0,0:0:0:0:
14,344,45856,2,0,L|19:298,2,45.4999979171754,2|0|0,0:0|0:0|3:0,0:0:0:0:
91,254,46407,2,0,P|135:244|174:266,1,90.9999958343508,2|10,0:0|0:0,0:0:0:0:
248,371,46957,1,0,0:0:0:0:
248,371,47095,1,0,0:0:0:0:
248,371,47232,5,0,3:0:0:0:
300,264,47508,2,0,L|289:173,1,90.9999958343508,2|8,0:0|0:0,0:0:0:0:
250,72,48058,1,2,0:0:0:0:
250,72,48196,1,0,0:0:0:0:
250,72,48333,2,0,P|338:70|386:142,1,181.999991668702,0|8,3:0|0:0,0:0:0:0:
302,225,49159,1,2,3:2:0:0:
302,225,49297,1,0,0:0:0:0:
302,225,49434,6,0,L|211:232,1,90.9999958343508,4|2,3:2|0:0,0:0:0:0:
115,302,49985,1,10,0:0:0:0:
24,225,50260,2,0,L|31:180,3,45.4999979171754,2|0|0|0,0:0|0:0|3:0|0:0,0:0:0:0:
69,135,50810,2,0,L|56:44,1,90.9999958343508,0|8,0:0|0:0,0:0:0:0:
176,89,51361,1,2,0:0:0:0:
176,89,51636,6,0,L|266:97,1,90.9999958343508,2|2,3:2|0:0,0:0:0:0:
364,164,52186,1,10,0:0:0:0:
454,87,52462,2,0,L|462:131,3,45.4999979171754,2|0|0|8,0:0|0:0|3:0|0:0,0:0:0:0:
478,188,53012,2,0,L|464:277,1,90.9999958343508,2|10,0:0|0:0,0:0:0:0:
376,358,53563,1,2,0:0:0:0:
283,284,53838,5,6,3:2:0:0:
322,172,54113,2,0,L|140:186,1,181.999991668702,2|2,0:0|0:0,0:0:0:0:
140,186,54801,1,0,0:0:0:0:
140,186,54939,1,0,3:0:0:0:
65,277,55214,1,2,0:0:0:0:
145,363,55489,2,0,L|235:370,1,90.9999958343508,14|2,0:0|0:0,0:0:0:0:
336,308,56040,5,4,3:2:0:0:
256,220,56315,2,0,P|238:178|253:136,1,90.9999958343508,2|14,0:0|0:0,0:0:0:0:
345,61,56865,1,2,0:0:0:0:
442,146,57141,1,4,3:2:0:0:
442,146,57278,1,0,3:0:0:0:
442,146,57416,1,2,3:2:0:0:
345,61,57691,1,6,3:2:0:0:
279,159,57966,1,2,3:2:0:0:
167,118,58242,6,0,B|103:126|103:126|74:155|74:155|-1:167,1,181.999991668702,4|8,3:2|0:0,0:0:0:0:
62,288,59067,1,2,0:0:0:0:
62,288,59205,1,0,0:0:0:0:
62,288,59342,1,0,3:0:0:0:
173,246,59618,2,0,L|164:336,2,90.9999958343508,2|10|2,0:0|0:0|0:0,0:0:0:0:
268,176,60443,6,0,P|353:175|386:254,1,181.999991668702,0|8,3:0|0:0,0:0:0:0:
278,287,61269,1,2,0:0:0:0:
278,287,61407,1,0,0:0:0:0:
278,287,61544,1,0,3:0:0:0:
268,176,61820,2,0,L|257:85,1,90.9999958343508,2|10,0:0|0:0,0:0:0:0:
180,10,62370,1,6,0:0:0:0:
180,10,62508,1,0,0:0:0:0:
180,10,62645,5,0,3:2:0:0:
91,88,62920,2,0,L|80:178,1,90.9999958343508,6|10,0:0|0:0,0:0:0:0:
178,261,63471,1,6,0:0:0:0:
178,261,63609,1,0,0:0:0:0:
178,261,63746,1,0,3:0:0:0:
129,368,64021,2,0,P|172:383|216:372,1,90.9999958343508,2|10,0:0|0:0,0:0:0:0:
299,289,64572,1,2,0:0:0:0:
404,342,64847,6,0,P|420:300|411:256,1,90.9999958343508,6|2,3:2|0:0,0:0:0:0:
324,176,65397,1,8,0:0:0:0:
427,113,65673,1,2,0:0:0:0:
427,113,65810,1,0,0:0:0:0:
427,113,65948,2,0,L|421:67,1,45.4999979171754,0|0,3:0|3:0,0:0:0:0:
324,9,66361,1,0,3:0:0:0:
324,9,66498,2,0,L|278:14,3,45.4999979171754,8|0|0|0,3:2|3:0|3:0|3:0,0:0:0:0:
237,57,67049,6,0,B|143:84|155:11|64:29,1,181.999991668702,4|8,3:2|0:0,0:0:0:0:
91,153,67875,1,2,0:0:0:0:
91,153,68012,1,0,0:0:0:0:
91,153,68150,2,0,L|85:243,1,90.9999958343508,2|2,3:2|0:2,0:0:0:0:
161,334,68700,2,0,P|203:348|246:335,1,90.9999958343508,10|2,0:0|0:0,0:0:0:0:
319,242,69251,6,0,B|337:130|337:130|297:74,1,181.999991668702,6|10,3:2|0:0,0:0:0:0:
421,61,70076,1,2,0:0:0:0:
421,61,70214,1,0,0:0:0:0:
421,61,70352,2,0,L|440:149,1,90.9999958343508,0|2,3:0|0:0,0:0:0:0:
414,265,70902,1,8,0:0:0:0:
329,181,71177,1,6,0:0:0:0:
254,272,71453,6,0,P|169:294|106:234,1,181.999991668702,6|10,3:2|0:0,0:0:0:0:
144,128,72278,1,2,0:0:0:0:
144,128,72416,1,0,0:0:0:0:
144,128,72553,2,0,P|183:147|196:190,1,90.9999958343508,4|2,3:2|0:0,0:0:0:0:
164,304,73104,2,0,L|170:349,3,45.4999979171754,10|0|0|0,0:0|0:0|0:0|0:0,0:0:0:0:
224,373,73654,6,0,P|268:374|302:345,1,90.9999958343508,0|4,3:0|0:0,0:0:0:0:
330,229,74205,2,0,L|322:138,1,90.9999958343508,0|4,3:0|0:0,0:0:0:0:
269,32,74755,2,0,L|224:41,1,45.4999979171754,4|0,3:2|3:0,0:0:0:0:
127,109,75168,2,0,L|82:99,1,45.4999979171754,0|4,3:0|3:2,0:0:0:0:
210,276,75856,6,0,B|237:197|237:197|205:118,1,167.999994873047,6|2,3:2|3:0,0:0:0:0:
297,56,76682,1,2,3:0:0:0:
389,114,76957,2,0,L|429:104,2,41.9999987182618,2|0|0,3:2|0:0|0:0,0:0:0:0:
372,221,77508,2,0,P|414:222|451:202,1,83.9999974365235,2|2,3:1|3:1,0:0:0:0:
512,304,78058,5,0,3:0:0:0:
512,304,78196,1,0,0:0:0:0:
512,304,78333,1,2,0:3:0:0:
424,369,78609,2,0,L|298:358,1,125.999996154785,0|0,3:0|0:0,0:0:0:0:
243,353,79159,1,2,3:3:0:0:
138,383,79434,1,2,0:3:0:0:
108,277,79709,1,2,3:3:0:0:
213,247,79984,1,2,0:0:0:0:
108,277,80260,6,0,B|91:191|149:197|138:115,1,167.999994873047,6|2,3:2|3:0,0:0:0:0:
106,11,81086,1,2,3:0:0:0:
212,35,81361,2,0,L|253:39,2,41.9999987182618,2|0|0,3:2|0:0|0:0,0:0:0:0:
138,116,81911,2,0,P|97:108|57:121,1,83.9999974365235,2|2,3:1|0:1,0:0:0:0:
8,223,82462,5,0,3:0:0:0:
8,223,82599,1,0,0:0:0:0:
8,223,82737,1,2,0:3:0:0:
96,286,83012,2,0,B|158:272|158:272|216:292,1,125.999996154785,0|0,3:0|3:0,0:0:0:0:
266,316,83563,1,6,3:2:0:0:
342,237,83838,1,2,3:3:0:0:
438,287,84113,2,0,L|443:245,3,41.9999987182618,6|0|4|4,3:2|3:0|3:2|3:0,0:0:0:0:
454,191,84664,6,0,L|431:24,1,167.999994873047,6|2,3:2|3:0,0:0:0:0:
324,3,85489,1,2,3:0:0:0:
240,73,85764,2,0,L|234:114,2,41.9999987182618,2|0|0,3:2|0:0|0:0,0:0:0:0:
155,3,86315,2,0,P|113:0|79:23,1,83.9999974365235,2|2,3:1|0:1,0:0:0:0:
134,129,86865,5,0,3:0:0:0:
134,129,87003,1,0,0:0:0:0:
134,129,87141,1,2,0:3:0:0:
57,206,87416,2,0,P|117:211|151:261,1,125.999996154785,0|0,3:0|0:0,0:0:0:0:
146,316,87966,1,2,3:3:0:0:
249,351,88242,1,2,0:3:0:0:
279,246,88517,1,2,3:3:0:0:
176,211,88793,1,2,0:0:0:0:
279,246,89067,6,0,B|311:177|311:177|279:90,1,167.999994873047,6|2,3:2|3:0,0:0:0:0:
356,13,89893,1,2,3:0:0:0:
444,76,90168,2,0,L|485:69,2,41.9999987182618,2|0|0,3:2|0:0|0:0,0:0:0:0:
397,175,90719,2,0,L|410:257,1,83.9999974365235,2|2,3:1|3:1,0:0:0:0:
469,361,91269,5,0,3:0:0:0:
469,361,91407,1,0,0:0:0:0:
469,361,91544,1,2,0:3:0:0:
363,331,91820,2,0,B|299:315|303:363|241:346,1,125.999996154785,0|0,3:0|0:0,0:0:0:0:
190,326,92370,1,4,3:2:0:0:
95,380,92645,1,2,3:3:0:0:
23,297,92920,2,0,L|15:255,3,41.9999987182618,6|0|4|4,3:2|3:0|3:2|3:0,0:0:0:0:
4,201,93471,5,6,0:0:0:0:
