osu file format v14

[General]
AudioFilename: audio.mp3
AudioLeadIn: 0
PreviewTime: 39664
Countdown: 0
SampleSet: Soft
StackLeniency: 0.5
Mode: 0
LetterboxInBreaks: 0
WidescreenStoryboard: 0

[Editor]
Bookmarks: 13614,22422,31229,40587,49394,58202,65908,73614,75816,93431
DistanceSpacing: 1.4
BeatDivisor: 4
GridSize: 4
TimelineZoom: 4.299998

[Metadata]
Title:Naraku no Hana (TV Size)
TitleUnicode:奈落の花 (TV Size)
Artist:Shimamiya Eiko
ArtistUnicode:島みやえい子
Creator:discode
Version:Flower of Hell
Source:ひぐらしのなく頃に解
Tags:07th expansion when they cry wtc cicadas higurashi no naku koro ni kai 2nd season 2 two op opening short ver version anime japanese jpop j-pop pop SHOGUNMOON00999 [[Pause]] Lunicia Houtaro Subahibi kleune Phynta fooders kyrie irving nik nikolomara bbj0920 _todestrieb awayuru isome itscactus azamaki
BeatmapID:3501642
BeatmapSetID:1713658

[Difficulty]
HPDrainRate:6
CircleSize:5
OverallDifficulty:8.5
ApproachRate:8
SliderMultiplier:1.6
SliderTickRate:1

[Events]
//Background and Video events
Video,749,"Higurashi no Naku Koro ni Kai NCOP_Trim (no audio).mp4"
0,0,"cover (2) (1).jpg",0,0
//Break Periods
//Storyboard Layer 0 (Background)
//Storyboard Layer 1 (Fail)
//Storyboard Layer 2 (Pass)
//Storyboard Layer 3 (Foreground)
//Storyboard Layer 4 (Overlay)
//Storyboard Sound Samples

[TimingPoints]
443,550.45871559633,4,2,1,60,1,0
443,-50,4,2,1,60,0,0
1268,-50,4,2,1,40,0,0
2094,-50,4,2,1,20,0,0
5398,550.45871559633,4,2,2,30,1,0
5398,-100,4,2,2,30,0,0
5948,-100,4,2,1,30,0,0
14205,-100,4,2,2,30,0,0
14239,-100,4,2,1,30,0,0
14755,-100,4,2,1,30,0,0
18333,-100,4,2,1,5,0,0
18609,-100,4,2,1,30,0,0
23012,-100,4,2,2,30,0,0
23047,-100,4,2,1,30,0,0
23425,-100,4,2,1,5,0,0
23563,-100,4,2,1,30,0,0
31820,-100,4,2,2,30,0,0
31854,-100,4,2,1,30,0,0
32232,-100,4,2,1,5,0,0
32370,-100,4,2,1,30,0,0
39801,-55.5555555555556,4,2,1,45,0,0
40627,-50,4,2,1,75,0,1
48884,-55.5555555555556,4,2,1,75,0,1
49434,-50,4,2,1,75,0,1
57416,-50,4,2,1,75,0,0
58242,-50,4,2,1,75,0,1
75306,-66.6666666666667,4,2,1,45,0,0
75856,-55.5555555555556,4,2,1,50,0,0

[Colours]
Combo1 : 207,201,148
Combo2 : 164,164,210
Combo3 : 225,91,95
Combo4 : 143,203,172

[HitObjects]
286,264,443,6,0,L|127:271,2,160,2|2|0,0:1|0:1|0:0,0:0:0:0:
80,203,1268,6,0,B|38:275|38:275|81:341,2,160,2|2|0,0:1|0:1|0:0,0:0:0:0:
338,329,2094,6,0,B|379:264|379:264|337:192,2,160,2|2|0,0:1|0:1|0:0,0:0:0:0:
256,192,2782,12,0,5121,0:0:0:0:
0,94,5398,6,0,P|49:153|127:156,1,160,2|2,3:2|0:0,0:0:0:0:
168,40,6223,2,0,P|123:52|104:80,2,80,2|0|0,3:2|0:0|0:0,0:0:0:0:
512,91,7324,5,2,0:0:0:0:
442,119,7599,1,2,0:0:0:0:
385,72,7875,1,2,0:0:0:0:
414,4,8150,1,2,0:0:0:0:
336,121,8425,6,0,L|162:105,1,160,2|0,0:0|0:0,0:0:0:0:
384,346,9526,5,2,0:0:0:0:
322,310,9801,2,0,P|326:265|361:227,1,80,2|0,3:2|0:0,0:0:0:0:
248,192,10352,1,2,0:0:0:0:
186,228,10627,2,0,P|190:273|225:311,1,80,2|0,3:2|0:0,0:0:0:0:
146,370,11177,1,2,0:0:0:0:
74,379,11453,2,0,P|40:357|23:322,1,80,2|0,0:0|0:0,0:0:0:0:
109,84,13379,5,0,0:0:0:0:
173,100,13654,2,0,L|187:99,8,10,2|0|0|0|0|0|0|0|0,0:1|0:0|0:0|0:0|0:0|0:0|0:0|0:0|0:0,0:0:0:0:
297,112,14205,6,0,P|238:107|179:213,1,160,2|2,3:2|0:0,0:0:0:0:
119,261,15031,2,0,P|88:236|81:197,2,80,2|0|0,3:2|0:0|0:0,0:0:0:0:
362,359,16131,5,2,0:0:0:0:
291,338,16407,1,2,0:0:0:0:
260,270,16682,1,2,0:0:0:0:
272,198,16957,1,2,0:0:0:0:
336,162,17232,5,2,0:0:0:0:
436,188,17508,2,0,P|346:210|299:83,1,240,2|0,0:0|0:0,0:0:0:0:
240,9,18609,6,0,P|200:30|181:80,1,80,2|0,3:2|0:0,0:0:0:0:
54,27,19159,1,2,0:0:0:0:
27,95,19434,2,0,P|48:135|98:154,1,80,2|0,3:2|0:0,0:0:0:0:
51,269,19985,1,2,0:0:0:0:
119,296,20260,2,0,P|159:275|178:225,1,80,2|0,0:0|0:0,0:0:0:0:
411,236,22462,6,0,L|397:235,8,10,2|0|0|0|0|0|0|0|0,0:1|0:0|0:0|0:0|0:0|0:0|0:0|0:0|0:0,0:0:0:0:
491,264,23012,6,0,P|411:271|327:290,1,160,2|2,3:2|0:0,0:0:0:0:
257,347,23838,2,0,P|221:330|204:295,2,80,2|0|0,3:2|0:0|0:0,0:0:0:0:
327,173,24939,5,2,0:0:0:0:
268,218,25214,2,0,P|228:214|186:205,1,80,2|2,0:0|0:0,0:0:0:0:
38,91,25764,5,2,0:0:0:0:
7,162,26040,1,2,0:0:0:0:
72,211,26315,2,0,P|136:199|166:99,1,160,2|0,0:0|0:0,0:0:0:0:
10,14,27141,5,2,0:0:0:0:
101,50,27416,2,0,P|179:32|258:25,1,160,2|0,3:2|0:0,0:0:0:0:
418,121,28242,6,0,P|491:102|506:28,1,160,2|0,3:2|0:0,0:0:0:0:
298,123,29067,2,0,P|303:163|323:197,1,80,2|0,0:0|0:0,0:0:0:0:
496,339,29618,6,0,P|456:342|417:351,1,80,2|0,0:0|0:0,0:0:0:0:
254,292,30168,1,0,0:0:0:0:
254,292,30443,2,0,P|333:285|411:267,1,160,2|0,0:0|0:0,0:0:0:0:
103,357,31269,6,0,L|89:356,8,10,2|0|0|0|0|0|0|0|0,0:1|0:0|0:0|0:0|0:0|0:0|0:0|0:0|0:0,0:0:0:0:
179,342,31820,6,0,P|217:306|197:196,1,160,2|0,3:2|0:0,0:0:0:0:
73,209,32645,2,0,P|97:248|151:245,2,80,2|2|2,3:2|0:0|0:0,0:0:0:0:
287,98,33471,1,2,0:0:0:0:
287,98,33746,2,0,P|209:116|129:123,1,160,2|0,0:0|0:0,0:0:0:0:
486,183,35397,6,0,P|447:174|407:171,2,80,2|2|2,0:0|0:0|0:0,0:0:0:0:
378,67,36223,1,0,3:0:0:0:
374,74,37049,1,0,3:0:0:0:
256,192,38425,12,0,39526,0:0:0:0:
197,368,39801,6,0,L|203:294,1,71.9999978027344,2|0,0:0|0:0,0:0:0:0:
316,284,40076,6,0,L|309:212,1,71.9999978027344,2|0,0:0|0:0,0:0:0:0:
148,197,40352,6,0,L|154:125,1,71.9999978027344,2|0,0:0|0:0,0:0:0:0:
129,29,40627,6,0,P|166:95|265:90,1,160,4|2,3:2|0:0,0:0:0:0:
457,0,41040,1,0,0:0:0:0:
384,112,41177,2,0,B|344:100|344:100|323:43,1,80,8|0,0:0|0:0,0:0:0:0:
496,249,41453,5,2,0:0:0:0:
469,184,41590,2,0,B|433:197|433:197|421:237,1,80,0|0,0:0|3:0,0:0:0:0:
360,370,41865,5,0,0:0:0:0:
273,289,42003,2,0,P|313:293|352:302,1,80,2|0,0:0|0:0,0:0:0:0:
317,185,42278,2,0,P|239:202|160:210,1,160,10|2,0:0|0:0,0:0:0:0:
90,27,42691,5,0,0:0:0:0:
142,99,42829,2,0,P|180:107|220:111,1,80,0|0,3:0|0:0,0:0:0:0:
266,28,43104,5,2,0:0:0:0:
172,0,43242,1,0,0:0:0:0:
84,168,43379,2,0,P|45:176|5:180,1,80,8|0,0:0|0:0,0:0:0:0:
0,316,43654,5,2,0:0:0:0:
58,351,43792,2,0,P|90:318|93:284,1,80,0|0,0:0|3:0,0:0:0:0:
252,218,44067,5,0,0:0:0:0:
160,210,44205,2,0,P|166:248|195:274,1,80,2|0,0:0|0:0,0:0:0:0:
329,228,44480,2,0,P|341:190|327:154,1,80,10|0,0:0|0:0,0:0:0:0:
229,363,44755,2,0,P|285:319|388:319,1,160,2|0,0:0|3:0,0:0:0:0:
493,381,45168,5,0,0:0:0:0:
453,309,45306,2,0,P|461:271|465:231,1,80,2|0,0:0|0:0,0:0:0:0:
372,128,45581,2,0,P|348:160|322:190,1,80,10|0,0:0|0:0,0:0:0:0:
146,85,45856,2,0,P|221:59|294:26,1,160,2|0,0:0|3:0,0:0:0:0:
44,42,46269,5,0,0:0:0:0:
59,126,46407,2,0,P|33:201|0:273,1,160,2|10,0:0|0:0,0:0:0:0:
82,343,46820,1,0,0:0:0:0:
163,300,46957,2,0,P|176:262|194:226,1,80
85,334,47232,5,0,3:0:0:0:
251,374,47370,1,0,0:0:0:0:
153,384,47508,1,2,0:0:0:0:
188,220,47645,1,0,0:0:0:0:
326,289,47783,6,0,P|286:284|247:276,1,80,8|0,0:0|0:0,0:0:0:0:
182,214,48058,2,0,P|221:209|260:201,1,80,2|0,0:0|0:0,0:0:0:0:
472,333,48333,6,0,P|381:319|398:176,1,240,0|0,3:0|0:0,0:0:0:0:
473,91,48884,2,0,L|459:234,1,143.999995605469,8|2,0:0|3:2,0:0:0:0:
390,111,49297,5,0,0:0:0:0:
304,138,49434,2,0,L|311:55,1,80,4|0,3:2|0:0,0:0:0:0:
113,213,49709,2,0,L|120:292,1,80,2|0,0:0|0:0,0:0:0:0:
326,279,49985,6,0,P|287:270|247:266,1,80,10|0,0:0|0:0,0:0:0:0:
114,85,50260,2,0,P|153:81|192:72,1,80,2|0,0:0|0:0,0:0:0:0:
233,134,50535,5,0,3:0:0:0:
233,134,50673,1,0,0:0:0:0:
346,203,50810,1,0,0:0:0:0:
346,203,51086,2,0,P|384:212|424:216,1,80,8|0,0:0|0:0,0:0:0:0:
247,266,51361,5,2,0:0:0:0:
105,328,51498,1,2,0:0:0:0:
63,147,51636,2,0,P|58:107|50:68,1,80,2|0,3:2|0:0,0:0:0:0:
240,32,51911,6,0,P|231:71|227:110,1,80,2|0,0:0|0:0,0:0:0:0:
154,176,52186,2,0,P|145:96|128:18,1,160,10|2,0:0|0:0,0:0:0:0:
316,238,52599,5,0,0:0:0:0:
343,309,52737,1,0,3:0:0:0:
243,258,52875,1,8,0:0:0:0:
387,178,53012,1,2,0:0:0:0:
387,178,53287,2,0,P|426:173|465:165,1,80,10|0,0:0|0:0,0:0:0:0:
259,381,53563,6,0,P|221:355|215:311,1,80,2|0,0:0|0:0,0:0:0:0:
400,258,53838,2,0,P|387:295|353:315,1,80,6|0,3:2|0:0,0:0:0:0:
130,348,54113,2,0,P|90:343|51:335,1,80,2|0,0:0|0:0,0:0:0:0:
434,370,54388,2,0,P|473:365|512:357,1,80,10|0,0:0|0:0,0:0:0:0:
381,136,54664,2,0,P|319:168|316:281,1,160,2|0,0:0|3:0,0:0:0:0:
52,185,55214,6,0,P|21:173|0:120,1,80,2|0,0:0|0:0,0:0:0:0:
79,103,55489,2,0,P|73:70|109:25,1,80,14|0,0:0|0:0,0:0:0:0:
163,93,55764,2,0,P|188:72|245:80,1,80,2|0,0:0|0:0,0:0:0:0:
307,257,56040,5,4,3:2:0:0:
220,172,56177,1,0,0:0:0:0:
90,303,56315,1,2,0:0:0:0:
90,303,56590,2,0,P|93:264|121:237,1,80,14|0,0:0|0:0,0:0:0:0:
176,344,56865,2,0,P|215:347|242:375,1,80,2|0,0:0|0:0,0:0:0:0:
349,318,57141,5,4,3:2:0:0:
416,254,57278,1,0,3:0:0:0:
248,378,57416,6,0,L|254:297,1,80,2|0,3:2|0:0,0:0:0:0:
335,198,57691,6,0,L|328:117,1,80,6|0,3:2|0:0,0:0:0:0:
180,136,57966,6,0,L|186:55,1,80,2|0,3:2|0:0,0:0:0:0:
110,219,58242,6,0,P|183:170|274:175,1,160,4|2,3:2|0:0,0:0:0:0:
419,28,58654,1,0,0:0:0:0:
378,160,58792,2,0,B|338:148|338:148|324:112,1,80,8|0,0:0|0:0,0:0:0:0:
497,282,59067,5,2,0:0:0:0:
437,243,59205,2,0,B|449:203|449:203|484:189,1,80,0|0,0:0|3:0,0:0:0:0:
382,330,59480,5,0,0:0:0:0:
299,242,59618,2,0,P|290:280|286:320,1,80,2|0,0:0|0:0,0:0:0:0:
0,373,59893,2,0,P|17:294|24:215,1,160,10|2,0:0|0:0,0:0:0:0:
223,150,60306,5,0,0:0:0:0:
170,242,60443,2,0,P|173:281|182:320,1,80,0|0,3:0|0:0,0:0:0:0:
20,209,60719,5,2,0:0:0:0:
97,266,60856,1,0,0:0:0:0:
112,141,60994,2,0,P|108:101|100:62,1,80,8|0,0:0|0:0,0:0:0:0:
306,145,61269,2,0,P|218:91|232:25,1,160,2|0,0:0|3:0,0:0:0:0:
397,89,61682,5,0,0:0:0:0:
455,128,61820,2,0,B|469:166|469:166|448:199,1,80,2|0,0:0|0:0,0:0:0:0:
227,227,62095,2,0,P|266:235|305:238,1,80,10|0,0:0|0:0,0:0:0:0:
479,325,62370,2,0,P|399:332|320:347,1,160,6|0,0:0|3:2,0:0:0:0:
220,45,62920,6,0,P|223:89|200:120,1,80,6|0,0:0|0:0,0:0:0:0:
49,98,63196,2,0,P|29:64|34:25,1,80,10|0,0:0|0:0,0:0:0:0:
146,0,63471,2,0,P|130:78|123:158,1,160,6|0,0:0|3:0,0:0:0:0:
460,310,64021,6,0,P|488:283|494:244,1,80,2|0,0:0|0:0,0:0:0:0:
341,157,64297,2,0,P|355:193|343:231,1,80,10|0,0:0|0:0,0:0:0:0:
209,273,64572,2,0,P|200:234|169:210,1,80,2|0,0:0|0:0,0:0:0:0:
408,355,64847,2,0,P|329:339|250:333,1,160,6|2,3:2|0:0,0:0:0:0:
406,52,65397,2,0,P|327:68|248:74,1,160,8|2,0:0|0:0,0:0:0:0:
0,262,65948,5,0,3:0:0:0:
163,186,66086,2,0,L|83:179,1,80,0|2,3:0|0:0,0:0:0:0:
0,69,66361,5,0,3:0:0:0:
83,277,66498,1,8,3:2:0:0:
0,178,66636,1,0,3:0:0:0:
106,66,66774,1,0,3:0:0:0:
78,175,66911,1,0,3:0:0:0:
220,270,67049,6,0,P|278:233|267:133,1,160,4|0,3:2|0:0,0:0:0:0:
170,191,67462,1,0,0:0:0:0:
291,339,67599,2,0,P|370:345|449:361,1,160,8|2,0:0|0:0,0:0:0:0:
512,133,68012,5,0,0:0:0:0:
468,199,68150,2,0,P|428:207|388:210,1,80,2|0,3:2|0:0,0:0:0:0:
217,14,68425,2,0,P|256:17|296:24,1,80,2|0,0:2|0:0,0:0:0:0:
245,207,68700,6,0,P|207:178|218:107,1,80,10|0,0:0|0:0,0:0:0:0:
424,53,68975,2,0,P|411:90|378:111,1,80,2|0,0:0|0:0,0:0:0:0:
42,202,69251,6,0,P|35:122|19:43,1,160,6|0,3:2|0:0,0:0:0:0:
203,142,69664,1,0,0:0:0:0:
108,63,69801,2,0,P|117:102|120:142,1,80,10|0,0:0|0:0,0:0:0:0:
35,371,70076,6,0,P|76:320|170:319,1,160,2|0,0:0|3:0,0:0:0:0:
312,269,70489,1,0,0:0:0:0:
242,216,70627,2,0,B|228:254|228:254|245:309,1,80,2|0,0:0|0:0,0:0:0:0:
385,312,70902,2,0,B|396:274|396:274|382:236,1,80,8|0,0:0|0:0,0:0:0:0:
175,57,71177,6,0,L|88:49,1,80,6|0,0:0|0:0,0:0:0:0:
251,115,71453,2,0,P|326:52|308:-14,1,160,6|0,3:2|0:0,0:0:0:0:
36,128,71865,5,0,0:0:0:0:
92,185,72003,2,0,L|171:177,1,80,10|0,0:0|0:0,0:0:0:0:
468,253,72278,2,0,P|388:259|309:274,1,160,2|4,0:0|3:2,0:0:0:0:
151,373,72691,5,0,0:0:0:0:
184,250,72829,2,0,B|217:274|217:274|210:336,1,80,2|0,0:0|0:0,0:0:0:0:
67,367,73104,2,0,B|17:310|17:310|51:229,1,160,10|0,0:0|0:0,0:0:0:0:
399,48,73654,5,0,3:0:0:0:
483,82,73792,1,0,0:0:0:0:
293,234,73930,2,0,P|296:194|303:154,1,80,4|0,0:0|0:0,0:0:0:0:
206,71,74205,2,0,P|213:110|216:150,1,80,0|0,3:0|0:0,0:0:0:0:
384,200,74480,2,0,P|391:119|406:40,1,160,4|4,0:0|3:2,0:0:0:0:
184,221,74893,5,0,3:0:0:0:
25,138,75031,1,4,3:2:0:0:
127,68,75168,1,0,3:0:0:0:
37,31,75306,2,0,P|54:122|62:215,1,180.000006866455,4|0,3:2|0:0,0:0:0:0:
385,331,75856,6,0,P|435:313|445:215,1,143.999995605469,6|0,3:2|0:0,0:0:0:0:
253,185,76269,6,0,P|297:238|367:239,1,143.999995605469,2|0,0:3|0:0,0:0:0:0:
372,160,76682,6,0,P|343:139|300:141,1,71.9999978027344,2|0,3:0|0:0,0:0:0:0:
236,90,76957,6,0,P|174:121|166:189,1,143.999995605469,2|0,3:2|0:0,0:0:0:0:
460,129,77508,5,2,3:1:0:0:
462,118,77645,1,0,0:0:0:0:
464,107,77783,1,2,3:1:0:0:
208,0,78058,5,0,3:0:0:0:
311,66,78196,1,0,0:0:0:0:
20,122,78333,6,0,B|1:91|1:91|17:25,1,71.9999978027344,2|2,0:3|0:3,0:0:0:0:
118,0,78609,2,0,B|126:34|126:34|107:65,1,71.9999978027344,0|2,3:0|0:3,0:0:0:0:
12,300,78884,5,2,0:3:0:0:
134,263,79021,1,0,0:0:0:0:
254,369,79159,6,0,P|280:338|271:288,1,71.9999978027344,2|2,3:3|0:3,0:0:0:0:
352,277,79434,2,0,P|338:238|290:221,1,71.9999978027344,2|0,0:3|0:0,0:0:0:0:
97,183,79709,6,0,P|67:203|57:236,1,71.9999978027344,2|0,3:3|0:0,0:0:0:0:
129,268,79984,2,0,P|131:303|155:329,1,71.9999978027344,2|0,0:0|0:0,0:0:0:0:
487,338,80260,6,0,L|503:164,1,143.999995605469,6|0,3:2|0:0,0:0:0:0:
335,16,80673,6,0,L|348:159,1,143.999995605469,2|0,0:3|0:0,0:0:0:0:
443,111,81086,6,0,L|449:39,1,71.9999978027344,2|0,3:0|0:0,0:0:0:0:
233,58,81361,6,0,L|246:201,1,143.999995605469,2|0,3:2|0:0,0:0:0:0:
383,369,81911,5,2,3:1:0:0:
394,367,82048,1,0,0:0:0:0:
405,365,82186,1,2,0:1:0:0:
164,319,82462,5,0,3:0:0:0:
37,286,82599,1,0,0:0:0:0:
268,293,82737,6,0,B|279:330|279:330|261:378,1,71.9999978027344,2|2,0:3|0:3,0:0:0:0:
159,314,83012,2,0,B|147:282|147:282|158:245,1,71.9999978027344,0|2,3:0|0:3,0:0:0:0:
241,28,83287,5,2,0:3:0:0:
309,134,83425,1,0,3:0:0:0:
80,184,83563,2,0,P|41:156|44:64,1,143.999995605469,6|2,3:2|3:3,0:0:0:0:
139,0,83975,5,4,3:2:0:0:
139,0,84113,2,0,B|150:37|150:37|132:85,1,71.9999978027344,6|0,3:2|3:0,0:0:0:0:
232,222,84388,1,4,3:2:0:0:
390,126,84526,1,4,3:0:0:0:
412,288,84664,6,0,B|340:271|340:271|330:196,1,143.999995605469,6|0,3:2|0:0,0:0:0:0:
453,49,85076,6,0,B|506:99|506:99|478:169,1,143.999995605469,2|0,0:3|0:0,0:0:0:0:
296,104,85489,6,0,B|312:69|312:69|358:45,1,71.9999978027344,2|0,3:0|0:0,0:0:0:0:
506,290,85764,6,0,B|496:359|496:359|424:376,1,143.999995605469,2|0,3:2|0:0,0:0:0:0:
49,82,86315,5,2,3:1:0:0:
47,71,86452,1,0,0:0:0:0:
45,60,86590,1,2,0:1:0:0:
218,259,86865,5,0,3:0:0:0:
48,217,87003,1,0,0:0:0:0:
294,221,87141,6,0,B|313:252|313:252|305:287,1,71.9999978027344,2|2,0:3|0:3,0:0:0:0:
136,282,87416,2,0,B|128:248|128:248|147:217,1,71.9999978027344,0|2,3:0|0:3,0:0:0:0:
298,67,87691,5,2,0:3:0:0:
468,36,87829,1,0,0:0:0:0:
228,96,87966,6,0,P|209:49|219:5,1,71.9999978027344,2|2,3:3|0:3,0:0:0:0:
384,41,88242,2,0,P|383:76|366:108,1,71.9999978027344,2|0,0:3|0:0,0:0:0:0:
165,150,88517,2,0,P|115:143|82:112,1,71.9999978027344,2|0,3:3|0:0,0:0:0:0:
415,171,88792,2,0,P|450:169|481:152,1,71.9999978027344,2|0,0:0|0:0,0:0:0:0:
209,384,89067,6,0,P|216:303|231:224,1,143.999995605469,6|0,3:2|0:0,0:0:0:0:
297,116,89480,6,0,P|302:187|314:258,1,143.999995605469,2|0,0:3|0:0,0:0:0:0:
134,335,89893,6,0,P|136:299|142:263,1,71.9999978027344,2|0,3:0|3:0,0:0:0:0:
396,242,90168,6,0,P|401:313|413:384,1,143.999995605469,2|0,3:2|0:0,0:0:0:0:
53,167,90719,5,2,3:1:0:0:
42,169,90856,1,0,0:0:0:0:
31,171,90994,1,2,3:1:0:0:
241,8,91269,5,0,3:0:0:0:
210,141,91407,1,0,0:0:0:0:
67,86,91544,6,0,B|59:52|59:52|78:21,1,71.9999978027344,2|2,0:3|0:3,0:0:0:0:
214,146,91820,2,0,B|233:177|233:177|225:211,1,71.9999978027344,0|2,3:0|0:3,0:0:0:0:
34,373,92095,5,2,0:3:0:0:
123,305,92232,1,0,0:0:0:0:
231,357,92370,6,0,P|266:359|302:365,1,71.9999978027344,4|0,3:2|3:0,0:0:0:0:
512,238,92645,1,2,3:3:0:0:
398,378,92783,1,6,3:2:0:0:
354,269,92920,1,6,3:2:0:0:
495,366,93058,5,0,3:0:0:0:
330,162,93196,1,4,3:2:0:0:
477,91,93333,1,4,3:0:0:0:
422,194,93471,1,6,0:0:0:0:
