osu file format v14

[General]
AudioFilename: audio.mp3
AudioLeadIn: 0
PreviewTime: 38765
Countdown: 0
SampleSet: Soft
StackLeniency: 0.7
Mode: 3
LetterboxInBreaks: 0
SpecialStyle: 0
WidescreenStoryboard: 1

[Editor]
DistanceSpacing: 1
BeatDivisor: 8
GridSize: 4
TimelineZoom: 1.1

[Metadata]
Title:Naraku no Hana (TV SIZE)
TitleUnicode:奈落の花 (TV サイズ)
Artist:Shimamiya Eiko
ArtistUnicode:島みやえい子
Creator:Fallen Blossom
Version:HD
Source:ひぐらしのなく頃に
Tags:Hikari Nadeshiko Higurashi no Noko Koro ni op 2 flower of hell tv version
BeatmapID:1814282
BeatmapSetID:680291

[Difficulty]
HPDrainRate:7.5
CircleSize:4
OverallDifficulty:7.5
ApproachRate:5
SliderMultiplier:1.4
SliderTickRate:1

[Events]
//Background and Video events
0,0,"Higurashi BG.jpg",0,0
//Break Periods
//Storyboard Layer 0 (Background)
//Storyboard Layer 1 (Fail)
//Storyboard Layer 2 (Pass)
//Storyboard Layer 3 (Foreground)
//Storyboard Sound Samples

[TimingPoints]
233,550.45871559633,4,2,0,100,1,0
233,-100,4,2,0,100,0,0
301,-111.111111111111,4,2,0,100,0,0
370,-125,4,2,0,100,0,0
439,-111.111111111111,4,2,0,100,0,0
508,-100,4,2,0,100,0,0
577,-111.111111111111,4,2,0,100,0,0
645,-125,4,2,0,100,0,0
714,-111.111111111111,4,2,0,100,0,0
783,-100,4,2,0,100,0,0
1058,-100,4,2,0,100,0,0
1127,-111.111111111111,4,2,0,100,0,0
1196,-125,4,2,0,100,0,0
1265,-111.111111111111,4,2,0,100,0,0
1333,-100,4,2,0,100,0,0
1402,-111.111111111111,4,2,0,100,0,0
1471,-125,4,2,0,100,0,0
1540,-111.111111111111,4,2,0,100,0,0
1609,-100,4,2,0,100,0,0
1884,-100,4,2,0,100,0,0
1953,-111.111111111111,4,2,0,100,0,0
2021,-125,4,2,0,100,0,0
2090,-142.857142857143,4,2,0,100,0,0
2159,-166.666666666667,4,2,0,100,0,0
2434,-200,4,2,0,100,0,0
2710,-250,4,2,0,100,0,0
2985,-333.333333333333,4,2,0,100,0,0
3260,-500,4,2,0,100,0,0
3535,-1000,4,2,0,100,0,0
4086,-37.037037037037,4,2,0,100,0,0
4155,-41.6666666666667,4,2,0,100,0,0
4223,-50,4,2,0,100,0,0
4292,-66.6666666666667,4,2,0,100,0,0
4362,550.45871559633,4,2,0,100,1,0
4362,-100,4,2,0,100,0,0
12618,-41.6666666666667,4,2,0,100,0,0
12687,-50,4,2,0,100,0,0
12756,-58.8235294117647,4,2,0,100,0,0
12825,-66.6666666666667,4,2,0,100,0,0
12894,-100,4,2,0,100,0,0
16472,-166.666666666667,4,2,0,100,0,0
17573,-100,4,2,0,100,0,0
21426,-41.6666666666667,4,2,0,100,0,0
21495,-50,4,2,0,100,0,0
21563,-58.8235294117647,4,2,0,100,0,0
21632,-66.6666666666667,4,2,0,100,0,0
21701,-100,4,2,0,100,0,0
25279,-166.666666666667,4,2,0,100,0,0
26380,-100,4,2,0,100,0,0
30233,-41.6666666666667,4,2,0,100,0,0
30302,-50,4,2,0,100,0,0
30371,-58.8235294117647,4,2,0,100,0,0
30439,-66.6666666666667,4,2,0,100,0,0
30508,-100,4,2,0,100,0,0
37389,-142.857142857143,4,2,0,100,0,0
37664,-200,4,2,0,100,0,0
37939,-333.333333333333,4,2,0,100,0,0
38215,-1000,4,2,0,100,0,0
38490,-33.3333333333333,4,2,0,100,0,0
38628,-37.037037037037,4,2,0,100,0,0
38765,-41.6666666666667,4,2,0,100,0,0
38903,-50,4,2,0,100,0,0
39040,-62.5,4,2,0,100,0,0
39316,-76.9230769230769,4,2,0,100,0,0
39591,-100,4,2,0,100,0,1
52802,-100,4,2,0,100,0,0
57206,-100,4,2,0,100,0,1
74270,-25,4,2,0,100,0,0
74683,-33.3333333333333,4,2,0,100,0,0
74751,-50,4,2,0,100,0,0
74820,-100,4,2,0,100,0,0
92435,-125,4,2,0,100,0,0
92848,-166.666666666667,4,2,0,100,0,0
93261,-250,4,2,0,100,0,0
93536,-500,4,2,0,100,0,0

[HitObjects]
64,192,233,128,0,508:0:0:0:0:
320,192,483,128,0,733:0:0:0:0:
448,192,1058,128,0,4086:0:0:0:0:
192,192,1058,128,0,1333:0:0:0:0:
64,192,1333,128,0,1609:0:0:0:0:
320,192,2159,128,0,4086:0:0:0:0:
192,192,3260,128,0,4086:0:0:0:0:
320,192,4361,1,0,0:0:0:0:
64,192,4362,1,0,0:0:0:0:
448,192,4362,128,0,6563:0:0:0:0:
192,192,4637,1,0,0:0:0:0:
320,192,4912,1,0,0:0:0:0:
64,192,5187,128,0,6563:0:0:0:0:
192,192,5187,1,0,0:0:0:0:
192,192,6563,128,0,8765:0:0:0:0:
448,192,8765,1,0,0:0:0:0:
64,192,8765,128,0,10967:0:0:0:0:
320,192,9040,1,0,0:0:0:0:
448,192,9316,1,0,0:0:0:0:
192,192,9591,1,0,0:0:0:0:
320,192,9591,1,0,0:0:0:0:
448,192,9866,1,0,0:0:0:0:
192,192,10141,128,0,10967:0:0:0:0:
448,192,10967,128,0,12618:0:0:0:0:
320,192,12343,1,0,0:0:0:0:
192,192,12618,1,0,0:0:0:0:
64,192,12618,128,0,12894:0:0:0:0:
320,192,12894,1,0,0:0:0:0:
448,192,13169,1,0,0:0:0:0:
192,192,13169,128,0,15371:0:0:0:0:
320,192,13444,1,0,0:0:0:0:
64,192,13719,1,0,0:0:0:0:
448,192,13995,1,0,0:0:0:0:
320,192,13995,1,0,0:0:0:0:
448,192,14545,128,0,15371:0:0:0:0:
64,192,15371,128,0,17573:0:0:0:0:
320,192,16472,128,0,17573:0:0:0:0:
448,192,17573,128,0,19774:0:0:0:0:
192,192,17573,1,0,0:0:0:0:
64,192,17848,1,0,0:0:0:0:
320,192,18123,1,0,0:0:0:0:
192,192,18398,128,0,19774:0:0:0:0:
64,192,19774,128,0,19866:0:0:0:0:
320,192,19774,128,0,21426:0:0:0:0:
64,192,19958,1,0,0:0:0:0:
192,192,20141,128,0,20233:0:0:0:0:
192,192,20325,1,0,0:0:0:0:
448,192,20508,128,0,20600:0:0:0:0:
448,192,20692,1,0,0:0:0:0:
192,192,20875,128,0,20967:0:0:0:0:
192,192,21059,1,0,0:0:0:0:
64,192,21242,128,0,21334:0:0:0:0:
64,192,21426,1,0,0:0:0:0:
448,192,21426,128,0,21701:0:0:0:0:
192,192,21701,1,0,0:0:0:0:
64,192,21976,1,0,0:0:0:0:
320,192,21976,128,0,24178:0:0:0:0:
192,192,22251,1,0,0:0:0:0:
448,192,22527,1,0,0:0:0:0:
64,192,22802,1,0,0:0:0:0:
192,192,22802,128,0,24178:0:0:0:0:
448,192,24178,128,0,26380:0:0:0:0:
64,192,25279,128,0,26380:0:0:0:0:
320,192,26380,128,0,28582:0:0:0:0:
192,192,26380,1,0,0:0:0:0:
64,192,27206,1,0,0:0:0:0:
192,192,27206,128,0,28582:0:0:0:0:
64,192,28582,128,0,30233:0:0:0:0:
448,192,30233,128,0,30508:0:0:0:0:
192,192,30233,1,0,0:0:0:0:
64,192,30784,1,0,0:0:0:0:
320,192,30784,128,0,32985:0:0:0:0:
192,192,31609,1,0,0:0:0:0:
64,192,31609,128,0,32985:0:0:0:0:
448,192,32985,128,0,35187:0:0:0:0:
64,192,35187,128,0,37389:0:0:0:0:
192,192,35187,1,0,0:0:0:0:
320,192,36013,1,0,0:0:0:0:
448,192,36013,128,0,37389:0:0:0:0:
192,192,37389,128,0,38490:0:0:0:0:
320,192,37664,128,0,38490:0:0:0:0:
448,192,37939,128,0,38490:0:0:0:0:
64,192,38215,128,0,38490:0:0:0:0:
64,192,39591,1,0,0:0:0:0:
448,192,39591,1,0,0:0:0:0:
320,192,39591,1,0,0:0:0:0:
192,192,39866,1,0,0:0:0:0:
64,192,40141,1,0,0:0:0:0:
448,192,40141,1,0,0:0:0:0:
320,192,40417,1,0,0:0:0:0:
192,192,40554,1,0,0:0:0:0:
64,192,40692,1,0,0:0:0:0:
320,192,40692,1,0,0:0:0:0:
448,192,40967,1,0,0:0:0:0:
192,192,41242,1,0,0:0:0:0:
64,192,41242,1,0,0:0:0:0:
320,192,41517,1,0,0:0:0:0:
448,192,41655,1,0,0:0:0:0:
192,192,41793,1,0,0:0:0:0:
64,192,41793,1,0,0:0:0:0:
320,192,42068,1,0,0:0:0:0:
192,192,42343,1,0,0:0:0:0:
448,192,42343,1,0,0:0:0:0:
320,192,42618,1,0,0:0:0:0:
192,192,42756,1,0,0:0:0:0:
64,192,42894,1,0,0:0:0:0:
448,192,42894,1,0,0:0:0:0:
320,192,43031,1,0,0:0:0:0:
192,192,43169,1,0,0:0:0:0:
64,192,43306,1,0,0:0:0:0:
320,192,43444,1,0,0:0:0:0:
448,192,43444,1,0,0:0:0:0:
192,192,43719,1,0,0:0:0:0:
320,192,43857,1,0,0:0:0:0:
64,192,43995,1,0,0:0:0:0:
448,192,43995,1,0,0:0:0:0:
320,192,44270,1,0,0:0:0:0:
192,192,44545,1,0,0:0:0:0:
64,192,44545,1,0,0:0:0:0:
320,192,44820,1,0,0:0:0:0:
448,192,44958,1,0,0:0:0:0:
192,192,45095,1,0,0:0:0:0:
64,192,45095,1,0,0:0:0:0:
320,192,45371,1,0,0:0:0:0:
448,192,45646,1,0,0:0:0:0:
192,192,45646,1,0,0:0:0:0:
320,192,45921,1,0,0:0:0:0:
192,192,46059,1,0,0:0:0:0:
64,192,46196,1,0,0:0:0:0:
448,192,46196,1,0,0:0:0:0:
320,192,46334,1,0,0:0:0:0:
192,192,46472,1,0,0:0:0:0:
64,192,46609,1,0,0:0:0:0:
320,192,46747,1,0,0:0:0:0:
448,192,46747,1,0,0:0:0:0:
64,192,47022,1,0,0:0:0:0:
192,192,47160,1,0,0:0:0:0:
320,192,47297,1,0,0:0:0:0:
64,192,47297,1,0,0:0:0:0:
448,192,47573,1,0,0:0:0:0:
192,192,47848,1,0,0:0:0:0:
64,192,47848,1,0,0:0:0:0:
320,192,48123,1,0,0:0:0:0:
448,192,48123,1,0,0:0:0:0:
192,192,48261,1,0,0:0:0:0:
64,192,48398,1,0,0:0:0:0:
320,192,48398,1,0,0:0:0:0:
448,192,48398,1,0,0:0:0:0:
192,192,48673,1,0,0:0:0:0:
64,192,48949,1,0,0:0:0:0:
320,192,48949,1,0,0:0:0:0:
192,192,49224,1,0,0:0:0:0:
320,192,49361,1,0,0:0:0:0:
448,192,49499,1,0,0:0:0:0:
64,192,49499,1,0,0:0:0:0:
320,192,49774,1,0,0:0:0:0:
192,192,50050,1,0,0:0:0:0:
64,192,50050,1,0,0:0:0:0:
320,192,50325,1,0,0:0:0:0:
192,192,50462,1,0,0:0:0:0:
448,192,50600,1,0,0:0:0:0:
64,192,50600,1,0,0:0:0:0:
320,192,50875,1,0,0:0:0:0:
192,192,51013,1,0,0:0:0:0:
64,192,51150,1,0,0:0:0:0:
448,192,51150,1,0,0:0:0:0:
192,192,51426,1,0,0:0:0:0:
320,192,51563,1,0,0:0:0:0:
448,192,51701,1,0,0:0:0:0:
64,192,51701,1,0,0:0:0:0:
192,192,51839,1,0,0:0:0:0:
320,192,51976,1,0,0:0:0:0:
448,192,52251,1,0,0:0:0:0:
64,192,52251,1,0,0:0:0:0:
192,192,52527,1,0,0:0:0:0:
320,192,52802,1,0,0:0:0:0:
448,192,52802,1,0,0:0:0:0:
192,192,53077,1,0,0:0:0:0:
64,192,53352,1,0,0:0:0:0:
320,192,53628,1,0,0:0:0:0:
448,192,53765,1,0,0:0:0:0:
192,192,53903,1,0,0:0:0:0:
64,192,53903,1,0,0:0:0:0:
320,192,54040,1,0,0:0:0:0:
448,192,54178,1,0,0:0:0:0:
64,192,54178,1,0,0:0:0:0:
192,192,54453,1,0,0:0:0:0:
320,192,54453,128,0,55004:0:0:0:0:
64,192,55004,1,0,0:0:0:0:
448,192,55004,1,0,0:0:0:0:
192,192,55279,1,0,0:0:0:0:
320,192,55554,1,0,0:0:0:0:
448,192,55554,1,0,0:0:0:0:
192,192,55829,1,0,0:0:0:0:
64,192,55967,1,0,0:0:0:0:
320,192,56105,1,0,0:0:0:0:
448,192,56105,1,0,0:0:0:0:
192,192,56242,1,0,0:0:0:0:
64,192,56242,1,0,0:0:0:0:
320,192,56380,1,0,0:0:0:0:
448,192,56380,1,0,0:0:0:0:
192,192,56655,1,0,0:0:0:0:
64,192,56655,1,0,0:0:0:0:
320,192,56930,1,0,0:0:0:0:
448,192,56930,1,0,0:0:0:0:
64,192,57206,1,0,0:0:0:0:
192,192,57206,1,0,0:0:0:0:
448,192,57206,1,0,0:0:0:0:
320,192,57481,1,0,0:0:0:0:
192,192,57756,1,0,0:0:0:0:
448,192,57756,1,0,0:0:0:0:
64,192,58031,1,0,0:0:0:0:
192,192,58169,1,0,0:0:0:0:
320,192,58306,1,0,0:0:0:0:
448,192,58306,1,0,0:0:0:0:
192,192,58582,1,0,0:0:0:0:
64,192,58857,1,0,0:0:0:0:
320,192,58857,1,0,0:0:0:0:
448,192,59132,1,0,0:0:0:0:
320,192,59270,1,0,0:0:0:0:
192,192,59407,1,0,0:0:0:0:
64,192,59407,1,0,0:0:0:0:
320,192,59683,1,0,0:0:0:0:
448,192,59820,1,0,0:0:0:0:
192,192,59958,1,0,0:0:0:0:
64,192,59958,1,0,0:0:0:0:
320,192,60233,1,0,0:0:0:0:
448,192,60371,1,0,0:0:0:0:
192,192,60508,1,0,0:0:0:0:
64,192,60508,1,0,0:0:0:0:
448,192,60646,1,0,0:0:0:0:
320,192,60784,1,0,0:0:0:0:
64,192,61059,1,0,0:0:0:0:
192,192,61059,1,0,0:0:0:0:
448,192,61334,1,0,0:0:0:0:
320,192,61472,1,0,0:0:0:0:
448,192,61609,1,0,0:0:0:0:
192,192,61609,1,0,0:0:0:0:
64,192,61884,1,0,0:0:0:0:
320,192,61884,1,0,0:0:0:0:
192,192,62160,1,0,0:0:0:0:
320,192,62435,1,0,0:0:0:0:
448,192,62573,1,0,0:0:0:0:
64,192,62710,1,0,0:0:0:0:
192,192,62710,1,0,0:0:0:0:
320,192,62985,1,0,0:0:0:0:
192,192,63261,1,0,0:0:0:0:
448,192,63261,1,0,0:0:0:0:
320,192,63536,1,0,0:0:0:0:
192,192,63673,1,0,0:0:0:0:
64,192,63811,1,0,0:0:0:0:
448,192,63811,1,0,0:0:0:0:
320,192,64086,1,0,0:0:0:0:
192,192,64361,1,0,0:0:0:0:
64,192,64361,1,0,0:0:0:0:
320,192,64637,1,0,0:0:0:0:
448,192,64774,1,0,0:0:0:0:
64,192,64912,1,0,0:0:0:0:
192,192,65050,1,0,0:0:0:0:
320,192,65050,1,0,0:0:0:0:
448,192,65187,1,0,0:0:0:0:
64,192,65187,1,0,0:0:0:0:
64,192,65462,1,0,0:0:0:0:
192,192,65462,1,0,0:0:0:0:
320,192,65600,1,0,0:0:0:0:
448,192,65600,1,0,0:0:0:0:
64,192,65738,1,0,0:0:0:0:
192,192,65738,1,0,0:0:0:0:
320,192,65875,1,0,0:0:0:0:
448,192,65875,1,0,0:0:0:0:
64,192,66013,1,0,0:0:0:0:
192,192,66013,1,0,0:0:0:0:
320,192,66288,1,0,0:0:0:0:
192,192,66563,1,0,0:0:0:0:
448,192,66563,1,0,0:0:0:0:
320,192,66839,1,0,0:0:0:0:
192,192,66976,1,0,0:0:0:0:
64,192,67114,1,0,0:0:0:0:
448,192,67114,1,0,0:0:0:0:
320,192,67389,1,0,0:0:0:0:
192,192,67664,1,0,0:0:0:0:
448,192,67664,1,0,0:0:0:0:
64,192,67939,1,0,0:0:0:0:
192,192,68077,1,0,0:0:0:0:
320,192,68215,1,0,0:0:0:0:
448,192,68215,1,0,0:0:0:0:
192,192,68490,1,0,0:0:0:0:
64,192,68765,1,0,0:0:0:0:
320,192,68765,1,0,0:0:0:0:
448,192,69040,1,0,0:0:0:0:
320,192,69178,1,0,0:0:0:0:
192,192,69316,1,0,0:0:0:0:
448,192,69316,1,0,0:0:0:0:
64,192,69453,1,0,0:0:0:0:
320,192,69591,1,0,0:0:0:0:
448,192,69866,1,0,0:0:0:0:
192,192,69866,1,0,0:0:0:0:
320,192,70141,1,0,0:0:0:0:
64,192,70141,1,0,0:0:0:0:
192,192,70417,1,0,0:0:0:0:
448,192,70417,1,0,0:0:0:0:
320,192,70692,1,0,0:0:0:0:
64,192,70967,1,0,0:0:0:0:
320,192,71242,1,0,0:0:0:0:
192,192,71517,1,0,0:0:0:0:
448,192,71517,1,0,0:0:0:0:
320,192,71793,1,0,0:0:0:0:
192,192,72068,1,0,0:0:0:0:
448,192,72068,1,0,0:0:0:0:
64,192,72343,1,0,0:0:0:0:
320,192,72618,1,0,0:0:0:0:
448,192,72618,1,0,0:0:0:0:
192,192,72894,1,0,0:0:0:0:
64,192,72894,1,0,0:0:0:0:
320,192,73169,1,0,0:0:0:0:
192,192,73444,1,0,0:0:0:0:
448,192,73444,1,0,0:0:0:0:
64,192,73719,1,0,0:0:0:0:
320,192,73719,1,0,0:0:0:0:
192,192,73857,1,0,0:0:0:0:
448,192,73857,1,0,0:0:0:0:
320,192,74132,1,0,0:0:0:0:
64,192,74132,1,0,0:0:0:0:
192,192,74270,1,0,0:0:0:0:
448,192,74270,128,0,74820:0:0:0:0:
64,192,74820,1,0,0:0:0:0:
320,192,74820,1,0,0:0:0:0:
192,192,74820,1,0,0:0:0:0:
448,192,75095,1,0,0:0:0:0:
320,192,75371,1,0,0:0:0:0:
64,192,75371,1,0,0:0:0:0:
192,192,75646,1,0,0:0:0:0:
320,192,75784,1,0,0:0:0:0:
448,192,75921,1,0,0:0:0:0:
64,192,75921,1,0,0:0:0:0:
192,192,76059,1,0,0:0:0:0:
320,192,76196,1,0,0:0:0:0:
448,192,76472,1,0,0:0:0:0:
64,192,76472,1,0,0:0:0:0:
320,192,76747,1,0,0:0:0:0:
192,192,76884,1,0,0:0:0:0:
64,192,77022,1,0,0:0:0:0:
448,192,77022,1,0,0:0:0:0:
320,192,77297,1,0,0:0:0:0:
448,192,77435,1,0,0:0:0:0:
192,192,77573,1,0,0:0:0:0:
64,192,77573,1,0,0:0:0:0:
320,192,77848,1,0,0:0:0:0:
448,192,78123,1,0,0:0:0:0:
192,192,78123,1,0,0:0:0:0:
320,192,78398,1,0,0:0:0:0:
64,192,78673,1,0,0:0:0:0:
448,192,78673,1,0,0:0:0:0:
192,192,78949,1,0,0:0:0:0:
320,192,79086,1,0,0:0:0:0:
64,192,79224,1,0,0:0:0:0:
448,192,79224,1,0,0:0:0:0:
192,192,79499,1,0,0:0:0:0:
64,192,79774,1,0,0:0:0:0:
320,192,79774,1,0,0:0:0:0:
448,192,80050,1,0,0:0:0:0:
320,192,80187,1,0,0:0:0:0:
64,192,80325,1,0,0:0:0:0:
448,192,80325,1,0,0:0:0:0:
192,192,80462,1,0,0:0:0:0:
320,192,80600,1,0,0:0:0:0:
448,192,80875,1,0,0:0:0:0:
64,192,80875,1,0,0:0:0:0:
192,192,81150,1,0,0:0:0:0:
320,192,81426,1,0,0:0:0:0:
448,192,81426,1,0,0:0:0:0:
64,192,81701,1,0,0:0:0:0:
192,192,81701,1,0,0:0:0:0:
448,192,81976,1,0,0:0:0:0:
320,192,81976,1,0,0:0:0:0:
64,192,82251,1,0,0:0:0:0:
192,192,82389,1,0,0:0:0:0:
448,192,82527,1,0,0:0:0:0:
320,192,82527,1,0,0:0:0:0:
192,192,82802,1,0,0:0:0:0:
64,192,83077,1,0,0:0:0:0:
448,192,83077,1,0,0:0:0:0:
320,192,83352,1,0,0:0:0:0:
192,192,83628,1,0,0:0:0:0:
64,192,83628,1,0,0:0:0:0:
448,192,83628,1,0,0:0:0:0:
320,192,83903,1,0,0:0:0:0:
448,192,84178,1,0,0:0:0:0:
64,192,84453,1,0,0:0:0:0:
192,192,84591,1,0,0:0:0:0:
448,192,84728,1,0,0:0:0:0:
64,192,84728,1,0,0:0:0:0:
320,192,84866,1,0,0:0:0:0:
192,192,85004,1,0,0:0:0:0:
64,192,85279,1,0,0:0:0:0:
448,192,85279,1,0,0:0:0:0:
320,192,85554,1,0,0:0:0:0:
192,192,85829,1,0,0:0:0:0:
448,192,85829,1,0,0:0:0:0:
64,192,86105,1,0,0:0:0:0:
192,192,86242,1,0,0:0:0:0:
320,192,86380,1,0,0:0:0:0:
448,192,86380,1,0,0:0:0:0:
192,192,86655,1,0,0:0:0:0:
320,192,86793,1,0,0:0:0:0:
448,192,86930,1,0,0:0:0:0:
64,192,86930,1,0,0:0:0:0:
192,192,87068,1,0,0:0:0:0:
320,192,87206,1,0,0:0:0:0:
448,192,87481,1,0,0:0:0:0:
192,192,87481,1,0,0:0:0:0:
320,192,87756,1,0,0:0:0:0:
192,192,87894,1,0,0:0:0:0:
64,192,88031,1,0,0:0:0:0:
448,192,88031,1,0,0:0:0:0:
320,192,88306,1,0,0:0:0:0:
192,192,88582,1,0,0:0:0:0:
448,192,88582,1,0,0:0:0:0:
64,192,88857,1,0,0:0:0:0:
192,192,88995,1,0,0:0:0:0:
320,192,89132,1,0,0:0:0:0:
448,192,89132,1,0,0:0:0:0:
64,192,89270,1,0,0:0:0:0:
192,192,89407,1,0,0:0:0:0:
64,192,89683,1,0,0:0:0:0:
448,192,89683,1,0,0:0:0:0:
320,192,89958,1,0,0:0:0:0:
192,192,90095,1,0,0:0:0:0:
64,192,90233,1,0,0:0:0:0:
448,192,90233,1,0,0:0:0:0:
320,192,90508,1,0,0:0:0:0:
448,192,90508,1,0,0:0:0:0:
64,192,90784,1,0,0:0:0:0:
192,192,90784,128,0,91334:0:0:0:0:
320,192,91334,1,0,0:0:0:0:
448,192,91334,1,0,0:0:0:0:
64,192,91747,1,0,0:0:0:0:
320,192,91747,1,0,0:0:0:0:
192,192,92160,1,0,0:0:0:0:
448,192,92160,1,0,0:0:0:0:
320,192,92435,128,0,94086:0:0:0:0:
64,192,92848,128,0,94086:0:0:0:0:
192,192,93261,128,0,94086:0:0:0:0:
448,192,93536,128,0,94086:0:0:0:0:
