osu file format v14

[General]
AudioFilename: Oh Oh Oh - Shimakaze - YouTube[via torchbrowser.com].mp3
AudioLeadIn: 0
PreviewTime: 10911
Countdown: 1
SampleSet: Normal
StackLeniency: 0.7
Mode: 0
LetterboxInBreaks: 0
WidescreenStoryboard: 0

[Editor]
Bookmarks: 3542,4595,33542,42490,57226
DistanceSpacing: 1
BeatDivisor: 6
GridSize: 32
TimelineZoom: 1

[Metadata]
Title:Oh! Oh! Oh!
TitleUnicode:Oh! Oh! Oh!
Artist:Shimakaze
ArtistUnicode:Shimakaze
Creator:Jenna
Version:
Source:Nico Nico Douga
Tags:kancolle oh shimakaze kantai collection im a weeaboo
BeatmapID:1085469
BeatmapSetID:510518

[Difficulty]
HPDrainRate:3
CircleSize:3
OverallDifficulty:3
ApproachRate:5
SliderMultiplier:1.2
SliderTickRate:1

[Events]
//Background and Video events
0,0,"kantai_collection_okitakung_shimakaze_white_chibi_1440x900.jpg",0,0
Video,0,"Oh_Oh_Oh_-_Shimakaze_-_YouTube[via_torchbrowser.avi"
//Break Periods
2,36111,39184
//Storyboard Layer 0 (Background)
//Storyboard Layer 1 (Fail)
//Storyboard Layer 2 (Pass)
//Storyboard Layer 3 (Foreground)
//Storyboard Sound Samples

[TimingPoints]
2490.06907894737,526.315789473684,4,1,0,100,1,0

[HitObjects]
256,256,2490,5,4,0:0:0:0:
352,160,3542,2,0,P|256:96|160:160,1,240
64,192,5121,6,0,L|160:288,1,120
288,224,6174,2,0,L|192:128,1,120
352,96,7226,2,0,L|448:192,1,120
416,282,8279,1,0,0:0:0:0:
480,192,8805,6,0,B|352:96|256:64|160:96|32:192,1,480,0|8,0:0|0:0,0:0:0:0:
96,320,11437,1,0,0:0:0:0:
256,320,11963,1,0,0:0:0:0:
416,320,12490,1,0,0:0:0:0:
480,192,13016,6,0,B|480:160|384:224|448:96|384:128,2,120
480,288,14595,1,2,0:0:0:0:
352,288,15121,5,8,0:0:0:0:
256,288,15647,1,0,0:0:0:0:
320,192,16174,1,0,0:0:0:0:
224,192,16700,1,0,0:0:0:0:
192,64,17226,6,0,P|128:32|96:64,1,120
160,160,18279,2,0,P|224:192|256:160,1,120,0|2,0:0|0:0,0:0:0:0:
160,192,19332,6,0,B|160:128|64:128|64:128|64:64|0:32,1,240,8|0,0:0|0:0,0:0:0:0:
32,160,20911,1,0,0:0:0:0:
96,288,21437,1,0,0:0:0:0:
256,288,21963,1,0,0:0:0:0:
256,96,22490,2,0,L|256:224,1,120,0|2,0:0|0:0,0:0:0:0:
128,256,23542,5,8,0:0:0:0:
160,128,24069,1,0,0:0:0:0:
256,224,24595,1,0,0:0:0:0:
128,192,25121,1,0,0:0:0:0:
256,160,25647,6,0,P|384:192|480:128,1,240
352,96,27226,1,4,0:0:0:0:
224,128,27753,6,0,L|224:256,1,120,8|8,0:0|0:0,0:0:0:0:
128,192,28805,2,8,L|128:320,1,120
128,312,29858,2,8,L|128:192,1,120
256,192,30911,2,8,L|256:64,1,120
384,64,31963,6,8,P|416:96|384:160,1,120
288,64,33016,2,8,P|256:96|288:160,1,120
320,192,33805,6,0,L|384:224,3,60
320,256,34858,5,0,0:0:0:0:
256,288,35121,1,0,0:0:0:0:
192,288,35384,1,0,0:0:0:0:
128,256,35648,1,0,0:0:0:0:
96,192,35911,1,4,0:0:0:0:
256,192,40384,12,8,42490,0:0:0:0:
256,192,43016,5,2,0:0:0:0:
320,224,43279,1,2,0:0:0:0:
352,160,43542,1,2,0:0:0:0:
288,128,43805,2,8,L|256:96,2,40,8|8|4,0:0|0:0|0:0,0:0:0:0:
224,192,44595,5,8,0:0:0:0:
192,320,45121,1,0,0:0:0:0:
320,320,45647,1,0,0:0:0:0:
256,224,46174,1,0,0:0:0:0:
128,256,46700,6,0,L|32:160,1,120
160,128,47753,2,0,L|256:224,1,120
320,128,48805,5,8,0:0:0:0:
416,224,49332,1,0,0:0:0:0:
320,320,49858,1,0,0:0:0:0:
224,224,50384,1,0,0:0:0:0:
352,224,50911,6,0,L|480:224,2,120
224,224,52490,1,0,0:0:0:0:
128,160,53016,6,0,L|64:192,1,60,8|0,0:0|0:0,0:0:0:0:
64,256,53542,2,0,L|96:320,1,60
160,320,54069,2,0,L|224:320,1,60
256,288,54595,2,0,L|288:224,1,60
320,192,55121,6,0,B|288:160|192:64|256:0|320:96|320:96|384:0|448:64|352:160|320:192,1,480,0|4,0:0|0:0,0:0:0:0:
