osu file format v14

[General]
AudioFilename: audio.mp3
AudioLeadIn: 0
PreviewTime: 52008
Countdown: 0
SampleSet: Soft
StackLeniency: 0.4
Mode: 0
LetterboxInBreaks: 0
WidescreenStoryboard: 1

[Editor]
Bookmarks: 2508,18508,34508,48258,62508,64008,68508,84508,92508,102508,118508,134508,141258
DistanceSpacing: 1.3
BeatDivisor: 8
GridSize: 32
TimelineZoom: 2.8

[Metadata]
Title:Karada wa Shoujiki datte Ittenno
TitleUnicode:身体は正直だって言ってんの
Artist:Shikiura.
ArtistUnicode:式浦。
Creator:seros
Version:papapa's Insane
Source:
Tags:Just Saying, The Body Is Honest. japanese pop jpop j-pop vocaloid 歌愛ユキ Kaai Yuki ROTUS. papapa213 papapa pigeons zengsb hakusui3820 hakusui_sama hakusui sama alevi brain exe raijodo -45 ttmnzk TT Mouse
BeatmapID:3687075
BeatmapSetID:1767411

[Difficulty]
HPDrainRate:4
CircleSize:3.9
OverallDifficulty:8
ApproachRate:9
SliderMultiplier:2.1
SliderTickRate:1

[Events]
//Background and Video events
0,0,"bg.jpg",0,0
Video,-144,"video.mp4"
//Break Periods
2,83833,89908
//Storyboard Layer 0 (Background)
//Storyboard Layer 1 (Fail)
//Storyboard Layer 2 (Pass)
//Storyboard Layer 3 (Foreground)
//Storyboard Layer 4 (Overlay)
//Storyboard Sound Samples
Sample,2508,0,"SBK/20.wav",40
Sample,3008,0,"SBK/20.wav",40
Sample,3383,0,"SBK/21.wav",60
Sample,3633,0,"SBK/21.wav",60
Sample,3883,0,"SBK/21.wav",60
Sample,4508,0,"SBK/22.wav",60
Sample,5008,0,"SBK/22.wav",60
Sample,5383,0,"SBK/23.wav",60
Sample,5633,0,"SBK/23.wav",60
Sample,5883,0,"SBK/24.wav",60
Sample,6508,0,"SBK/25.wav",60
Sample,7008,0,"SBK/25.wav",60
Sample,7383,0,"SBK/26.wav",60
Sample,7633,0,"SBK/26.wav",60
Sample,7883,0,"SBK/26.wav",60
Sample,8508,0,"SBK/27.wav",60
Sample,9008,0,"SBK/28.wav",60
Sample,9383,0,"SBK/29.wav",60
Sample,9633,0,"SBK/29.wav",60
Sample,9883,0,"SBK/29.wav",60
Sample,10508,0,"SBK/20.wav",60
Sample,11008,0,"SBK/20.wav",60
Sample,11383,0,"SBK/21.wav",60
Sample,11633,0,"SBK/21.wav",60
Sample,11883,0,"SBK/21.wav",60
Sample,12508,0,"SBK/22.wav",60
Sample,13008,0,"SBK/22.wav",60
Sample,13383,0,"SBK/23.wav",60
Sample,13633,0,"SBK/23.wav",60
Sample,13883,0,"SBK/24.wav",60
Sample,14508,0,"SBK/25.wav",60
Sample,15008,0,"SBK/25.wav",60
Sample,15383,0,"SBK/26.wav",60
Sample,15633,0,"SBK/26.wav",60
Sample,15883,0,"SBK/26.wav",60
Sample,16508,0,"SBK/27.wav",60
Sample,17008,0,"SBK/28.wav",60
Sample,17383,0,"SBK/29.wav",60
Sample,18508,0,"SBK/20.wav",60
Sample,19008,0,"SBK/20.wav",60
Sample,19383,0,"SBK/21.wav",60
Sample,19633,0,"SBK/21.wav",60
Sample,19883,0,"SBK/21.wav",60
Sample,20508,0,"SBK/22.wav",60
Sample,21008,0,"SBK/22.wav",60
Sample,21383,0,"SBK/23.wav",60
Sample,21633,0,"SBK/23.wav",60
Sample,21883,0,"SBK/24.wav",60
Sample,22508,0,"SBK/25.wav",60
Sample,23008,0,"SBK/25.wav",60
Sample,23383,0,"SBK/26.wav",60
Sample,23633,0,"SBK/26.wav",60
Sample,23883,0,"SBK/26.wav",60
Sample,24508,0,"SBK/27.wav",60
Sample,25008,0,"SBK/28.wav",60
Sample,25383,0,"SBK/29.wav",60
Sample,25633,0,"SBK/29.wav",60
Sample,25883,0,"SBK/29.wav",60
Sample,26508,0,"SBK/20.wav",60
Sample,27008,0,"SBK/20.wav",60
Sample,27383,0,"SBK/21.wav",60
Sample,27633,0,"SBK/21.wav",60
Sample,27883,0,"SBK/21.wav",60
Sample,28508,0,"SBK/22.wav",60
Sample,29008,0,"SBK/22.wav",60
Sample,29383,0,"SBK/23.wav",60
Sample,29633,0,"SBK/23.wav",60
Sample,29883,0,"SBK/24.wav",60
Sample,30508,0,"SBK/25.wav",60
Sample,31008,0,"SBK/25.wav",60
Sample,31383,0,"SBK/26.wav",60
Sample,31633,0,"SBK/26.wav",60
Sample,31883,0,"SBK/26.wav",60
Sample,32508,0,"SBK/27.wav",60
Sample,33008,0,"SBK/28.wav",60
Sample,33383,0,"SBK/29.wav",60
Sample,68508,0,"SBK/20.wav",60
Sample,69008,0,"SBK/20.wav",60
Sample,69383,0,"SBK/21.wav",60
Sample,69633,0,"SBK/21.wav",60
Sample,69883,0,"SBK/21.wav",60
Sample,70508,0,"SBK/22.wav",60
Sample,71008,0,"SBK/22.wav",60
Sample,71383,0,"SBK/23.wav",60
Sample,71633,0,"SBK/23.wav",60
Sample,71883,0,"SBK/24.wav",60
Sample,72508,0,"SBK/25.wav",60
Sample,73008,0,"SBK/25.wav",60
Sample,73383,0,"SBK/26.wav",60
Sample,73633,0,"SBK/26.wav",60
Sample,73883,0,"SBK/26.wav",60
Sample,74508,0,"SBK/27.wav",60
Sample,75008,0,"SBK/28.wav",60
Sample,75383,0,"SBK/29.wav",60
Sample,75633,0,"SBK/29.wav",60
Sample,75883,0,"SBK/29.wav",60
Sample,76508,0,"SBK/20.wav",60
Sample,77008,0,"SBK/20.wav",60
Sample,77383,0,"SBK/21.wav",60
Sample,77633,0,"SBK/21.wav",60
Sample,77883,0,"SBK/21.wav",60
Sample,78508,0,"SBK/22.wav",60
Sample,79008,0,"SBK/22.wav",60
Sample,79383,0,"SBK/23.wav",60
Sample,79633,0,"SBK/23.wav",60
Sample,79883,0,"SBK/24.wav",60
Sample,80508,0,"SBK/25.wav",60
Sample,81008,0,"SBK/25.wav",60
Sample,81383,0,"SBK/26.wav",60
Sample,81633,0,"SBK/26.wav",60
Sample,81883,0,"SBK/26.wav",60
Sample,82508,0,"SBK/27.wav",60
Sample,83008,0,"SBK/28.wav",60
Sample,118508,0,"SBK/40.wav",60
Sample,119008,0,"SBK/40.wav",60
Sample,119383,0,"SBK/41.wav",60
Sample,119633,0,"SBK/41.wav",60
Sample,119883,0,"SBK/41.wav",60
Sample,120508,0,"SBK/42.wav",60
Sample,121008,0,"SBK/42.wav",60
Sample,121383,0,"SBK/43.wav",60
Sample,121633,0,"SBK/43.wav",60
Sample,121883,0,"SBK/44.wav",60
Sample,122508,0,"SBK/45.wav",60
Sample,123008,0,"SBK/45.wav",60
Sample,123383,0,"SBK/46.wav",60
Sample,123633,0,"SBK/46.wav",60
Sample,123883,0,"SBK/46.wav",60
Sample,124508,0,"SBK/47.wav",60
Sample,125008,0,"SBK/48.wav",60
Sample,125383,0,"SBK/49.wav",60
Sample,125633,0,"SBK/49.wav",60
Sample,125883,0,"SBK/49.wav",60
Sample,126508,0,"SBK/40.wav",60
Sample,127008,0,"SBK/40.wav",60
Sample,127383,0,"SBK/41.wav",60
Sample,127633,0,"SBK/41.wav",60
Sample,127883,0,"SBK/41.wav",60
Sample,128508,0,"SBK/42.wav",60
Sample,129008,0,"SBK/42.wav",60
Sample,129383,0,"SBK/43.wav",60
Sample,129633,0,"SBK/43.wav",60
Sample,129883,0,"SBK/44.wav",60
Sample,130508,0,"SBK/45.wav",60
Sample,131008,0,"SBK/45.wav",60
Sample,131383,0,"SBK/46.wav",60
Sample,131633,0,"SBK/46.wav",60
Sample,131883,0,"SBK/46.wav",60
Sample,132508,0,"SBK/47.wav",60
Sample,133008,0,"SBK/48.wav",60
Sample,133383,0,"SBK/49.wav",60
Sample,133633,0,"SBK/49.wav",60
Sample,133883,0,"SBK/49.wav",60

[TimingPoints]
478,508.474576271186,4,2,1,50,1,0
2508,500,4,2,1,50,1,0
18008,-100,4,2,2,50,0,0
18133,-100,4,2,2,55,0,0
18258,-100,4,2,2,60,0,0
18383,-100,4,2,2,65,0,0
18508,-86.9565217391304,4,2,2,70,0,0
18758,-62.5,4,2,1,70,0,0
18883,-62.5,4,2,2,70,0,0
19133,-86.9565217391304,4,2,2,70,0,0
20758,-86.9565217391304,4,2,1,70,0,0
20883,-86.9565217391304,4,2,2,70,0,0
22758,-62.5,4,2,1,70,0,0
22883,-62.5,4,2,2,70,0,0
23008,-86.9565217391304,4,2,2,70,0,0
23258,-86.9565217391304,4,2,1,70,0,0
23383,-86.9565217391304,4,2,2,70,0,0
23758,-86.9565217391304,4,2,1,70,0,0
23883,-86.9565217391304,4,2,2,70,0,0
24758,-86.9565217391304,4,2,1,70,0,0
24883,-86.9565217391304,4,2,2,70,0,0
25258,-86.9565217391304,4,2,1,70,0,0
25383,-86.9565217391304,4,2,2,70,0,0
25508,-86.9565217391304,4,2,3,70,0,0
25633,-86.9565217391304,4,2,2,70,0,0
25758,-86.9565217391304,4,2,1,70,0,0
25883,-86.9565217391304,4,2,2,70,0,0
26008,-86.9565217391304,4,2,3,70,0,0
26133,-86.9565217391304,4,2,2,70,0,0
26258,-86.9565217391304,4,2,3,70,0,0
26383,-86.9565217391304,4,2,2,70,0,0
26758,-62.5,4,2,1,70,0,0
26883,-62.5,4,2,2,70,0,0
27008,-86.9565217391304,4,2,2,70,0,0
28758,-86.9565217391304,4,2,1,70,0,0
28883,-86.9565217391304,4,2,2,70,0,0
30758,-62.5,4,2,1,70,0,0
30883,-62.5,4,2,2,70,0,0
31008,-86.9565217391304,4,2,2,70,0,0
31258,-86.9565217391304,4,2,1,70,0,0
31383,-86.9565217391304,4,2,2,70,0,0
31758,-86.9565217391304,4,2,1,70,0,0
31883,-86.9565217391304,4,2,2,70,0,0
32508,-86.9565217391304,4,2,1,70,0,0
32633,-86.9565217391304,4,2,2,70,0,0
33008,-80,4,2,2,70,0,0
33508,-173.913043478261,4,2,3,50,0,0
34508,-100,4,2,4,60,0,0
34758,-100,4,2,4,45,0,0
35133,-100,4,2,4,60,0,0
38008,-100,4,2,2,60,0,0
38070,-100,4,2,2,60,0,0
38133,-100,4,2,2,60,0,0
38195,-100,4,2,2,5,0,0
38258,-100,4,2,2,60,0,0
38320,-100,4,2,2,5,0,0
38383,-100,4,2,2,60,0,0
38445,-100,4,2,2,5,0,0
38508,-100,4,2,4,60,0,0
43820,-100,4,2,4,35,0,0
44008,-100,4,2,4,60,0,0
47820,-100,4,2,4,35,0,0
48008,-100,4,2,4,60,0,0
50508,-90.9090909090909,4,2,2,60,0,1
50758,-133.333333333333,4,2,2,60,0,0
51008,-76.9230769230769,4,2,2,60,0,1
51258,-133.333333333333,4,2,2,60,0,0
51508,-62.5,4,2,2,60,0,1
51758,-133.333333333333,4,2,2,60,0,0
52508,-83.3333333333333,4,2,10,80,0,1
68508,-86.9565217391304,4,2,2,70,0,0
68758,-62.5,4,2,1,70,0,0
68883,-62.5,4,2,2,70,0,0
69133,-86.9565217391304,4,2,2,70,0,0
70758,-86.9565217391304,4,2,1,70,0,0
70883,-86.9565217391304,4,2,2,70,0,0
72758,-62.5,4,2,1,70,0,0
72883,-62.5,4,2,2,70,0,0
73008,-86.9565217391304,4,2,2,70,0,0
73258,-86.9565217391304,4,2,1,70,0,0
73383,-86.9565217391304,4,2,2,70,0,0
73758,-86.9565217391304,4,2,1,70,0,0
73883,-86.9565217391304,4,2,2,70,0,0
74758,-86.9565217391304,4,2,1,70,0,0
74883,-86.9565217391304,4,2,2,70,0,0
75508,-86.9565217391304,4,2,3,70,0,0
75633,-86.9565217391304,4,2,2,70,0,0
76008,-86.9565217391304,4,2,3,70,0,0
76133,-86.9565217391304,4,2,2,70,0,0
76258,-86.9565217391304,4,2,3,70,0,0
76383,-86.9565217391304,4,2,2,70,0,0
76758,-62.5,4,2,1,70,0,0
76883,-62.5,4,2,2,70,0,0
77008,-86.9565217391304,4,2,2,70,0,0
78758,-86.9565217391304,4,2,1,70,0,0
78883,-86.9565217391304,4,2,2,70,0,0
80758,-62.5,4,2,1,70,0,0
80883,-62.5,4,2,2,70,0,0
81008,-86.9565217391304,4,2,2,70,0,0
81258,-86.9565217391304,4,2,1,70,0,0
81383,-86.9565217391304,4,2,2,70,0,0
81758,-86.9565217391304,4,2,1,70,0,0
81883,-86.9565217391304,4,2,2,70,0,0
82758,-86.9565217391304,4,2,1,70,0,0
82883,-86.9565217391304,4,2,2,70,0,0
83008,-80,4,2,2,70,0,0
83258,-86.9565217391304,4,2,2,70,0,0
83508,-33.3333333333333,4,2,3,50,0,0
83633,-33.3333333333333,4,2,2,50,0,0
83883,-33.3333333333333,4,2,2,5,0,0
84508,-86.9565217391304,4,2,2,40,0,0
90508,-86.9565217391304,4,2,2,45,0,0
92508,-100,4,2,4,60,0,0
99508,-142.857142857143,4,2,4,60,0,0
99758,-100,4,2,4,60,0,0
100008,-100,4,2,4,60,0,0
100508,-90.9090909090909,4,2,2,60,0,1
100758,-133.333333333333,4,2,2,60,0,0
101008,-76.9230769230769,4,2,2,60,0,1
101258,-133.333333333333,4,2,2,60,0,0
101508,-62.5,4,2,2,60,0,1
101633,-133.333333333333,4,2,2,60,0,0
101758,-62.5,4,2,2,60,0,1
101883,-133.333333333333,4,2,2,60,0,0
102508,-83.3333333333333,4,2,10,80,0,1
118508,-83.3333333333333,4,2,2,70,0,0
118758,-62.5,4,2,1,70,0,0
118883,-62.5,4,2,2,70,0,0
119008,-83.3333333333333,4,2,2,70,0,0
120758,-83.3333333333333,4,2,1,70,0,0
120883,-83.3333333333333,4,2,2,70,0,0
122758,-62.5,4,2,1,70,0,0
122883,-62.5,4,2,2,70,0,0
123008,-83.3333333333333,4,2,2,70,0,0
123258,-83.3333333333333,4,2,1,70,0,0
123383,-83.3333333333333,4,2,2,70,0,0
123758,-83.3333333333333,4,2,1,70,0,0
123883,-83.3333333333333,4,2,2,70,0,0
124758,-83.3333333333333,4,2,1,70,0,0
124883,-83.3333333333333,4,2,2,70,0,0
125508,-83.3333333333333,4,2,3,70,0,0
125633,-83.3333333333333,4,2,2,70,0,0
126008,-83.3333333333333,4,2,3,70,0,0
126133,-83.3333333333333,4,2,2,70,0,0
126258,-83.3333333333333,4,2,3,70,0,0
126383,-83.3333333333333,4,2,2,70,0,0
126758,-62.5,4,2,1,70,0,0
126883,-62.5,4,2,2,70,0,0
127008,-83.3333333333333,4,2,2,70,0,0
128758,-83.3333333333333,4,2,1,70,0,0
128883,-83.3333333333333,4,2,2,70,0,0
130758,-62.5,4,2,1,70,0,0
130883,-62.5,4,2,2,70,0,0
131008,-83.3333333333333,4,2,2,70,0,0
131258,-83.3333333333333,4,2,1,70,0,0
131383,-83.3333333333333,4,2,2,70,0,0
132758,-83.3333333333333,4,2,1,70,0,0
132883,-83.3333333333333,4,2,2,70,0,0
133508,-83.3333333333333,4,2,3,70,0,0
133883,-83.3333333333333,4,2,10,70,0,0
134008,-83.3333333333333,4,2,3,70,0,0
134133,-83.3333333333333,4,2,2,70,0,0
134508,-83.3333333333333,4,2,2,80,0,0
136008,-83.3333333333333,4,2,4,80,0,0
136508,-83.3333333333333,4,2,2,80,0,0
138008,-83.3333333333333,4,2,4,80,0,0
138508,-83.3333333333333,4,2,2,80,0,0
140008,-83.3333333333333,4,2,4,80,0,0
140508,-83.3333333333333,4,2,2,80,0,0
141258,-133.333333333333,4,2,2,80,0,0
141758,-133.333333333333,4,2,4,15,0,0

[Colours]
Combo1 : 182,199,218
Combo2 : 154,154,186

[HitObjects]
49,64,2508,6,0,B|71:91|71:91|56:185,1,105,10|0,3:2|0:0,0:0:0:0:
14,241,2883,1,0,3:0:0:0:
14,241,3008,2,0,L|135:236,1,105,0|0,3:0|0:0,0:0:0:0:
193,282,3383,2,0,B|171:309|171:309|186:403,1,105,0|0,3:0|3:0,0:0:0:0:
413,384,3883,1,0,3:0:0:0:
413,384,4008,2,0,L|424:316,1,52.5,0|0,3:0|0:0,0:0:0:0:
364,270,4258,2,0,L|353:202,1,52.5,0|0,3:0|1:2,0:0:0:0:
449,146,4508,6,0,L|311:129,1,105,10|8,3:2|0:2,0:0:0:0:
272,54,4883,1,0,3:0:0:0:
272,54,5008,2,0,B|250:81|250:81|265:175,1,105,0|0,3:0|0:0,0:0:0:0:
255,236,5383,2,0,B|285:238|285:238|319:219|319:219|396:217,2,105,0|0|0,3:0|3:0|3:0,0:0:0:0:
72,127,6133,1,0,0:0:0:0:
72,127,6258,2,0,L|58:54,1,52.5,0|0,3:0|1:0,0:0:0:0:
11,192,6508,6,0,L|-2:309,1,105,10|0,3:2|0:0,0:0:0:0:
58,368,6883,1,0,3:0:0:0:
58,368,7008,2,0,L|204:342,1,105,0|0,3:0|0:0,0:0:0:0:
219,280,7383,2,0,B|191:257|191:257|106:273,2,105,0|0|0,3:0|3:0|3:0,0:0:0:0:
393,352,8133,2,0,L|460:361,2,52.5,0|0|0,0:0|3:0|1:0,0:0:0:0:
335,279,8508,6,0,B|352:243|352:243|341:173,1,105,10|8,3:2|0:0,0:0:0:0:
284,115,8883,1,0,3:0:0:0:
284,115,9008,2,0,L|296:41,1,52.5,0|0,3:0|0:0,0:0:0:0:
211,160,9258,2,0,L|130:167,1,52.5,0|0,0:0|3:0,0:0:0:0:
94,105,9508,6,0,L|81:39,3,52.5,0|0|0|0,0:0|3:0|0:0|3:0,0:0:0:0:
16,0,10008,2,0,B|-3:19|-3:19|10:111,1,105,0|0,3:0|3:0,0:0:0:0:
45,178,10383,5,0,1:0:0:0:
45,178,10508,2,0,L|23:298,1,105,10|0,3:2|0:0,0:0:0:0:
89,351,10883,1,0,3:0:0:0:
89,351,11008,2,0,B|124:335|124:335|205:354,1,105,0|0,3:0|0:0,0:0:0:0:
280,384,11383,2,0,L|259:262,1,105,0|0,3:0|3:0,0:0:0:0:
398,142,11883,1,0,3:0:0:0:
398,142,12008,2,0,L|337:136,1,52.5,0|0,3:0|0:0,0:0:0:0:
227,196,12258,2,0,L|280:191,1,52.5,0|0,3:0|1:0,0:0:0:0:
345,136,12508,6,0,B|359:102|359:102|340:-3,1,105,10|8,3:2|0:0,0:0:0:0:
261,0,12883,1,0,3:0:0:0:
261,0,13008,2,0,L|247:123,1,105,0|0,3:0|0:0,0:0:0:0:
164,131,13383,2,0,L|31:119,1,105,0|0,3:0|3:0,0:0:0:0:
0,294,13883,1,0,3:0:0:0:
0,294,14008,2,0,L|69:284,1,52.5,0|0,3:0|0:0,0:0:0:0:
120,335,14258,2,0,L|189:325,1,52.5,0|0,3:0|1:0,0:0:0:0:
241,279,14508,6,0,L|344:293,1,105,10|0,3:2|0:0,0:0:0:0:
430,384,14883,1,0,3:0:0:0:
430,384,15008,2,0,L|419:311,1,52.5,0|0,3:0|0:0,0:0:0:0:
479,264,15258,1,0,0:0:0:0:
479,264,15383,2,0,B|475:228|475:228|491:198|491:198|490:138,2,105,0|0|0,3:0|3:0|3:0,0:0:0:0:
351,47,16133,1,0,0:0:0:0:
351,47,16258,2,0,L|362:105,1,52.5,0|0,3:2|1:0,0:0:0:0:
309,167,16508,6,0,L|237:159,1,52.5,10|0,3:2|0:0,0:0:0:0:
178,200,16758,2,0,L|106:192,1,52.5,8|0,0:0|3:0,0:0:0:0:
55,147,17008,2,0,L|-28:164,3,52.5,0|0|0|0,3:0|0:0|0:0|3:0,0:0:0:0:
58,233,17508,1,0,0:0:0:0:
58,233,18008,5,8,1:2:0:0:
66,217,18133,1,8,0:2:0:0:
79,300,18258,5,0,1:0:0:0:
66,217,18383,1,0,1:0:0:0:
54,134,18508,2,0,P|33:83|-12:62,1,90.5625017273426,4|0,3:2|0:0,0:0:0:0:
4,65,18758,6,0,L|183:81,1,168,2|0,0:0|1:0,0:0:0:0:
240,27,19133,6,0,P|223:11|169:1,1,60.3750011515618
183,163,19383,2,0,P|211:154|236:134,1,60.3750011515618,8|2,0:2|0:0,0:0:0:0:
112,75,19633,2,0,L|173:80,1,60.3750011515618,8|8,0:0|0:0,0:0:0:0:
175,249,19883,1,0,3:0:0:0:
175,249,20008,2,0,B|95:237|95:237|92:215|116:201,1,120.750002303124,2|8,1:2|0:0,0:0:0:0:
145,360,20508,6,0,B|200:374|202:320|265:337,1,120.750002303124,10|2,0:2|0:0,0:0:0:0:
337,368,20883,1,0,0:0:0:0:
401,313,21008,2,0,P|377:294|348:287,1,60.3750011515618,0|0,1:0|0:0,0:0:0:0:
284,228,21258,1,0,0:0:0:0:
263,173,21382,2,0,P|279:197|283:227,1,60.3750011515618,8|2,0:0|0:0,0:0:0:0:
348,287,21633,2,0,P|369:260|377:172,1,120.750002303124,8|0,0:0|3:0,0:0:0:0:
351,102,22008,5,2,1:2:0:0:
366,99,22133,1,8,0:0:0:0:
283,81,22258,5,8,0:0:0:0:
366,99,22383,1,8,0:0:0:0:
448,115,22508,2,0,P|464:76|465:21,1,90.5625017273426,10|0,0:0|0:0,0:0:0:0:
466,28,22758,6,0,B|492:204,1,168,10|10,0:0|1:2,0:0:0:0:
462,276,23133,6,0,P|433:274|407:259,1,60.3750011515618,2|10,0:0|0:0,0:0:0:0:
481,134,23383,2,0,L|490:194,1,60.3750011515618,0|10,0:0|0:0,0:0:0:0:
407,292,23634,2,0,P|437:291|463:276,1,60.3750011515618,2|10,0:0|0:0,0:0:0:0:
414,210,23883,1,0,3:0:0:0:
430,379,24008,2,0,P|370:375|303:341,1,120.750002303124,2|8,1:2|0:0,0:0:0:0:
36,383,24508,6,0,P|96:379|163:345,1,120.750002303124,8|10,0:0|0:0,0:0:0:0:
222,270,24883,1,8,0:0:0:0:
222,270,25008,2,0,P|193:260|170:241,1,60.3750011515618,0|0,1:0|0:0,0:0:0:0:
48,306,25258,2,0,P|77:302|104:288,1,60.3750011515618,10|8,0:0|0:0,0:0:0:0:
108,149,25508,2,0,L|99:209,2,60.3750011515618,0|0|10,1:0|1:0|0:0,0:0:0:0:
154,77,25883,5,8,0:0:0:0:
22,171,26008,1,0,1:0:0:0:
170,241,26133,1,0,1:0:0:0:
105,136,26258,5,0,1:0:0:0:
108,149,26383,1,0,1:0:0:0:
111,162,26508,2,0,P|76:104|55:91,1,90.5625017273426,4|0,1:2|0:0,0:0:0:0:
57,92,26758,6,0,B|118:86|118:86|157:54|157:54|230:49,1,168,2|0,0:0|1:0,0:0:0:0:
250,126,27133,6,0,L|173:135,1,60.3750011515618
274,0,27383,2,0,P|292:30|291:58,1,60.3750011515618,8|2,0:2|0:0,0:0:0:0:
190,133,27633,2,0,L|250:126,1,60.3750011515618,8|8,0:0|0:0,0:0:0:0:
320,164,27883,1,0,3:0:0:0:
248,292,28008,2,0,L|126:275,1,120.750002303124,2|8,1:2|0:0,0:0:0:0:
429,374,28508,6,0,B|451:330|386:304|426:249,1,120.750002303124,10|2,0:2|0:0,0:0:0:0:
498,236,28883,1,0,0:0:0:0:
489,154,29008,2,0,P|461:159|434:185,1,60.3750011515618,0|0,1:0|0:0,0:0:0:0:
362,135,29258,1,0,0:0:0:0:
311,110,29383,2,0,P|333:129|362:135,1,60.3750011515618,8|2,0:0|0:0,0:0:0:0:
437,179,29633,2,0,P|391:220|316:203,1,120.750002303124,8|0,0:0|3:0,0:0:0:0:
254,194,30008,5,2,1:2:0:0:
251,209,30133,1,8,0:0:0:0:
233,126,30258,5,8,0:0:0:0:
251,209,30383,1,8,0:0:0:0:
267,291,30508,2,0,P|306:313|357:315,1,90.5625017273426,10|0,0:0|0:0,0:0:0:0:
350,316,30758,6,0,B|318:354|318:354|177:362,1,168,10|10,0:0|1:2,0:0:0:0:
142,298,31133,6,0,P|133:268|151:225,1,60.3750011515618,2|10,0:0|0:0,0:0:0:0:
259,369,31383,2,0,L|182:357,1,60.3750011515618,0|10,0:0|0:0,0:0:0:0:
142,298,31633,2,0,P|147:267|139:237,1,60.3750011515618,2|10,0:0|0:0,0:0:0:0:
63,275,31883,1,0,3:0:0:0:
60,145,32008,2,0,B|84:165|84:165|184:155,1,120.750002303124,2|8,1:2|0:0,0:0:0:0:
254,201,32383,5,0,0:0:0:0:
274,83,32508,2,0,B|267:128|267:128|257:147|257:147|253:206,1,120.750002303124,10|8,0:0|0:0,0:0:0:0:
323,253,32883,5,8,0:0:0:0:
360,375,33008,2,0,B|351:327|351:327|331:305|331:305|321:247,1,131.25,0|8,1:0|0:0,0:0:0:0:
401,220,33383,5,8,0:0:0:0:
425,106,33508,6,0,B|421:150|421:150|404:169|404:169|400:225,1,120.750002303124,0|0,1:0|0:0,0:0:0:0:
314,97,34508,5,8,2:2:0:0:
314,97,35008,1,2,0:0:0:0:
314,97,35508,1,0,0:0:0:0:
314,97,36008,1,8,0:0:0:0:
241,84,36258,1,10,0:0:0:0:
168,70,36508,1,8,0:2:0:0:
168,70,37008,5,0,0:0:0:0:
168,70,37508,1,2,0:0:0:0:
168,70,38008,2,0,L|119:71,1,26.25
128,83,38133,2,0,L|79:84,1,26.25
90,98,38258,2,0,L|41:99,1,26.25
50,111,38383,2,0,L|1:112,1,26.25
9,122,38508,6,0,L|22:234,1,105,4|0,0:0|0:0,0:0:0:0:
0,309,38883,1,8,3:2:0:0:
0,309,39008,2,0,P|62:310|111:328,1,105,2|0,0:0|0:0,0:0:0:0:
173,269,39383,2,0,B|183:220|183:220|131:248,1,105,2|2,0:0|0:0,0:0:0:0:
184,359,39758,1,0,0:0:0:0:
184,359,39883,1,0,0:0:0:0:
184,359,40008,2,0,L|296:347,1,105,2|2,0:0|0:0,0:0:0:0:
465,384,40508,5,2,0:0:0:0:
465,384,40758,1,2,0:0:0:0:
469,358,40883,1,2,3:2:0:0:
473,332,41008,2,0,B|475:274|475:274|439:235|439:235|444:167,1,157.5
442,188,41633,5,0,0:0:0:0:
451,183,41758,1,0,3:0:0:0:
459,177,41883,5,0,0:0:0:0:
386,162,42008,1,2,0:0:0:0:
313,150,42133,1,0,0:0:0:0:
29,54,42383,5,0,0:0:0:0:
29,54,42508,2,0,L|142:41,1,105,2|2,0:0|0:0,0:0:0:0:
250,13,42883,1,0,3:0:0:0:
250,13,43008,2,0,P|218:60|219:125,1,105,2|0,0:0|0:0,0:0:0:0:
279,162,43383,2,0,B|329:161|329:161|290:116,1,105,2|2,0:0|0:0,0:0:0:0:
214,106,43758,2,0,L|180:117,4,26.25,2|2|2|2|2,0:0|0:0|0:0|0:0|0:0,0:0:0:0:
90,239,44258,5,2,0:0:0:0:
90,239,44383,1,0,0:0:0:0:
90,239,44508,2,0,P|143:239|207:267,1,105,2|2,0:0|0:0,0:0:0:0:
240,325,44883,1,2,3:2:0:0:
240,325,45008,2,0,P|293:325|357:297,1,105
417,326,45383,2,0,B|452:361|452:361|392:365,1,105,2|2,0:0|0:0,0:0:0:0:
391,248,45758,1,0,0:0:0:0:
391,248,45883,1,2,0:0:0:0:
391,248,46008,2,0,L|374:107,1,105,2|2,0:0|0:0,0:0:0:0:
259,17,46508,6,0,L|253:133,1,105,2|2,0:0|0:0,0:0:0:0:
198,178,46883,1,0,3:0:0:0:
198,178,47008,2,0,P|118:172|81:147,1,105,2|0,0:0|0:0,0:0:0:0:
41,95,47383,2,0,B|42:45|42:45|87:84,1,105,2|2,0:0|0:0,0:0:0:0:
97,160,47758,2,0,L|86:194,4,26.25,2|2|2|2|2,0:0|0:0|0:0|0:0|0:0,0:0:0:0:
22,288,48258,5,2,0:0:0:0:
22,288,48383,1,0,0:0:0:0:
22,288,48508,6,0,B|86:288|86:288|131:323,1,105,0|10,0:0|0:0,0:0:0:0:
185,272,48883,2,0,B|249:272|249:272|294:307,1,105,10|10,0:0|0:0,0:0:0:0:
493,326,49508,5,0,0:0:0:0:
475,169,49758,1,0,0:0:0:0:
324,214,50008,1,0,0:0:0:0:
342,57,50258,1,0,0:0:0:0:
194,192,50508,6,0,B|182:110|182:110|202:84|237:118,1,115.50000352478,8|2,0:0|0:0,0:0:0:0:
104,213,51008,6,0,B|66:124|66:124|89:91|132:123,1,136.499993751526,8|2,0:0|0:0,0:0:0:0:
36,270,51508,5,8,0:0:0:0:
36,270,51633,2,0,B|-10:228|-10:228|0:202|31:208,1,84,2|8,0:0|0:0,0:0:0:0:
3,211,52508,6,0,L|84:201,1,62.9999980773926,8|0,0:0|0:0,0:0:0:0:
130,158,52758,1,2,0:0:0:0:
99,273,52883,1,0,0:0:0:0:
159,289,53008,2,0,L|94:271,1,62.9999980773926,0|0,1:0|0:0,0:0:0:0:
225,241,53258,5,8,2:3:0:0:
234,318,53383,2,0,P|209:358|170:374,1,62.9999980773926,8|0,0:1|0:0,0:0:0:0:
303,270,53633,1,0,3:0:0:0:
303,270,53758,2,0,P|316:306|314:348,1,62.9999980773926,0|0,3:0|3:0,0:0:0:0:
288,191,54008,5,0,1:0:0:0:
385,286,54133,1,8,2:1:0:0:
363,217,54258,1,0,3:0:0:0:
363,217,54383,1,8,2:3:0:0:
480,164,54508,6,0,L|381:155,1,62.9999980773926,8|0,2:3|0:0,0:0:0:0:
373,89,54758,1,10,0:0:0:0:
373,89,54883,1,0,0:0:0:0:
310,98,55008,2,0,L|393:86,1,62.9999980773926,0|0,1:0|0:0,0:0:0:0:
277,25,55258,5,0,0:0:0:0:
229,86,55383,2,0,P|233:123|254:160,1,62.9999980773926,8|0,2:1|0:0,0:0:0:0:
197,10,55633,1,0,0:0:0:0:
197,10,55758,2,0,P|167:34|148:72,1,62.9999980773926
93,105,56008,5,0,1:0:0:0:
162,148,56133,1,0,3:0:0:0:
93,105,56258,2,0,L|9:94,1,62.9999980773926,0|8,3:0|3:3,0:0:0:0:
0,171,56508,6,0,P|15:197|17:247,1,62.9999980773926,8|0,0:0|0:0,0:0:0:0:
99,230,56758,2,0,P|88:270|62:295,1,62.9999980773926,2|0,0:0|0:0,0:0:0:0:
127,355,57008,5,0,1:0:0:0:
127,355,57133,1,0,0:0:0:0:
200,326,57258,2,0,L|262:333,1,62.9999980773926,8|8,0:3|0:1,0:0:0:0:
337,304,57508,5,0,3:2:0:0:
433,315,57633,1,0,3:2:0:0:
361,309,57758,5,0,3:2:0:0:
409,310,57883,1,0,3:2:0:0:
385,314,58008,5,0,1:0:0:0:
385,305,58133,1,0,2:0:0:0:
393,384,58258,5,8,0:1:0:0:
385,305,58383,1,0,0:0:0:0:
374,227,58508,2,0,L|384:147,1,62.9999980773926,8|0,0:0|0:0,0:0:0:0:
293,31,58758,2,0,L|300:113,1,62.9999980773926,10|0,0:0|0:0,0:0:0:0:
233,154,59008,5,0,1:0:0:0:
226,174,59133,1,8,2:1:0:0:
216,136,59258,5,0,0:0:0:0:
235,192,59383,1,0,0:0:0:0:
306,173,59508,5,0,3:0:0:0:
152,174,59633,2,0,B|99:164|95:225|16:195,1,125.999996154785,8|0,3:1|0:0,0:0:0:0:
47,114,60008,5,0,1:0:0:0:
52,124,60133,1,0,3:0:0:0:
76,48,60258,5,8,3:0:0:0:
52,124,60383,1,8,1:1:0:0:
33,200,60508,2,0,L|44:292,1,62.9999980773926,12|0,0:0|0:0,0:0:0:0:
0,332,60758,5,2,0:0:0:0:
109,302,60883,1,0,0:0:0:0:
101,364,61008,2,0,L|112:272,1,62.9999980773926,0|0,1:0|0:0,0:0:0:0:
184,340,61258,5,8,2:3:0:0:
176,262,61383,2,0,P|162:241|118:224,1,62.9999980773926,8|0,0:1|0:0,0:0:0:0:
249,291,61633,1,0,3:0:0:0:
249,291,61758,2,0,P|252:253|238:215,1,62.9999980773926,0|0,3:0|3:0,0:0:0:0:
260,367,62008,5,0,1:0:0:0:
326,250,62133,1,8,2:1:0:0:
327,328,62258,1,0,3:0:0:0:
327,328,62383,1,8,2:3:0:0:
459,291,62508,6,0,L|374:285,1,62.9999980773926,8|0,2:3|0:0,0:0:0:0:
424,166,62758,1,10,0:0:0:0:
424,166,62883,1,0,0:0:0:0:
361,175,63008,2,0,L|444:163,1,62.9999980773926,0|0,1:0|0:0,0:0:0:0:
326,250,63258,5,0,0:0:0:0:
278,189,63383,2,0,P|282:152|303:115,1,62.9999980773926
246,265,63633,1,8,2:1:0:0:
246,265,63758,2,0,P|216:241|197:203,1,62.9999980773926
138,170,64008,5,0,1:0:0:0:
73,219,64133,1,0,3:0:0:0:
138,170,64258,2,0,L|130:90,1,62.9999980773926,0|8,3:0|3:3,0:0:0:0:
38,1,64508,6,0,P|58:23|105:40,1,62.9999980773926,8|0,0:0|0:0,0:0:0:0:
71,119,64758,2,0,P|101:118|145:95,1,62.9999980773926,2|0,0:0|0:0,0:0:0:0:
195,55,65008,5,0,1:0:0:0:
195,55,65133,1,0,0:0:0:0:
263,103,65258,2,0,L|250:197,1,62.9999980773926,8|8,0:3|0:1,0:0:0:0:
196,223,65508,5,0,3:2:0:0:
210,318,65633,1,0,3:2:0:0:
197,247,65758,5,0,3:2:0:0:
208,294,65883,1,0,3:2:0:0:
198,271,66008,5,0,1:0:0:0:
207,269,66133,1,0,2:1:0:0:
120,267,66258,5,8,2:1:0:0:
198,271,66383,1,0,0:0:0:0:
277,272,66508,2,0,L|367:275,1,62.9999980773926,8|0,0:0|0:0,0:0:0:0:
413,306,66758,5,10,0:0:0:0:
370,349,66883,2,0,P|399:330|415:292,1,62.9999980773926,0|0,0:0|1:0,0:0:0:0:
404,229,67133,1,0,0:0:0:0:
404,229,67258,2,0,L|391:146,1,62.9999980773926
423,91,67508,5,0,3:0:0:0:
441,99,67633,1,0,3:0:0:0:
356,100,67758,5,0,0:0:0:0:
507,85,67883,1,0,0:0:0:0:
435,88,68008,5,0,1:0:0:0:
429,99,68133,1,0,3:0:0:0:
423,13,68258,5,8,3:0:0:0:
435,88,68383,1,8,1:1:0:0:
448,163,68508,2,0,P|449:219|420:256,1,90.5625017273426,4|0,3:2|0:0,0:0:0:0:
431,246,68758,6,0,L|252:230,1,168,2|0,0:0|1:0,0:0:0:0:
198,278,69133,6,0,L|206:338,1,60.3750011515618
277,382,69383,2,0,P|306:379|332:363,1,60.3750011515618,8|2,0:2|0:0,0:0:0:0:
206,338,69633,2,0,L|198:278,1,60.3750011515618,8|8,0:0|0:0,0:0:0:0:
255,155,69883,1,0,3:0:0:0:
192,201,70008,2,0,B|112:189|112:189|109:167|133:153,1,120.750002303124,2|8,1:2|0:0,0:0:0:0:
22,6,70508,6,0,B|50:38|50:38|35:121,1,120.750002303124,10|2,0:2|0:0,0:0:0:0:
61,192,70883,1,0,0:0:0:0:
129,155,71008,2,0,P|130:124|118:96,1,60.3750011515618,0|0,1:0|0:0,0:0:0:0:
204,85,71258,1,0,0:0:0:0:
222,30,71382,2,0,P|207:54|204:84,1,60.3750011515618,8|2,0:0|0:0,0:0:0:0:
269,144,71633,2,0,L|396:131,1,120.750002303124,8|0,0:0|3:0,0:0:0:0:
471,149,72008,5,2,1:2:0:0:
468,134,72133,1,8,0:0:0:0:
450,217,72258,5,8,0:0:0:0:
468,134,72383,1,8,0:0:0:0:
484,52,72508,2,0,P|445:36|390:35,1,90.5625017273426,10|0,0:0|0:0,0:0:0:0:
397,33,72758,6,0,B|364:61|364:61|218:45,1,168,10|10,0:0|1:2,0:0:0:0:
184,104,73133,6,0,P|186:133|201:159,1,60.3750011515618,2|10,0:0|0:0,0:0:0:0:
300,41,73383,2,0,L|240:47,1,60.3750011515618,0|10,0:0|0:0,0:0:0:0:
168,159,73634,2,0,P|168:129|183:103,1,60.3750011515618,2|10,0:0|0:0,0:0:0:0:
248,148,73883,1,0,3:0:0:0:
87,125,74008,2,0,P|91:185|125:252,1,120.750002303124,2|8,1:2|0:0,0:0:0:0:
0,315,74508,6,0,L|132:326,1,120.750002303124,8|10,0:0|0:0,0:0:0:0:
235,384,74883,1,8,0:0:0:0:
235,384,75008,2,0,P|221:356|218:326,1,60.3750011515618,0|0,1:0|0:0,0:0:0:0:
344,294,75258,2,0,P|326:319|302:336,1,60.3750011515618,8|8,0:0|0:0,0:0:0:0:
282,202,75508,2,0,L|273:262,2,60.3750011515618,2|0|8,1:2|1:0|0:0,0:0:0:0:
328,130,75883,5,8,0:0:0:0:
196,224,76008,1,2,1:2:0:0:
344,294,76133,1,2,1:2:0:0:
277,188,76258,5,0,1:0:0:0:
282,202,76383,1,0,1:0:0:0:
285,215,76508,2,0,P|250:157|229:144,1,90.5625017273426,4|0,1:2|0:0,0:0:0:0:
231,145,76758,6,0,B|292:139|292:139|331:107|331:107|404:102,1,168,2|0,0:0|1:0,0:0:0:0:
421,178,77133,6,0,L|344:187,1,60.3750011515618
445,52,77383,2,0,P|463:82|462:110,1,60.3750011515618,8|2,0:2|0:0,0:0:0:0:
361,185,77633,2,0,L|421:178,1,60.3750011515618,8|8,0:0|0:0,0:0:0:0:
491,216,77883,1,0,3:0:0:0:
393,350,78008,2,0,L|271:333,1,120.750002303124,2|8,1:2|0:0,0:0:0:0:
84,384,78508,6,0,B|117:319|87:259,1,120.750002303124,10|2,0:2|0:0,0:0:0:0:
27,224,78883,1,0,0:0:0:0:
95,189,79008,2,0,P|123:194|150:220,1,60.3750011515618,0|0,1:0|0:0,0:0:0:0:
186,281,79258,1,0,0:0:0:0:
237,256,79383,2,0,P|215:275|186:281,1,60.3750011515618,8|2,0:0|0:0,0:0:0:0:
146,214,79633,2,0,P|183:162|182:95,1,120.750002303124,8|0,0:0|3:0,0:0:0:0:
142,32,80008,5,2,1:2:0:0:
127,29,80133,1,8,0:0:0:0:
210,11,80258,5,8,0:0:0:0:
127,29,80383,1,8,0:0:0:0:
45,45,80508,2,0,P|23:84|21:135,1,90.5625017273426,10|0,0:0|0:0,0:0:0:0:
19,128,80758,6,0,B|187:106,1,168,10|10,0:0|1:2,0:0:0:0:
261,72,81133,6,0,P|270:102|252:145,1,60.3750011515618,2|10,0:0|0:0,0:0:0:0:
204,195,81383,2,0,L|145:186,1,60.3750011515618,0|10,0:0|0:0,0:0:0:0:
263,129,81633,2,0,P|255:101|263:72,1,60.3750011515618,2|10,0:0|0:0,0:0:0:0:
340,95,81883,1,0,3:0:0:0:
444,43,82008,2,0,B|424:67|424:67|434:167,1,120.750002303124,2|8,1:2|0:0,0:0:0:0:
370,216,82383,5,0,0:0:0:0:
253,237,82508,2,0,B|298:230|298:230|317:220|317:220|376:216,1,120.750002303124,8|10,0:0|0:0,0:0:0:0:
359,301,82883,5,8,0:0:0:0:
481,338,83008,2,0,B|433:329|433:329|411:309|411:309|353:299,1,131.25,0|8,1:0|0:0,0:0:0:0:
275,343,83383,5,8,0:0:0:0:
199,354,83508,6,0,B|230:341|276:343|276:343|234:363|196:362,1,157.500006008148,0|0,1:0|0:0,0:0:0:0:
148,115,90508,5,8,3:2:0:0:
148,115,91008,1,8,3:2:0:0:
224,120,91508,1,8,0:2:0:0:
224,120,91758,1,8,0:2:0:0:
301,125,92008,1,8,0:2:0:0:
301,125,92258,1,8,0:2:0:0:
365,169,92508,6,0,L|382:277,1,105,8|0,3:2|0:0,0:0:0:0:
385,276,93008,2,0,L|368:172,1,105,0|2,3:0|0:0,0:0:0:0:
423,119,93383,1,2,0:0:0:0:
423,119,93633,1,8,0:0:0:0:
423,119,93883,1,8,0:0:0:0:
378,52,94008,6,0,L|306:46,1,52.5,2|2,3:2|0:2,0:0:0:0:
256,78,94258,2,0,L|207:72,3,26.25,2|0|0|0,0:0|0:0|0:0|0:0,0:0:0:0:
221,80,94508,2,0,L|114:87,1,105,8|0,3:2|0:0,0:0:0:0:
112,90,95008,2,0,L|216:83,1,105,0|2,3:0|0:0,0:0:0:0:
248,156,95383,1,10,0:0:0:0:
248,156,95633,1,8,0:0:0:0:
248,156,95883,1,8,0:0:0:0:
192,211,96008,6,0,L|201:266,1,52.5,2|2,3:2|0:0,0:0:0:0:
154,325,96258,2,0,L|105:331,3,26.25,2|0|0|0,0:0|0:0|0:0|0:0,0:0:0:0:
118,322,96508,2,0,L|7:314,1,105,0|0,3:0|0:0,0:0:0:0:
56,243,96883,1,0,0:0:0:0:
56,243,97008,2,0,P|80:211|89:146,1,105,0|2,3:0|0:0,0:0:0:0:
46,77,97383,1,2,0:0:0:0:
46,77,97508,6,0,L|98:66,1,52.5,0|8,3:0|0:0,0:0:0:0:
160,118,97758,2,0,L|212:129,1,52.5,0|8,0:0|0:0,0:0:0:0:
285,109,98008,2,0,P|276:84|258:65,1,52.5,2|2,3:2|0:0,0:0:0:0:
211,128,98258,2,0,L|205:177,3,26.25,2|0|0|0,0:0|0:0|0:0|0:0,0:0:0:0:
214,169,98508,2,0,P|236:235|232:273,1,105,0|0,3:0|0:0,0:0:0:0:
205,351,98883,1,0,0:0:0:0:
205,351,99008,2,0,L|322:340,1,105,0|0,3:0|0:0,0:0:0:0:
384,306,99383,1,0,0:0:0:0:
384,306,99508,6,0,B|420:315|420:315|386:343,1,73.4999977569581,0|0,3:0|0:0,0:0:0:0:
512,162,100008,1,10,0:0:0:0:
420,213,100258,1,10,0:0:0:0:
339,151,100508,6,0,B|352:69|352:69|379:50|402:93,1,115.50000352478,10|2,0:0|1:2,0:0:0:0:
249,185,101008,6,0,B|242:88|242:88|206:69|183:117,1,136.499993751526,10|2,0:0|1:2,0:0:0:0:
126,216,101508,6,0,B|132:154|132:154|159:146|178:172,1,84,10|2,0:0|1:2,0:0:0:0:
39,262,101758,6,0,B|32:200|32:200|5:192|-8:221,1,84,10|0,0:0|0:0,0:0:0:0:
10,200,102508,6,0,L|91:190,1,62.9999980773926,8|0,0:0|0:0,0:0:0:0:
125,252,102758,1,2,0:0:0:0:
203,147,102883,1,0,0:0:0:0:
197,210,103008,2,0,L|204:142,1,62.9999980773926,0|0,1:0|0:0,0:0:0:0:
272,231,103258,5,8,2:3:0:0:
220,284,103383,2,0,P|219:326|233:358,1,62.9999980773926,8|0,0:1|0:0,0:0:0:0:
351,246,103633,1,0,3:0:0:0:
351,246,103758,2,0,P|350:208|333:170,1,62.9999980773926,0|0,3:0|3:0,0:0:0:0:
381,315,104008,5,0,1:0:0:0:
483,252,104133,1,8,2:1:0:0:
459,322,104258,1,0,3:0:0:0:
459,322,104383,1,8,2:3:0:0:
483,252,104508,6,0,L|491:184,1,62.9999980773926,8|0,2:3|0:0,0:0:0:0:
456,113,104758,1,10,0:0:0:0:
456,113,104883,1,0,0:0:0:0:
393,104,105008,2,0,L|476:116,1,62.9999980773926,0|0,1:0|0:0,0:0:0:0:
317,130,105258,5,0,0:0:0:0:
271,65,105383,2,0,P|275:28|296:-9,1,62.9999980773926,8|0,2:1|0:0,0:0:0:0:
207,108,105633,1,0,0:0:0:0:
207,108,105758,2,0,P|220:143|218:186,1,62.9999980773926
115,66,106008,5,0,1:0:0:0:
184,23,106133,1,0,3:0:0:0:
115,66,106258,2,0,L|31:77,1,62.9999980773926,0|8,3:0|3:3,0:0:0:0:
7,148,106508,6,0,P|22:174|24:224,1,62.9999980773926,8|0,0:0|0:0,0:0:0:0:
107,216,106758,2,0,P|96:256|70:281,1,62.9999980773926,2|0,0:0|0:0,0:0:0:0:
134,344,107008,5,0,1:0:0:0:
134,344,107133,1,0,0:0:0:0:
213,333,107258,2,0,L|275:340,1,62.9999980773926,8|8,0:3|0:1,0:0:0:0:
269,253,107508,5,0,3:2:0:0:
173,264,107633,1,0,3:2:0:0:
245,258,107758,5,0,3:2:0:0:
197,259,107883,1,0,3:2:0:0:
221,263,108008,5,0,1:0:0:0:
221,254,108133,1,8,2:1:0:0:
213,333,108258,5,0,0:3:0:0:
221,254,108383,1,0,0:0:0:0:
232,176,108508,2,0,L|222:96,1,62.9999980773926,8|0,0:0|0:0,0:0:0:0:
383,24,108758,2,0,L|376:106,1,62.9999980773926,10|0,0:0|0:0,0:0:0:0:
305,157,109008,5,0,1:0:0:0:
312,177,109133,1,0,0:0:0:0:
322,139,109258,5,0,0:0:0:0:
303,195,109383,1,0,0:0:0:0:
232,176,109508,5,0,3:0:0:0:
386,177,109633,2,0,B|439:167|443:228|522:198,1,125.999996154785,0|0,3:0|0:0,0:0:0:0:
491,117,110008,5,0,1:0:0:0:
486,127,110133,1,0,3:0:0:0:
462,51,110258,5,8,3:0:0:0:
486,127,110383,1,8,1:1:0:0:
505,203,110508,2,0,L|494:295,1,62.9999980773926,8|0,0:0|0:0,0:0:0:0:
460,335,110758,5,2,0:0:0:0:
416,271,110883,1,0,0:0:0:0:
354,279,111008,2,0,L|446:268,1,62.9999980773926,0|0,1:0|0:0,0:0:0:0:
291,330,111258,5,8,2:3:0:0:
280,251,111383,2,0,P|270:217|247:187,1,62.9999980773926,8|0,0:1|0:0,0:0:0:0:
211,301,111633,5,0,3:0:0:0:
211,301,111758,2,0,P|201:335|178:365,1,62.9999980773926,0|0,3:0|3:0,0:0:0:0:
161,227,112008,5,0,1:0:0:0:
33,246,112133,1,8,2:1:0:0:
105,279,112258,1,0,3:0:0:0:
105,279,112383,1,8,2:3:0:0:
92,199,112508,6,0,L|101:130,1,62.9999980773926,8|0,2:3|0:0,0:0:0:0:
63,69,112758,1,10,0:0:0:0:
63,69,112883,1,0,0:0:0:0:
0,78,113008,2,0,L|83:66,1,62.9999980773926,0|0,1:0|0:0,0:0:0:0:
114,0,113258,5,0,0:0:0:0:
175,50,113383,2,0,P|186:85|182:127,1,62.9999980773926,8|0,2:1|0:0,0:0:0:0:
266,60,113633,1,0,0:0:0:0:
266,60,113758,2,0,P|266:28|277:0,1,62.9999980773926
336,106,114008,5,0,1:0:0:0:
401,57,114133,1,0,3:0:0:0:
336,106,114258,2,0,L|344:186,1,62.9999980773926,0|8,3:0|3:3,0:0:0:0:
411,214,114508,6,0,P|391:236|344:253,1,62.9999980773926,8|0,0:0|0:0,0:0:0:0:
378,332,114758,2,0,P|348:331|304:308,1,62.9999980773926,2|0,0:0|0:0,0:0:0:0:
255,256,115008,5,0,1:0:0:0:
255,256,115133,1,0,0:0:0:0:
187,304,115258,2,0,L|200:398,1,62.9999980773926,8|8,0:3|0:1,0:0:0:0:
104,274,115508,5,0,3:2:0:0:
118,179,115633,1,0,3:2:0:0:
105,250,115758,5,0,3:2:0:0:
116,203,115883,1,0,3:2:0:0:
106,226,116008,5,0,1:0:0:0:
115,228,116133,1,8,2:1:0:0:
28,230,116258,5,0,0:3:0:0:
106,226,116383,1,0,0:0:0:0:
185,225,116508,2,0,L|275:222,1,62.9999980773926,8|0,0:0|0:0,0:0:0:0:
296,156,116758,5,10,0:0:0:0:
286,93,116883,2,0,L|298:169,1,62.9999980773926,0|0,0:0|1:0,0:0:0:0:
369,229,117133,1,0,0:0:0:0:
369,229,117258,2,0,L|379:167,1,62.9999980773926
359,306,117508,5,0,3:0:0:0:
377,298,117633,1,0,3:0:0:0:
292,297,117758,5,0,0:0:0:0:
443,312,117883,1,0,0:0:0:0:
371,309,118008,5,0,1:0:0:0:
365,298,118133,1,0,3:0:0:0:
359,384,118258,5,8,3:0:0:0:
371,309,118383,1,8,1:1:0:0:
384,234,118508,2,0,P|384:193|353:130,1,94.499997116089,4|0,3:2|0:0,0:0:0:0:
364,143,118758,6,0,L|185:159,1,168,2|0,0:0|1:0,0:0:0:0:
132,114,119133,6,0,P|156:89|187:80,1,62.9999980773926
202,237,119383,2,0,P|170:234|144:217,1,62.9999980773926,8|2,0:2|0:0,0:0:0:0:
259,151,119633,2,0,L|196:158,1,62.9999980773926,8|8,0:0|0:0,0:0:0:0:
133,297,119883,1,0,3:0:0:0:
211,320,120008,2,0,B|295:307|295:307|294:286|270:272,1,125.999996154785,2|8,1:2|0:0,0:0:0:0:
70,242,120383,1,0,0:0:0:0:
70,242,120508,6,0,B|42:210|42:210|56:124,1,125.999996154785,10|2,0:2|0:0,0:0:0:0:
0,64,120883,1,0,0:0:0:0:
61,6,121008,2,0,P|90:4|123:19,1,62.9999980773926,0|0,1:0|0:0,0:0:0:0:
131,107,121258,1,0,0:0:0:0:
188,87,121382,2,0,P|158:89|130:109,1,62.9999980773926,8|2,0:0|0:0,0:0:0:0:
234,15,121633,2,0,P|299:56|355:62,1,125.999996154785,8|0,0:0|3:0,0:0:0:0:
432,72,122008,5,2,1:2:0:0:
429,87,122133,1,8,0:0:0:0:
411,4,122258,5,8,0:0:0:0:
429,87,122383,1,8,0:0:0:0:
445,169,122508,2,0,P|399:167|359:128,1,94.499997116089,10|0,0:0|0:0,0:0:0:0:
363,136,122758,6,0,B|391:169|391:169|375:315,1,168,10|10,0:0|1:2,0:0:0:0:
292,305,123133,6,0,L|302:236,1,62.9999980773926,2|10,0:0|0:0,0:0:0:0:
416,364,123383,2,0,P|385:374|352:368,1,62.9999980773926,0|10,0:0|0:0,0:0:0:0:
301,242,123633,2,0,L|292:305,1,62.9999980773926,2|10,0:0|0:0,0:0:0:0:
378,294,123883,1,0,3:0:0:0:
239,377,124008,2,0,B|208:344|208:344|201:240,1,125.999996154785,2|8,1:2|0:0,0:0:0:0:
235,185,124383,1,0,0:0:0:0:
148,88,124508,6,0,L|134:225,1,125.999996154785,8|10,0:0|0:0,0:0:0:0:
6,263,124883,1,8,0:0:0:0:
6,263,125008,2,0,P|37:264|69:279,1,62.9999980773926,0|0,1:0|0:0,0:0:0:0:
154,337,125258,2,0,P|123:341|95:357,1,62.9999980773926,8|8,0:0|0:0,0:0:0:0:
231,230,125508,2,0,L|221:297,2,62.9999980773926,2|0|8,1:2|1:0|0:0,0:0:0:0:
277,158,125883,5,8,0:0:0:0:
145,252,126008,1,2,1:2:0:0:
293,322,126133,1,2,1:2:0:0:
228,217,126258,5,0,1:0:0:0:
231,230,126383,1,0,1:0:0:0:
234,243,126508,2,0,P|199:185|178:173,1,94.499997116089,4|0,1:2|0:0,0:0:0:0:
177,172,126758,6,0,B|238:166|238:166|277:134|277:134|350:129,1,168,2|0,0:0|1:0,0:0:0:0:
418,123,127133,6,0,P|412:93|390:71,1,62.9999980773926
271,122,127383,2,0,L|333:130,1,62.9999980773926,8|2,0:2|0:0,0:0:0:0:
446,69,127633,2,0,P|440:98|418:122,1,62.9999980773926,8|8,0:0|0:0,0:0:0:0:
368,59,127883,1,0,3:0:0:0:
491,163,128008,2,0,L|473:299,1,125.999996154785,2|8,1:2|0:0,0:0:0:0:
410,341,128383,1,0,0:0:0:0:
303,203,128508,6,0,B|157:215,1,125.999996154785,10|2,0:2|0:0,0:0:0:0:
100,251,128883,1,0,0:0:0:0:
38,198,129008,2,0,P|20:173|19:138,1,62.9999980773926,0|0,1:0|0:0,0:0:0:0:
95,102,129258,1,0,0:0:0:0:
111,44,129383,2,0,P|111:74|89:107,1,62.9999980773926,8|2,0:0|0:0,0:0:0:0:
203,14,129634,2,0,B|190:49|190:49|215:148,1,125.999996154785,8|0,0:0|3:0,0:0:0:0:
249,209,130008,5,2,1:2:0:0:
261,200,130133,1,8,0:0:0:0:
177,213,130258,5,8,0:0:0:0:
261,200,130383,1,8,0:0:0:0:
344,186,130508,2,0,P|378:214|398:266,1,94.499997116089,10|0,0:0|0:0,0:0:0:0:
397,259,130758,6,0,B|419:91,1,168,10|10,0:0|1:2,0:0:0:0:
498,75,131133,6,0,L|491:144,1,62.9999980773926,2|10,0:0|0:0,0:0:0:0:
375,27,131383,6,0,P|402:14|436:16,1,62.9999980773926,0|10,0:0|0:0,0:0:0:0:
491,137,131633,2,0,L|497:74,1,62.9999980773926,2|8,0:0|0:0,0:0:0:0:
344,99,131883,1,0,3:0:0:0:
344,99,132008,2,0,B|320:119|320:119|216:108,1,125.999996154785,2|8,1:2|0:0,0:0:0:0:
164,62,132383,5,0,0:0:0:0:
225,109,132508,2,0,P|236:135|229:191,1,62.9999980773926,8|0,0:0|0:0,0:0:0:0:
172,213,132758,5,10,0:0:0:0:
109,167,132883,1,8,0:0:0:0:
172,213,133008,2,0,P|161:239|168:295,1,62.9999980773926,0|0,1:0|0:0,0:0:0:0:
232,310,133258,5,8,0:0:0:0:
292,256,133383,1,8,0:0:0:0:
232,310,133508,2,0,P|243:336|236:392,3,62.9999980773926,0|0|8|0,1:0|0:0|0:0|2:2,0:0:0:0:
167,355,134008,5,0,1:0:0:0:
253,341,134133,1,0,1:0:0:0:
336,325,134258,2,0,P|371:275|373:246,1,62.9999980773926,0|0,1:3|1:3,0:0:0:0:
445,48,134508,6,0,L|312:32,1,125.999996154785,10|0,0:0|0:0,0:0:0:0:
315,36,134883,2,0,L|440:51,1,125.999996154785,10|0,0:0|0:0,0:0:0:0:
436,55,135258,1,14,0:0:0:0:
253,94,135508,1,0,0:0:0:0:
329,114,135633,1,10,1:2:0:0:
278,169,135883,1,0,0:0:0:0:
355,181,136008,2,0,L|490:201,1,125.999996154785,0|0,0:2|0:2,0:0:0:0:
34,103,136508,6,0,L|167:87,1,125.999996154785,10|2,0:0|0:0,0:0:0:0:
164,91,136883,2,0,L|39:106,1,125.999996154785,10|2,0:0|0:0,0:0:0:0:
43,110,137258,1,14,0:0:0:0:
225,150,137508,1,0,0:0:0:0:
150,166,137633,1,10,1:2:0:0:
201,224,137883,1,0,0:0:0:0:
124,236,138008,2,0,L|-11:256,1,125.999996154785
454,182,138508,6,0,L|321:166,1,125.999996154785,10|0,0:0|0:0,0:0:0:0:
324,170,138883,2,0,L|449:185,1,125.999996154785,10|0,0:0|0:0,0:0:0:0:
445,189,139258,1,14,0:0:0:0:
264,228,139508,1,0,0:0:0:0:
340,247,139633,1,10,1:2:0:0:
287,303,139883,1,0,0:0:0:0:
364,315,140008,2,0,L|499:335,1,125.999996154785
189,205,140508,6,0,L|266:102,1,125.999996154785,10|2,0:0|0:0,0:0:0:0:
268,108,140883,2,0,L|318:226,1,125.999996154785,10|2,0:0|0:0,0:0:0:0:
244,262,141258,1,14,0:0:0:0:
