osu file format v14

[General]
AudioFilename: audio.mp3
AudioLeadIn: 0
PreviewTime: 52008
Countdown: 0
SampleSet: Soft
StackLeniency: 0.4
Mode: 0
LetterboxInBreaks: 0
WidescreenStoryboard: 1

[Editor]
Bookmarks: 2508,26508,52508,68508,84508,102508,118508,134508,141258
DistanceSpacing: 0.1
BeatDivisor: 8
GridSize: 8
TimelineZoom: 8

[Metadata]
Title:Karada wa Shoujiki datte Ittenno
TitleUnicode:身体は正直だって言ってんの
Artist:Shikiura.
ArtistUnicode:式浦。
Creator:seros
Version:alevi & brain's Extra
Source:
Tags:Just Saying, The Body Is Honest. japanese pop jpop j-pop vocaloid 歌愛ユキ Kaai Yuki ROTUS. papapa213 papapa pigeons zengsb hakusui3820 hakusui_sama hakusui sama alevi brain exe raijodo -45 ttmnzk TT Mouse
BeatmapID:3749509
BeatmapSetID:1767411

[Difficulty]
HPDrainRate:5
CircleSize:4.2
OverallDifficulty:8.8
ApproachRate:9.2
SliderMultiplier:2.1
SliderTickRate:1

[Events]
//Background and Video events
0,0,"bg.jpg",0,0
Video,-144,"video.mp4"
//Break Periods
2,84508,89938
//Storyboard Layer 0 (Background)
//Storyboard Layer 1 (Fail)
//Storyboard Layer 2 (Pass)
//Storyboard Layer 3 (Foreground)
//Storyboard Layer 4 (Overlay)
//Storyboard Sound Samples
Sample,2508,0,"SBK/20.wav",40
Sample,3008,0,"SBK/20.wav",40
Sample,3383,0,"SBK/21.wav",60
Sample,3633,0,"SBK/21.wav",60
Sample,3883,0,"SBK/21.wav",60
Sample,4508,0,"SBK/22.wav",60
Sample,5008,0,"SBK/22.wav",60
Sample,5383,0,"SBK/23.wav",60
Sample,5633,0,"SBK/23.wav",60
Sample,5883,0,"SBK/24.wav",60
Sample,6508,0,"SBK/25.wav",60
Sample,7008,0,"SBK/25.wav",60
Sample,7383,0,"SBK/26.wav",60
Sample,7633,0,"SBK/26.wav",60
Sample,7883,0,"SBK/26.wav",60
Sample,8508,0,"SBK/27.wav",60
Sample,9008,0,"SBK/28.wav",60
Sample,9383,0,"SBK/29.wav",60
Sample,9633,0,"SBK/29.wav",60
Sample,9883,0,"SBK/29.wav",60
Sample,10508,0,"SBK/20.wav",60
Sample,11008,0,"SBK/20.wav",60
Sample,11383,0,"SBK/21.wav",60
Sample,11633,0,"SBK/21.wav",60
Sample,11883,0,"SBK/21.wav",60
Sample,12508,0,"SBK/22.wav",60
Sample,13008,0,"SBK/22.wav",60
Sample,13383,0,"SBK/23.wav",60
Sample,13633,0,"SBK/23.wav",60
Sample,13883,0,"SBK/24.wav",60
Sample,14508,0,"SBK/25.wav",60
Sample,15008,0,"SBK/25.wav",60
Sample,15383,0,"SBK/26.wav",60
Sample,15633,0,"SBK/26.wav",60
Sample,15883,0,"SBK/26.wav",60
Sample,16508,0,"SBK/27.wav",60
Sample,17008,0,"SBK/28.wav",60
Sample,17383,0,"SBK/29.wav",60
Sample,18508,0,"SBK/20.wav",60
Sample,19008,0,"SBK/20.wav",60
Sample,19383,0,"SBK/21.wav",60
Sample,19633,0,"SBK/21.wav",60
Sample,19883,0,"SBK/21.wav",60
Sample,20508,0,"SBK/22.wav",60
Sample,21008,0,"SBK/22.wav",60
Sample,21383,0,"SBK/23.wav",60
Sample,21633,0,"SBK/23.wav",60
Sample,21883,0,"SBK/24.wav",60
Sample,22508,0,"SBK/25.wav",60
Sample,23008,0,"SBK/25.wav",60
Sample,23383,0,"SBK/26.wav",60
Sample,23633,0,"SBK/26.wav",60
Sample,23883,0,"SBK/26.wav",60
Sample,24508,0,"SBK/27.wav",60
Sample,25008,0,"SBK/28.wav",60
Sample,25383,0,"SBK/29.wav",60
Sample,25633,0,"SBK/29.wav",60
Sample,25883,0,"SBK/29.wav",60
Sample,26508,0,"SBK/20.wav",60
Sample,27008,0,"SBK/20.wav",60
Sample,27383,0,"SBK/21.wav",60
Sample,27633,0,"SBK/21.wav",60
Sample,27883,0,"SBK/21.wav",60
Sample,28508,0,"SBK/22.wav",60
Sample,29008,0,"SBK/22.wav",60
Sample,29383,0,"SBK/23.wav",60
Sample,29633,0,"SBK/23.wav",60
Sample,29883,0,"SBK/24.wav",60
Sample,30508,0,"SBK/25.wav",60
Sample,31008,0,"SBK/25.wav",60
Sample,31383,0,"SBK/26.wav",60
Sample,31633,0,"SBK/26.wav",60
Sample,31883,0,"SBK/26.wav",60
Sample,32508,0,"SBK/27.wav",60
Sample,33008,0,"SBK/28.wav",60
Sample,33383,0,"SBK/29.wav",60
Sample,68508,0,"SBK/20.wav",60
Sample,69008,0,"SBK/20.wav",60
Sample,69383,0,"SBK/21.wav",60
Sample,69633,0,"SBK/21.wav",60
Sample,69883,0,"SBK/21.wav",60
Sample,70508,0,"SBK/22.wav",60
Sample,71008,0,"SBK/22.wav",60
Sample,71383,0,"SBK/23.wav",60
Sample,71633,0,"SBK/23.wav",60
Sample,71883,0,"SBK/24.wav",60
Sample,72508,0,"SBK/25.wav",60
Sample,73008,0,"SBK/25.wav",60
Sample,73383,0,"SBK/26.wav",60
Sample,73633,0,"SBK/26.wav",60
Sample,73883,0,"SBK/26.wav",60
Sample,74508,0,"SBK/27.wav",60
Sample,75008,0,"SBK/28.wav",60
Sample,75383,0,"SBK/29.wav",60
Sample,75633,0,"SBK/29.wav",60
Sample,75883,0,"SBK/29.wav",60
Sample,76508,0,"SBK/20.wav",60
Sample,77008,0,"SBK/20.wav",60
Sample,77383,0,"SBK/21.wav",60
Sample,77633,0,"SBK/21.wav",60
Sample,77883,0,"SBK/21.wav",60
Sample,78508,0,"SBK/22.wav",60
Sample,79008,0,"SBK/22.wav",60
Sample,79383,0,"SBK/23.wav",60
Sample,79633,0,"SBK/23.wav",60
Sample,79883,0,"SBK/24.wav",60
Sample,80508,0,"SBK/25.wav",60
Sample,81008,0,"SBK/25.wav",60
Sample,81383,0,"SBK/26.wav",60
Sample,81633,0,"SBK/26.wav",60
Sample,81883,0,"SBK/26.wav",60
Sample,82508,0,"SBK/27.wav",60
Sample,83008,0,"SBK/28.wav",60
Sample,118508,0,"SBK/40.wav",60
Sample,119008,0,"SBK/40.wav",60
Sample,119383,0,"SBK/41.wav",60
Sample,119633,0,"SBK/41.wav",60
Sample,119883,0,"SBK/41.wav",60
Sample,120508,0,"SBK/42.wav",60
Sample,121008,0,"SBK/42.wav",60
Sample,121383,0,"SBK/43.wav",60
Sample,121633,0,"SBK/43.wav",60
Sample,121883,0,"SBK/44.wav",60
Sample,122508,0,"SBK/45.wav",60
Sample,123008,0,"SBK/45.wav",60
Sample,123383,0,"SBK/46.wav",60
Sample,123633,0,"SBK/46.wav",60
Sample,123883,0,"SBK/46.wav",60
Sample,124508,0,"SBK/47.wav",60
Sample,125008,0,"SBK/48.wav",60
Sample,125383,0,"SBK/49.wav",60
Sample,125633,0,"SBK/49.wav",60
Sample,125883,0,"SBK/49.wav",60
Sample,126508,0,"SBK/40.wav",60
Sample,127008,0,"SBK/40.wav",60
Sample,127383,0,"SBK/41.wav",60
Sample,127633,0,"SBK/41.wav",60
Sample,127883,0,"SBK/41.wav",60
Sample,128508,0,"SBK/42.wav",60
Sample,129008,0,"SBK/42.wav",60
Sample,129383,0,"SBK/43.wav",60
Sample,129633,0,"SBK/43.wav",60
Sample,129883,0,"SBK/44.wav",60
Sample,130508,0,"SBK/45.wav",60
Sample,131008,0,"SBK/45.wav",60
Sample,131383,0,"SBK/46.wav",60
Sample,131633,0,"SBK/46.wav",60
Sample,131883,0,"SBK/46.wav",60
Sample,132508,0,"SBK/47.wav",60
Sample,133008,0,"SBK/48.wav",60
Sample,133383,0,"SBK/49.wav",60
Sample,133633,0,"SBK/49.wav",60
Sample,133883,0,"SBK/49.wav",60

[TimingPoints]
478,508.474576271186,4,2,1,50,1,0
2508,500,4,2,1,50,1,0
9258,-111.111111111111,4,2,1,50,0,0
9508,-111.111111111111,4,2,1,50,0,0
17508,-250,4,2,1,50,0,0
18008,-250,4,2,2,50,0,0
18133,-250,4,2,2,55,0,0
18258,-250,4,2,2,60,0,0
18383,-250,4,2,2,65,0,0
18508,-71.4285714285714,4,2,2,70,0,0
18758,-71.4285714285714,4,2,1,70,0,0
18883,-71.4285714285714,4,2,2,70,0,0
20758,-71.4285714285714,4,2,1,70,0,0
20883,-71.4285714285714,4,2,2,70,0,0
22758,-71.4285714285714,4,2,1,70,0,0
22883,-71.4285714285714,4,2,2,70,0,0
23258,-71.4285714285714,4,2,1,70,0,0
23383,-71.4285714285714,4,2,2,70,0,0
23758,-71.4285714285714,4,2,1,70,0,0
23883,-71.4285714285714,4,2,2,70,0,0
24758,-71.4285714285714,4,2,1,70,0,0
24883,-71.4285714285714,4,2,2,70,0,0
25258,-71.4285714285714,4,2,1,70,0,0
25383,-71.4285714285714,4,2,2,70,0,0
25508,-71.4285714285714,4,2,3,70,0,0
25633,-71.4285714285714,4,2,2,70,0,0
25758,-71.4285714285714,4,2,1,70,0,0
25883,-71.4285714285714,4,2,2,70,0,0
26008,-71.4285714285714,4,2,3,70,0,0
26133,-71.4285714285714,4,2,2,70,0,0
26258,-71.4285714285714,4,2,3,70,0,0
26383,-71.4285714285714,4,2,2,70,0,0
26758,-71.4285714285714,4,2,1,70,0,0
26883,-71.4285714285714,4,2,2,70,0,0
28758,-71.4285714285714,4,2,1,70,0,0
28883,-71.4285714285714,4,2,2,70,0,0
30758,-71.4285714285714,4,2,1,70,0,0
30883,-71.4285714285714,4,2,2,70,0,0
31258,-71.4285714285714,4,2,1,70,0,0
31383,-71.4285714285714,4,2,2,70,0,0
31758,-71.4285714285714,4,2,1,70,0,0
31883,-71.4285714285714,4,2,2,70,0,0
32508,-71.4285714285714,4,2,1,70,0,0
32633,-71.4285714285714,4,2,2,70,0,0
33508,-100,4,2,3,50,0,0
34508,-100,4,2,4,60,0,0
34758,-100,4,2,4,45,0,0
35133,-100,4,2,4,60,0,0
38008,-71.4285714285714,4,2,2,60,0,0
38508,-71.4285714285714,4,2,4,60,0,0
39383,-71.4285714285714,4,2,4,60,0,0
40508,-71.4285714285714,4,2,4,60,0,0
43383,-71.4285714285714,4,2,4,60,0,0
43758,-71.4285714285714,4,2,4,60,0,0
43820,-71.4285714285714,4,2,4,35,0,0
44008,-71.4285714285714,4,2,4,60,0,0
47383,-71.4285714285714,4,2,4,60,0,0
47758,-71.4285714285714,4,2,4,60,0,0
47820,-71.4285714285714,4,2,4,35,0,0
48008,-71.4285714285714,4,2,4,60,0,0
50508,-71.4285714285714,4,2,2,60,0,1
50758,-71.4285714285714,4,2,2,60,0,0
51008,-71.4285714285714,4,2,2,60,0,1
51258,-71.4285714285714,4,2,2,60,0,0
51508,-71.4285714285714,4,2,2,60,0,1
51758,-71.4285714285714,4,2,2,60,0,0
52508,-62.5,4,2,10,80,0,1
56320,-62.5,4,2,10,5,0,1
56383,-62.5,4,2,10,80,0,1
56445,-62.5,4,2,10,5,0,1
56508,-62.5,4,2,10,80,0,1
64320,-62.5,4,2,10,5,0,1
64383,-62.5,4,2,10,80,0,1
64445,-62.5,4,2,10,5,0,1
64508,-62.5,4,2,10,80,0,1
68508,-71.4285714285714,4,2,2,70,0,0
68758,-71.4285714285714,4,2,1,70,0,0
68883,-71.4285714285714,4,2,2,70,0,0
70758,-71.4285714285714,4,2,1,70,0,0
70883,-71.4285714285714,4,2,2,70,0,0
72758,-71.4285714285714,4,2,1,70,0,0
72883,-71.4285714285714,4,2,2,70,0,0
73258,-71.4285714285714,4,2,1,70,0,0
73383,-71.4285714285714,4,2,2,70,0,0
73758,-71.4285714285714,4,2,1,70,0,0
73883,-71.4285714285714,4,2,2,70,0,0
74758,-71.4285714285714,4,2,1,70,0,0
74883,-71.4285714285714,4,2,2,70,0,0
75508,-71.4285714285714,4,2,3,70,0,0
75633,-71.4285714285714,4,2,2,70,0,0
76008,-71.4285714285714,4,2,3,70,0,0
76133,-71.4285714285714,4,2,2,70,0,0
76258,-71.4285714285714,4,2,3,70,0,0
76383,-71.4285714285714,4,2,2,70,0,0
76758,-71.4285714285714,4,2,1,70,0,0
76883,-71.4285714285714,4,2,2,70,0,0
78758,-71.4285714285714,4,2,1,70,0,0
78883,-71.4285714285714,4,2,2,70,0,0
80758,-71.4285714285714,4,2,1,70,0,0
80883,-71.4285714285714,4,2,2,70,0,0
81258,-71.4285714285714,4,2,1,70,0,0
81383,-71.4285714285714,4,2,2,70,0,0
81758,-71.4285714285714,4,2,1,70,0,0
81883,-71.4285714285714,4,2,2,70,0,0
82758,-71.4285714285714,4,2,1,70,0,0
82883,-71.4285714285714,4,2,2,70,0,0
83508,-100,4,2,3,50,0,0
83633,-71.4285714285714,4,2,2,50,0,0
83883,-71.4285714285714,4,2,2,5,0,0
84508,-71.4285714285714,4,2,2,40,0,0
90508,-83.3333333333333,4,2,2,45,0,0
92508,-83.3333333333333,4,2,4,60,0,0
97383,-83.3333333333333,4,2,4,60,0,0
98508,-71.4285714285714,4,2,4,60,0,0
98758,-250,4,2,4,60,0,0
99008,-71.4285714285714,4,2,4,60,0,0
99258,-250,4,2,4,60,0,0
99508,-71.4285714285714,4,2,4,60,0,0
100008,-71.4285714285714,4,2,4,60,0,0
100508,-166.666666666667,4,2,2,60,0,1
100758,-166.666666666667,4,2,2,60,0,0
101008,-125,4,2,2,60,0,1
101258,-100,4,2,2,60,0,0
101508,-100,4,2,2,60,0,1
101633,-100,4,2,2,60,0,0
101758,-100,4,2,2,60,0,1
101883,-100,4,2,2,60,0,0
102508,-58.8235294117647,4,2,10,80,0,1
106320,-58.8235294117647,4,2,10,5,0,1
106383,-58.8235294117647,4,2,10,80,0,1
106445,-58.8235294117647,4,2,10,5,0,1
106508,-58.8235294117647,4,2,10,80,0,1
114320,-58.8235294117647,4,2,10,5,0,1
114383,-58.8235294117647,4,2,10,80,0,1
114445,-58.8235294117647,4,2,10,5,0,1
114508,-58.8235294117647,4,2,10,80,0,1
118508,-71.4285714285714,4,2,2,70,0,0
118758,-71.4285714285714,4,2,1,70,0,0
118883,-71.4285714285714,4,2,2,70,0,0
120758,-71.4285714285714,4,2,1,70,0,0
120883,-71.4285714285714,4,2,2,70,0,0
122758,-71.4285714285714,4,2,1,70,0,0
122883,-71.4285714285714,4,2,2,70,0,0
123258,-71.4285714285714,4,2,1,70,0,0
123383,-71.4285714285714,4,2,2,70,0,0
123758,-71.4285714285714,4,2,1,70,0,0
123883,-71.4285714285714,4,2,2,70,0,0
124758,-71.4285714285714,4,2,1,70,0,0
124883,-71.4285714285714,4,2,2,70,0,0
125508,-71.4285714285714,4,2,3,70,0,0
125633,-71.4285714285714,4,2,2,70,0,0
126008,-71.4285714285714,4,2,3,70,0,0
126133,-71.4285714285714,4,2,2,70,0,0
126258,-71.4285714285714,4,2,3,70,0,0
126383,-71.4285714285714,4,2,2,70,0,0
126758,-71.4285714285714,4,2,1,70,0,0
126883,-71.4285714285714,4,2,2,70,0,0
128758,-71.4285714285714,4,2,1,70,0,0
128883,-71.4285714285714,4,2,2,70,0,0
130758,-71.4285714285714,4,2,1,70,0,0
130883,-71.4285714285714,4,2,2,70,0,0
131258,-71.4285714285714,4,2,1,70,0,0
131383,-71.4285714285714,4,2,2,70,0,0
132758,-71.4285714285714,4,2,1,70,0,0
132883,-71.4285714285714,4,2,2,70,0,0
133508,-71.4285714285714,4,2,3,70,0,0
133883,-71.4285714285714,4,2,10,70,0,0
134008,-71.4285714285714,4,2,3,70,0,0
134133,-71.4285714285714,4,2,2,70,0,0
134508,-58.8235294117647,4,2,2,80,0,0
135508,-71.4285714285714,4,2,2,80,0,0
136008,-71.4285714285714,4,2,4,80,0,0
136508,-71.4285714285714,4,2,2,80,0,0
138008,-71.4285714285714,4,2,4,80,0,0
138508,-58.8235294117647,4,2,2,80,0,0
139633,-71.4285714285714,4,2,2,80,0,0
140008,-71.4285714285714,4,2,4,80,0,0
140508,-71.4285714285714,4,2,2,80,0,0
141258,-250,4,2,2,80,0,0
141758,-250,4,2,4,15,0,0

[Colours]
Combo1 : 182,199,218
Combo2 : 154,154,186

[HitObjects]
245,384,2508,6,0,B|229:329|267:350|245:274,1,105,10|0,3:2|0:0,0:0:0:0:
294,217,2883,1,0,3:0:0:0:
294,217,3008,2,0,P|326:206|345:190,1,52.5,0|0,3:0|0:0,0:0:0:0:
186,149,3258,1,0,0:0:0:0:
186,149,3383,2,0,P|126:130|108:81,2,105,0|0|0,3:0|3:0|3:0,0:0:0:0:
294,131,4008,2,0,P|308:100|310:75,1,52.5,0|0,3:0|0:0,0:0:0:0:
177,19,4258,2,0,P|181:44|193:68,1,52.5,0|0,3:0|1:2,0:0:0:0:
375,31,4508,6,0,P|348:9|325:1,2,52.5,10|0|8,3:2|0:0|0:2,0:0:0:0:
451,82,4883,1,0,3:0:0:0:
451,82,5008,2,0,P|484:73|518:60,1,52.5,0|0,3:0|0:0,0:0:0:0:
408,157,5258,1,0,0:0:0:0:
408,157,5383,2,0,B|355:179|391:211|323:239,2,105,0|0|0,3:0|3:0|3:0,0:0:0:0:
462,282,6008,2,0,P|453:252|447:226,1,52.5,0|0,3:0|0:0,0:0:0:0:
296,164,6258,2,0,P|305:134|311:108,1,52.5,0|0,3:0|1:0,0:0:0:0:
245,219,6508,5,10,3:2:0:0:
175,201,6633,1,0,0:0:0:0:
138,261,6758,2,0,P|147:291|153:317,1,52.5,0|0,0:0|3:0,0:0:0:0:
287,379,7008,2,0,P|300:359|282:373,1,52.5,0|0,3:0|0:0,0:0:0:0:
229,301,7258,1,0,0:0:0:0:
363,246,7383,2,0,B|424:248|405:269|462:277,2,105,0|0|0,3:0|3:0|3:0,0:0:0:0:
268,132,8008,1,0,3:0:0:0:
224,193,8133,1,0,0:0:0:0:
157,157,8258,2,0,P|150:129|143:97,1,52.5,0|0,3:0|1:0,0:0:0:0:
323,1,8508,6,0,B|357:42|357:42|329:91,1,105,10|8,3:2|0:0,0:0:0:0:
268,132,8883,1,0,3:0:0:0:
410,205,9008,1,0,3:0:0:0:
469,161,9133,1,0,0:0:0:0:
434,96,9258,1,0,0:0:0:0:
324,186,9383,6,0,L|350:293,2,94.499997116089,0|0|0,3:0|3:0|3:0,0:0:0:0:
426,303,10008,2,0,P|454:311|476:332,1,47.2499985580445,0|0,3:0|0:0,0:0:0:0:
291,338,10258,2,0,P|270:358|262:388,1,47.2499985580445,0|0,3:0|1:0,0:0:0:0:
263,265,10508,6,0,P|217:252|165:229,1,94.499997116089,10|0,3:2|0:0,0:0:0:0:
142,161,10883,1,0,3:0:0:0:
142,161,11008,2,0,P|143:139|161:119,1,47.2499985580445,0|0,3:0|0:0,0:0:0:0:
99,258,11258,1,0,0:0:0:0:
99,258,11383,2,0,P|63:293|14:301,2,94.499997116089,0|0|0,3:0|3:0|3:0,0:0:0:0:
8,177,12008,2,0,P|9:199|27:219,1,47.2499985580445,0|0,3:0|0:0,0:0:0:0:
174,233,12258,2,0,L|227:219,1,47.2499985580445,0|0,3:0|1:0,0:0:0:0:
97,132,12508,6,0,B|91:100|74:89|60:100|46:91|37:64,1,94.499997116089,10|8,3:2|0:0,0:0:0:0:
106,32,12883,1,0,3:0:0:0:
106,32,13008,2,0,P|130:26|152:10,1,47.2499985580445,0|0,3:0|0:0,0:0:0:0:
216,98,13258,1,0,0:0:0:0:
216,98,13383,2,0,P|258:110|291:152,2,94.499997116089,0|0|0,3:0|3:0|3:0,0:0:0:0:
198,222,14008,2,0,P|207:193|214:162,1,47.2499985580445,0|0,3:0|0:0,0:0:0:0:
327,66,14258,2,0,P|318:37|311:6,1,47.2499985580445,0|0,3:0|1:0,0:0:0:0:
383,119,14508,5,10,3:2:0:0:
448,85,14633,1,0,0:0:0:0:
490,149,14758,2,0,P|481:178|474:209,1,47.2499985580445,0|0,0:0|3:0,0:0:0:0:
368,269,15008,2,0,P|347:263|329:243,1,47.2499985580445,0|0,3:0|0:0,0:0:0:0:
394,205,15258,1,0,0:0:0:0:
281,313,15383,2,0,P|235:329|188:356,2,94.499997116089,0|0|0,3:0|3:0|3:0,0:0:0:0:
395,384,16008,1,0,3:0:0:0:
458,345,16133,1,0,0:0:0:0:
412,286,16258,2,0,P|381:274|353:263,1,47.2499985580445,0|0,3:2|1:0,0:0:0:0:
281,137,16508,6,0,P|271:110|275:83,1,47.2499985580445,10|0,3:2|0:0,0:0:0:0:
394,205,16758,2,0,P|410:181|413:154,1,47.2499985580445,8|0,0:0|3:0,0:0:0:0:
310,210,17008,2,0,B|256:230|279:249|227:271,1,94.499997116089,0|0,3:0|0:0,0:0:0:0:
169,231,17383,1,0,3:0:0:0:
58,295,17508,6,0,P|46:327|75:351,1,73.5
72,350,18008,5,8,1:2:0:0:
158,303,18133,1,8,0:2:0:0:
94,221,18258,5,0,1:0:0:0:
232,314,18383,1,0,1:0:0:0:
294,249,18508,6,0,B|306:201|287:177|264:188|243:166|258:110,1,146.999995513916,4|2,3:2|0:0,0:0:0:0:
409,151,18883,1,0,0:0:0:0:
443,85,19008,2,0,P|454:53|464:12,1,73.4999977569581,0|0,1:0|0:0,0:0:0:0:
510,117,19258,1,0,0:0:0:0:
374,45,19383,6,0,P|334:56|311:84,1,73.4999977569581,8|2,0:2|0:0,0:0:0:0:
201,173,19633,2,0,P|161:162|138:134,1,73.4999977569581,8|8,0:0|0:0,0:0:0:0:
205,100,19883,1,0,3:0:0:0:
340,237,20008,2,0,P|380:248|403:276,1,73.4999977569581,2|0,1:2|0:0,0:0:0:0:
202,320,20258,2,0,L|226:243,1,73.4999977569581,8|0,0:0|0:0,0:0:0:0:
370,163,20508,6,0,P|430:145|519:113,1,146.999995513916,10|2,0:2|0:0,0:0:0:0:
383,6,20883,1,0,0:0:0:0:
315,42,21008,2,0,P|278:31|245:0,1,73.4999977569581,0|0,1:0|0:0,0:0:0:0:
302,113,21258,1,0,0:0:0:0:
218,186,21383,6,0,P|181:197|148:228,1,73.4999977569581,8|2,0:0|0:0,0:0:0:0:
358,308,21633,2,0,L|339:234,1,73.4999977569581,8|8,0:0|0:0,0:0:0:0:
266,250,21883,1,0,3:0:0:0:
370,163,22008,5,2,1:2:0:0:
484,219,22133,1,8,0:0:0:0:
452,141,22258,5,8,0:0:0:0:
444,149,22383,1,8,0:0:0:0:
495,22,22508,6,0,L|514:99,2,73.4999977569581,10|2|10,0:0|0:0|0:0,0:0:0:0:
365,89,22883,1,0,0:0:0:0:
309,38,23008,2,0,P|298:15|317:36,1,73.4999977569581,10|2,1:2|0:0,0:0:0:0:
238,126,23258,1,10,0:0:0:0:
294,179,23383,2,0,P|328:189|359:215,1,73.4999977569581,0|10,0:0|0:0,0:0:0:0:
210,291,23633,2,0,P|176:301|145:327,1,73.4999977569581,2|10,0:0|0:0,0:0:0:0:
253,358,23883,1,0,3:0:0:0:
181,195,24008,2,0,P|147:185|116:159,1,73.4999977569581,2|2,1:2|0:2,0:0:0:0:
348,287,24258,2,0,L|331:361,1,73.4999977569581,8|0,0:0|0:0,0:0:0:0:
401,228,24508,6,0,L|370:107,1,110.249996635437,8|0,0:0|0:0,0:0:0:0:
373,121,24758,1,10,0:0:0:0:
252,165,24883,1,8,0:0:0:0:
202,101,25008,2,0,P|217:63|225:25,1,73.4999977569581,0|0,1:0|0:0,0:0:0:0:
299,102,25258,1,10,0:0:0:0:
181,195,25383,6,0,P|140:211|102:234,1,73.4999977569581,8|0,0:0|1:0,0:0:0:0:
3,96,25633,2,0,P|35:113|69:126,1,73.4999977569581,0|10,1:0|0:0,0:0:0:0:
45,195,25883,1,8,0:0:0:0:
202,101,26008,5,0,1:0:0:0:
102,31,26133,1,0,1:0:0:0:
190,14,26258,5,0,1:0:0:0:
179,23,26383,1,0,1:0:0:0:
299,102,26508,6,0,B|338:88|374:110|374:110|383:142|420:158,1,146.999995513916,4|2,1:2|0:0,0:0:0:0:
483,112,26883,1,0,0:0:0:0:
354,212,27008,2,0,P|337:244|327:280,1,73.4999977569581,0|0,1:0|0:0,0:0:0:0:
286,176,27258,1,0,0:0:0:0:
382,340,27383,6,0,P|417:340|444:316,1,73.4999977569581,8|2,0:2|0:0,0:0:0:0:
249,310,27633,2,0,P|222:285|186:286,1,73.4999977569581,8|8,0:0|0:0,0:0:0:0:
191,359,27883,1,0,3:0:0:0:
88,237,28008,1,2,1:2:0:0:
28,285,28133,1,0,0:0:0:0:
88,237,28258,2,0,P|103:270|114:305,1,73.4999977569581,8|0,0:0|0:0,0:0:0:0:
0,147,28508,6,0,P|31:84|101:84,1,146.999995513916,10|2,0:2|0:0,0:0:0:0:
113,160,28883,1,0,0:0:0:0:
243,87,29008,2,0,P|209:100|173:109,1,73.4999977569581,0|0,1:0|0:0,0:0:0:0:
305,131,29258,1,0,0:0:0:0:
388,4,29383,6,0,P|412:29|412:65,1,73.4999977569581,8|2,0:0|0:0,0:0:0:0:
267,232,29633,2,0,P|242:206|242:170,1,73.4999977569581,8|8,0:0|0:0,0:0:0:0:
305,131,29883,1,0,3:0:0:0:
472,119,30008,5,2,1:2:0:0:
450,233,30133,1,8,0:0:0:0:
384,182,30258,5,8,0:0:0:0:
379,166,30383,1,8,0:0:0:0:
270,312,30508,6,0,B|214:313|200:284|206:281|194:251|142:253,1,146.999995513916,10|10,0:0|0:0,0:0:0:0:
144,327,30883,1,0,0:0:0:0:
79,211,31008,2,0,P|92:177|102:141,1,73.4999977569581,10|2,1:2|0:0,0:0:0:0:
8,240,31258,1,10,0:0:0:0:
68,75,31383,6,0,P|41:50|5:50,1,73.4999977569581,0|10,0:0|0:0,0:0:0:0:
173,153,31633,2,0,P|208:152|235:128,1,73.4999977569581,2|10,0:0|0:0,0:0:0:0:
179,76,31883,1,0,3:0:0:0:
312,124,32008,1,2,1:2:0:0:
362,66,32133,1,2,0:0:0:0:
312,124,32258,2,0,P|328:156|339:191,1,73.4999977569581,8|0,0:0|0:0,0:0:0:0:
428,334,32508,6,0,P|442:297|381:276,1,110.249996635437,10|0,0:0|0:0,0:0:0:0:
381,282,32758,1,8,0:0:0:0:
65,256,33008,6,0,P|50:219|111:198,1,110.249996635437,0|0,1:0|0:0,0:0:0:0:
112,204,33258,1,8,0:0:0:0:
245,382,33508,6,0,B|338:276|327:170|260:138|174:178|175:242|223:289,1,367.5,0|0,1:0|0:0,0:0:0:0:
372,338,34508,5,8,2:2:0:0:
372,338,34758,1,2,0:0:0:0:
443,305,34883,1,2,0:0:0:0:
458,228,35008,1,2,0:0:0:0:
404,170,35133,1,2,0:0:0:0:
456,42,35383,6,0,L|507:31,1,52.5,8|0,0:0|0:0,0:0:0:0:
394,88,35633,2,0,L|291:63,1,105,10|0,0:0|0:0,0:0:0:0:
178,149,36008,1,8,0:0:0:0:
178,149,36258,1,10,0:0:0:0:
31,99,36508,6,0,L|42:150,1,52.5,8|0,0:2|0:0,0:0:0:0:
31,99,36758,1,2,0:0:0:0:
121,0,36883,2,0,L|105:107,2,105,2|8|2,0:0|0:2|0:0,0:0:0:0:
180,146,37508,5,2,0:0:0:0:
87,218,37758,5,8,0:2:0:0:
138,275,38008,6,0,L|148:322,1,36.749998878479
212,256,38133,6,0,L|222:303,1,36.749998878479
289,238,38258,6,0,L|299:285,1,36.749998878479
366,217,38383,6,0,L|376:264,1,36.749998878479
443,316,38508,6,0,P|453:244|471:173,1,146.999995513916,4|0,0:0|0:0,0:0:0:0:
471,173,38883,1,8,3:2:0:0:
378,74,39008,1,2,0:0:0:0:
378,74,39133,2,0,P|392:108|403:151,1,73.4999977569581
219,66,39383,6,0,P|244:40|280:36,1,73.4999977569581,2|0,0:0|0:0,0:0:0:0:
322,160,39633,2,0,P|296:134|260:130,1,73.4999977569581,2|0,0:0|0:0,0:0:0:0:
216,194,39883,1,0,0:0:0:0:
123,173,40008,2,0,P|148:147|152:111,1,73.4999977569581,2|2,0:0|0:0,0:0:0:0:
51,138,40258,2,0,P|55:102|80:76,1,73.4999977569581,2|0,0:0|0:0,0:0:0:0:
117,248,40508,5,2,0:0:0:0:
117,248,40758,1,2,0:0:0:0:
69,311,40883,2,0,P|33:319|0:333,1,73.4999977569581,2|0,3:2|0:0,0:0:0:0:
117,248,41133,2,0,P|150:261|186:271,1,73.4999977569581
310,237,41383,6,0,P|336:261|341:297,1,73.4999977569581
276,340,41633,2,0,P|345:317|417:301,1,146.999995513916
493,176,42008,2,0,P|480:209|470:245,1,73.4999977569581,2|0,0:0|0:0,0:0:0:0:
383,116,42258,2,0,P|396:149|406:185,1,73.4999977569581,2|0,0:0|0:0,0:0:0:0:
462,29,42508,6,0,P|396:47|394:134,1,146.999995513916,2|2,0:0|0:0,0:0:0:0:
322,158,42883,1,0,3:0:0:0:
315,25,43008,1,2,0:0:0:0:
315,25,43133,2,0,P|281:9|246:0,1,73.4999977569581,2|0,0:0|0:0,0:0:0:0:
80,103,43383,6,0,P|105:77|141:73,1,73.4999977569581,2|0,0:0|0:0,0:0:0:0:
212,167,43633,1,2,0:0:0:0:
138,164,43758,2,0,L|145:207,3,36.749998878479,2|2|2|2,0:0|0:0|0:0|0:0,0:0:0:0:
192,253,44008,2,0,B|136:254|122:225|128:222|116:192|64:194,1,146.999995513916,2|2,0:0|0:0,0:0:0:0:
65,193,44383,1,0,0:0:0:0:
156,333,44508,5,2,0:0:0:0:
156,333,44758,1,2,0:0:0:0:
292,249,44883,2,0,P|306:282|314:318,1,73.4999977569581,2|0,3:2|0:0,0:0:0:0:
214,384,45133,2,0,P|228:350|238:314,1,73.4999977569581,2|0,0:0|0:0,0:0:0:0:
430,205,45383,6,0,P|405:231|369:235,1,73.4999977569581,2|0,0:0|0:0,0:0:0:0:
344,162,45633,2,0,P|413:184|485:200,1,146.999995513916,2|2,0:0|0:0,0:0:0:0:
295,102,46008,2,0,P|270:126|265:162,1,73.4999977569581,2|0,0:0|0:0,0:0:0:0:
324,34,46258,1,2,0:0:0:0:
324,34,46383,1,0,0:0:0:0:
188,125,46508,6,0,B|132:126|118:97|124:94|112:64|60:66,1,146.999995513916,2|2,0:0|0:0,0:0:0:0:
61,65,46883,1,0,3:0:0:0:
39,214,47008,1,2,0:0:0:0:
39,214,47133,2,0,P|53:181|61:145,1,73.4999977569581,2|0,0:0|0:0,0:0:0:0:
186,238,47383,6,0,P|161:212|125:208,1,73.4999977569581,2|0,0:0|0:0,0:0:0:0:
56,315,47633,1,2,0:0:0:0:
126,280,47758,2,0,L|131:316,3,36.749998878479
56,315,48008,2,0,B|112:314|126:343|120:346|132:376|184:374,1,146.999995513916,2|2,0:0|0:0,0:0:0:0:
236,325,48383,1,0,0:0:0:0:
390,370,48508,5,0,0:0:0:0:
353,303,48758,1,10,0:0:0:0:
420,196,48883,5,10,0:0:0:0:
420,196,49133,1,10,0:0:0:0:
197,137,49508,6,0,P|171:161|174:197,1,73.4999977569581
308,252,49758,2,0,P|333:227|330:191,1,73.4999977569581
187,131,50008,6,0,P|161:155|164:191,1,73.4999977569581
319,257,50258,2,0,P|344:232|341:196,1,73.4999977569581
253,190,50508,5,0,0:0:0:0:
230,290,51008,5,0,0:0:0:0:
258,361,51508,5,0,0:0:0:0:
250,382,52008,5,0,0:0:0:0:
482,97,52508,6,0,B|365:107|429:163|333:183,1,168,8|2,0:0|0:0,0:0:0:0:
425,238,52883,1,0,0:0:0:0:
270,85,53008,2,0,P|230:73|192:56,1,84,0|0,1:0|0:0,0:0:0:0:
340,44,53258,1,8,2:3:0:0:
192,185,53383,6,0,P|152:197|114:214,1,84,8|0,0:1|0:0,0:0:0:0:
282,342,53633,1,0,3:0:0:0:
332,291,53758,1,0,3:0:0:0:
292,228,53883,1,0,3:0:0:0:
182,362,54008,5,0,1:0:0:0:
55,295,54133,1,8,2:1:0:0:
0,384,54258,5,0,3:0:0:0:
131,292,54383,1,8,2:3:0:0:
25,194,54508,5,8,2:3:0:0:
25,194,54633,1,0,0:0:0:0:
25,194,54758,2,0,P|11:152|-3:106,1,84,10|0,0:0|0:0,0:0:0:0:
158,0,55008,2,0,P|166:46|125:83,1,84,0|0,1:0|0:0,0:0:0:0:
42,55,55258,1,0,0:0:0:0:
173,144,55383,6,0,P|216:159|247:189,1,84,8|0,2:1|0:0,0:0:0:0:
361,47,55633,1,0,0:0:0:0:
291,31,55758,1,0,0:0:0:0:
266,96,55883,1,0,0:0:0:0:
413,211,56008,5,0,1:0:0:0:
392,139,56133,1,0,3:0:0:0:
337,206,56258,6,0,P|319:200|289:188,1,42,0|0,3:0|0:0,0:0:0:0:
468,138,56383,2,0,P|487:130|507:123,1,42,8|0,3:3|0:0,0:0:0:0:
324,286,56508,5,8,0:0:0:0:
324,286,56633,1,0,0:0:0:0:
324,286,56758,2,0,P|282:299|230:318,1,84,2|0,0:0|0:0,0:0:0:0:
456,361,57008,2,0,B|469:305|447:278|421:290|397:265|414:201,1,168,0|8,1:0|0:3,0:0:0:0:
505,244,57383,1,8,0:1:0:0:
361,108,57508,5,0,3:2:0:0:
311,162,57633,1,0,3:2:0:0:
435,85,57758,2,0,P|449:42|458:-2,1,84,0|0,3:2|3:2,0:0:0:0:
238,55,58008,2,0,B|218:94|218:94|251:128,2,84,0|0|8,1:0|2:0|0:1,0:0:0:0:
306,24,58383,1,0,0:0:0:0:
192,180,58508,6,0,P|152:198|95:217,1,84,8|0,0:0|0:0,0:0:0:0:
317,305,58758,2,0,P|356:319|394:336,1,84,10|0,0:0|0:0,0:0:0:0:
257,241,59008,1,0,1:0:0:0:
210,303,59133,1,8,2:1:0:0:
331,228,59258,2,0,B|340:199|340:199|316:137,1,84
412,81,59508,5,0,3:0:0:0:
483,122,59633,1,8,3:1:0:0:
443,5,59758,5,0,0:0:0:0:
339,59,59883,1,0,0:0:0:0:
222,169,60008,5,0,1:0:0:0:
111,96,60133,1,0,3:0:0:0:
219,43,60258,5,8,3:0:0:0:
231,51,60383,1,8,1:1:0:0:
183,105,60508,6,0,B|215:209|143:169|173:270,1,168,12|2,0:0|0:0,0:0:0:0:
249,327,60883,1,0,0:0:0:0:
83,237,61008,2,0,P|36:223|-11:203,1,84,0|0,1:0|0:0,0:0:0:0:
99,320,61258,1,8,2:3:0:0:
222,169,61383,2,0,P|262:157|301:141,1,84,8|0,0:1|0:0,0:0:0:0:
397,267,61633,1,0,3:0:0:0:
326,290,61758,1,0,3:0:0:0:
289,227,61883,1,0,3:0:0:0:
479,259,62008,6,0,B|470:207|452:193|435:205|416:194|408:138,1,126,0|0,1:0|0:0,0:0:0:0:
412,158,62258,1,0,3:0:0:0:
481,101,62383,1,8,2:3:0:0:
305,87,62508,6,0,P|320:48|330:2,1,84,8|0,2:3|0:0,0:0:0:0:
395,75,62758,1,10,0:0:0:0:
403,84,62883,1,0,0:0:0:0:
253,150,63008,2,0,P|211:162|180:194,1,84,0|0,1:0|0:0,0:0:0:0:
289,227,63258,1,0,0:0:0:0:
163,72,63383,6,0,P|121:60|90:28,1,84
0,134,63633,1,8,2:1:0:0:
71,118,63758,1,0,0:0:0:0:
99,187,63883,1,0,0:0:0:0:
72,301,64008,5,0,1:0:0:0:
136,262,64133,1,0,3:0:0:0:
36,241,64258,6,0,P|30:218|22:189,1,42,0|0,3:0|0:0,0:0:0:0:
144,335,64383,2,0,P|138:358|130:387,1,42,8|0,3:3|0:0,0:0:0:0:
238,294,64508,5,8,0:0:0:0:
238,294,64633,1,0,0:0:0:0:
238,294,64758,2,0,P|285:310|324:321,1,84,2|0,0:0|0:0,0:0:0:0:
422,187,65008,2,0,P|409:146|400:102,2,84,0|0|8,1:0|0:0|0:3,0:0:0:0:
364,239,65383,1,8,0:1:0:0:
217,141,65508,5,0,3:2:0:0:
287,103,65633,1,0,3:2:0:0:
325,172,65758,1,0,3:2:0:0:
255,211,65883,1,0,3:2:0:0:
297,92,66008,2,0,P|338:80|382:66,1,84,0|0,1:0|2:1,0:0:0:0:
173,210,66258,2,0,P|131:198|99:162,1,84,8|0,2:1|0:0,0:0:0:0:
263,324,66508,5,8,0:0:0:0:
276,332,66633,1,0,0:0:0:0:
310,264,66758,1,10,0:0:0:0:
187,322,66883,1,0,0:0:0:0:
337,384,67008,2,0,P|385:367|422:356,2,84,0|0|0,1:0|0:0|0:0,0:0:0:0:
276,332,67383,1,0,0:0:0:0:
426,199,67508,5,0,3:0:0:0:
426,199,67633,1,0,3:0:0:0:
426,199,67758,2,0,P|436:239|449:284,1,84
294,170,68008,5,0,1:0:0:0:
348,78,68133,1,0,3:0:0:0:
253,40,68258,5,8,3:0:0:0:
266,53,68383,1,8,1:1:0:0:
107,170,68508,6,0,B|93:122|82:71|82:71|94:92|114:100,1,146.999995513916,4|2,3:2|0:0,0:0:0:0:
147,35,68883,1,0,0:0:0:0:
12,105,69008,2,0,P|23:139|28:176,1,73.4999977569581,0|0,1:0|0:0,0:0:0:0:
20,34,69258,1,0,0:0:0:0:
177,143,69383,6,0,P|203:118|239:119,1,73.4999977569581,8|2,0:2|0:0,0:0:0:0:
85,274,69633,2,0,P|49:274|22:250,1,73.4999977569581,8|8,0:0|0:0,0:0:0:0:
28,176,69883,1,0,3:0:0:0:
166,233,70008,1,2,1:2:0:0:
231,195,70133,1,0,0:0:0:0:
166,233,70258,2,0,P|177:267|182:304,1,73.4999977569581,8|0,0:0|0:0,0:0:0:0:
380,327,70508,6,0,B|324:328|310:299|316:296|304:266|252:268,1,146.999995513916,10|2,0:2|0:0,0:0:0:0:
254,340,70883,1,0,0:0:0:0:
377,253,71008,2,0,P|365:218|360:181,1,73.4999977569581,0|0,1:0|0:0,0:0:0:0:
448,284,71258,1,0,0:0:0:0:
312,126,71383,6,0,P|287:152|288:188,1,73.4999977569581,8|2,0:0|0:0,0:0:0:0:
461,291,71633,2,0,P|486:265|485:229,1,73.4999977569581,8|8,0:0|0:0,0:0:0:0:
436,172,71883,1,0,3:0:0:0:
512,0,72008,5,2,1:2:0:0:
490,114,72133,1,8,0:0:0:0:
422,62,72258,5,8,0:0:0:0:
417,46,72383,1,8,0:0:0:0:
312,126,72508,6,0,B|256:127|242:98|248:95|236:65|184:67,1,146.999995513916,10|10,0:0|0:0,0:0:0:0:
137,123,72883,1,0,0:0:0:0:
236,254,73008,2,0,P|231:217|219:182,1,73.4999977569581,10|2,1:2|0:0,0:0:0:0:
181,312,73258,1,10,0:0:0:0:
315,227,73383,6,0,P|350:227|377:251,1,73.4999977569581,0|10,0:0|0:0,0:0:0:0:
181,312,73633,2,0,P|154:336|118:336,1,73.4999977569581,2|10,0:0|0:0,0:0:0:0:
89,261,73883,1,0,3:0:0:0:
2,157,74008,1,2,1:2:0:0:
49,95,74133,1,2,0:2:0:0:
2,157,74258,2,0,P|13:191|18:228,1,73.4999977569581,8|0,0:0|0:0,0:0:0:0:
185,66,74508,6,0,P|154:2|84:0,1,146.999995513916,8|10,0:0|0:0,0:0:0:0:
12,26,74883,1,8,0:0:0:0:
136,122,75008,2,0,P|131:159|119:194,1,73.4999977569581,0|0,1:0|0:0,0:0:0:0:
185,66,75258,1,8,0:0:0:0:
316,126,75383,6,0,P|289:101|253:101,1,73.4999977569581,8|2,0:0|1:2,0:0:0:0:
63,246,75633,2,0,P|89:270|125:270,1,73.4999977569581,0|8,1:0|0:0,0:0:0:0:
192,226,75883,1,8,0:0:0:0:
386,182,76008,5,2,1:2:0:0:
348,331,76133,1,2,1:2:0:0:
269,261,76258,5,0,1:0:0:0:
265,247,76383,1,0,1:0:0:0:
487,212,76508,6,0,P|419:203|399:267,1,146.999995513916,4|2,1:2|0:0,0:0:0:0:
474,285,76883,1,0,0:0:0:0:
438,123,77008,2,0,P|445:87|457:52,1,73.4999977569581,0|0,1:0|0:0,0:0:0:0:
386,182,77258,1,0,0:0:0:0:
333,35,77383,6,0,P|359:10|395:9,1,73.4999977569581,8|2,0:2|0:0,0:0:0:0:
182,73,77633,2,0,P|146:72|119:47,1,73.4999977569581,8|8,0:0|0:0,0:0:0:0:
178,1,77883,1,0,3:0:0:0:
271,106,78008,1,2,1:2:0:0:
210,153,78133,1,0,0:0:0:0:
271,106,78258,2,0,P|282:140|290:176,1,73.4999977569581,8|0,0:0|0:0,0:0:0:0:
158,320,78508,6,0,B|102:321|88:292|94:289|82:259|30:261,1,146.999995513916,10|2,0:2|0:0,0:0:0:0:
0,328,78883,1,0,0:0:0:0:
153,246,79008,2,0,P|188:238|223:226,1,73.4999977569581,0|0,1:0|0:0,0:0:0:0:
102,187,79258,1,0,0:0:0:0:
257,337,79383,6,0,P|282:311|283:275,1,73.4999977569581,8|2,0:0|0:0,0:0:0:0:
140,117,79633,2,0,P|115:142|113:178,1,73.4999977569581,8|8,0:0|0:0,0:0:0:0:
153,246,79883,1,0,3:0:0:0:
304,88,80008,5,2,1:2:0:0:
347,233,80133,1,8,0:0:0:0:
426,131,80258,5,8,0:0:0:0:
422,153,80383,1,8,0:0:0:0:
499,8,80508,6,0,B|460:-6|424:16|424:16|415:48|378:64,1,146.999995513916,10|10,0:0|0:0,0:0:0:0:
304,88,80883,1,0,0:0:0:0:
119,46,81008,2,0,P|131:80|139:116,1,73.4999977569581,10|2,1:2|0:0,0:0:0:0:
187,11,81258,1,10,0:0:0:0:
69,152,81383,6,0,P|33:153|7:178,1,73.4999977569581,0|10,0:0|0:0,0:0:0:0:
218,137,81633,2,0,P|243:161|279:163,1,73.4999977569581,2|10,0:0|0:0,0:0:0:0:
304,88,81883,1,0,3:0:0:0:
422,153,82008,1,2,1:2:0:0:
484,110,82133,1,2,0:0:0:0:
422,153,82258,2,0,P|436:195|445:238,1,73.4999977569581,8|0,0:0|0:0,0:0:0:0:
439,379,82508,6,0,P|412:301|353:316,1,146.999995513916,8|10,0:0|0:0,0:0:0:0:
366,384,82883,1,8,0:0:0:0:
210,260,83008,6,0,P|293:298|373:322,1,146.999995513916,0|8,1:0|0:0,0:0:0:0:
338,236,83383,1,8,0:0:0:0:
147,322,83508,6,0,B|133:307|135:282|135:282|140:300|155:311,1,78.75,0|0,1:0|0:0,0:0:0:0:
468,257,90508,5,0,0:0:0:0:
468,257,91008,1,0,0:0:0:0:
468,257,91508,5,0,0:0:0:0:
442,331,91758,1,0,0:0:0:0:
324,219,92008,5,0,0:0:0:0:
377,381,92258,1,0,0:0:0:0:
243,167,92508,5,8,3:2:0:0:
243,167,92758,1,0,0:0:0:0:
277,99,92883,1,0,0:0:0:0:
194,3,93008,2,0,L|211:67,1,62.9999980773926,0|0,3:0|0:0,0:0:0:0:
277,99,93258,1,2,0:0:0:0:
243,167,93383,2,0,L|120:197,2,125.999996154785,2|8|8,0:0|0:0|0:0,0:0:0:0:
305,226,94008,1,2,3:2:0:0:
305,226,94133,1,2,0:2:0:0:
224,292,94258,2,0,L|235:254,3,31.4999990386963,2|0|0|0,0:0|0:0|0:0|0:0,0:0:0:0:
294,330,94508,5,8,3:2:0:0:
294,330,94758,1,0,0:0:0:0:
240,384,94883,1,0,0:0:0:0:
174,349,95008,1,0,3:0:0:0:
224,292,95133,1,0,0:0:0:0:
174,349,95258,1,2,0:0:0:0:
294,330,95383,6,0,L|416:360,2,125.999996154785,10|8|8,0:0|0:0|0:0,0:0:0:0:
224,292,96008,2,0,L|206:227,1,62.9999980773926,2|2,3:2|0:0,0:0:0:0:
273,163,96258,2,0,L|282:130,3,31.4999990386963,2|0|0|0,0:0|0:0|0:0|0:0,0:0:0:0:
191,155,96508,6,0,L|116:136,1,62.9999980773926,0|0,3:0|0:0,0:0:0:0:
271,55,96758,2,0,L|346:36,1,62.9999980773926
191,155,97008,2,0,L|116:136,1,62.9999980773926,0|0,3:0|0:0,0:0:0:0:
187,67,97258,1,2,0:0:0:0:
273,163,97383,2,0,L|303:299,2,125.999996154785,2|8|8,0:0|0:0|0:0,0:0:0:0:
195,256,98008,2,0,L|180:324,1,62.9999980773926,2|2,3:2|0:0,0:0:0:0:
270,354,98258,2,0,L|277:388,3,31.4999990386963,2|0|0|0,0:0|0:0|0:0|0:0,0:0:0:0:
300,286,98508,6,0,P|345:265|357:207,1,110.249996635437,0|0,3:0|0:0,0:0:0:0:
393,147,98758,2,0,L|388:121,1,21
186,167,99008,6,0,P|141:146|129:88,1,110.249996635437,0|0,3:0|0:0,0:0:0:0:
93,28,99258,2,0,L|98:2,1,21
262,74,99508,5,0,3:0:0:0:
262,74,100008,1,10,0:0:0:0:
262,74,100258,1,10,0:0:0:0:
196,111,100508,6,0,L|130:94,1,62.9999980773926,10|2,0:0|1:2,0:0:0:0:
295,164,101008,2,0,L|386:141,1,84,10|2,0:0|1:2,0:0:0:0:
122,228,101508,2,0,L|56:211,1,52.5,10|2,0:0|1:2,0:0:0:0:
363,277,101758,2,0,L|429:260,1,52.5,10|0,0:0|0:0,0:0:0:0:
219,354,102008,5,0,0:0:0:0:
193,37,102508,6,0,B|242:28|266:66|266:66|255:104|253:158,1,178.500003404617,8|2,0:0|0:0,0:0:0:0:
293,343,102883,1,0,0:0:0:0:
183,190,103008,2,0,P|202:228|244:234,1,89.2500017023087,0|0,1:0|0:0,0:0:0:0:
333,126,103258,1,8,2:3:0:0:
154,289,103383,6,0,P|110:297|67:311,1,89.2500017023087,8|0,0:1|0:0,0:0:0:0:
260,235,103633,1,0,3:0:0:0:
252,159,103758,1,0,3:0:0:0:
174,162,103883,1,0,3:0:0:0:
212,343,104008,5,0,1:0:0:0:
351,296,104133,1,8,2:1:0:0:
396,218,104258,5,0,3:0:0:0:
469,241,104383,1,8,2:3:0:0:
512,104,104508,5,8,2:3:0:0:
512,104,104633,1,0,0:0:0:0:
511,103,104758,2,0,P|493:61|485:18,1,89.2500017023087,10|0,0:0|0:0,0:0:0:0:
434,151,105008,2,0,P|421:85|395:23,1,133.875002553463,0|0,1:0|0:0,0:0:0:0:
383,20,105258,1,0,0:0:0:0:
334,175,105383,6,0,P|353:213|395:219,1,89.2500017023087,8|0,2:1|0:0,0:0:0:0:
303,18,105633,1,0,0:0:0:0:
243,68,105758,1,0,0:0:0:0:
171,39,105883,1,0,0:0:0:0:
90,132,106008,5,0,1:0:0:0:
158,166,106133,1,0,3:0:0:0:
90,261,106258,6,0,P|89:238|98:218,1,44.6250008511543,0|0,3:0|0:0,0:0:0:0:
227,127,106383,2,0,P|235:106|234:84,1,44.6250008511543,8|0,3:3|0:0,0:0:0:0:
228,315,106508,5,8,0:0:0:0:
228,315,106633,1,0,0:0:0:0:
229,314,106758,2,0,P|271:296|314:288,1,89.2500017023087,2|0,0:0|0:0,0:0:0:0:
154,384,107008,2,0,B|87:385|70:349|78:346|63:309|0:313,1,178.500003404617,0|8,1:0|0:3,0:0:0:0:
145,306,107383,1,8,0:1:0:0:
283,376,107508,5,0,3:2:0:0:
322,212,107633,1,0,3:2:0:0:
158,166,107758,5,0,3:2:0:0:
186,237,107883,1,0,3:2:0:0:
391,270,108008,6,0,P|444:286|493:289,1,89.2500017023087,0|8,1:0|2:1,0:0:0:0:
316,288,108258,1,0,0:3:0:0:
316,288,108508,6,0,P|395:238|368:151,1,178.500003404617,8|10,0:0|0:0,0:0:0:0:
399,89,108883,1,0,0:0:0:0:
237,86,109008,2,0,P|253:139|256:188,1,89.2500017023087,0|0,1:0|0:0,0:0:0:0:
295,31,109258,5,0,0:0:0:0:
160,159,109383,1,0,0:0:0:0:
5,60,109508,6,0,P|24:22|66:16,1,89.2500017023087,0|0,3:0|3:0,0:0:0:0:
160,159,109758,2,0,P|141:121|99:115,1,89.2500017023087
0,299,110008,5,0,1:0:0:0:
45,174,110133,1,0,3:0:0:0:
208,321,110258,5,8,3:0:0:0:
181,253,110383,1,8,1:1:0:0:
0,299,110508,6,0,B|45:283|85:305|85:305|102:356|147:365,1,178.500003404617,8|2,0:0|0:0,0:0:0:0:
181,253,110883,1,0,0:0:0:0:
44,384,111008,2,0,P|82:303|109:218,1,178.500003404617,0|8,1:0|2:3,0:0:0:0:
319,316,111383,6,0,P|294:352|251:360,1,89.2500017023087,8|0,0:1|0:0,0:0:0:0:
160,159,111633,1,0,3:0:0:0:
233,191,111758,1,0,3:0:0:0:
291,135,111883,1,0,3:0:0:0:
373,257,112008,6,0,P|426:241|475:238,1,89.2500017023087,0|8,1:0|2:1,0:0:0:0:
314,213,112258,1,0,3:0:0:0:
314,213,112383,1,8,2:3:0:0:
404,23,112508,6,0,P|474:56|456:108,1,133.875002553463,8|0,2:3|0:0,0:0:0:0:
449,114,112758,2,0,P|405:102|361:95,1,89.2500017023087,10|0,0:0|0:0,0:0:0:0:
183,69,113008,2,0,P|248:54|311:31,1,133.875002553463,0|0,1:0|0:0,0:0:0:0:
320,21,113258,1,0,0:0:0:0:
174,146,113383,6,0,P|131:137|106:101,1,89.2500017023087,8|0,2:1|0:0,0:0:0:0:
314,213,113633,1,0,0:0:0:0:
263,271,113758,1,0,0:0:0:0:
192,238,113883,1,0,0:0:0:0:
68,298,114008,5,0,1:0:0:0:
90,372,114133,1,0,3:0:0:0:
106,192,114258,6,0,P|114:212|113:234,1,44.6250008511543,0|0,3:0|0:0,0:0:0:0:
0,333,114383,2,0,P|0:355|7:375,1,44.6250008511543,8|0,3:3|0:0,0:0:0:0:
189,382,114508,5,8,0:0:0:0:
189,382,114633,1,0,0:0:0:0:
190,381,114758,2,0,P|232:363|275:355,1,89.2500017023087,2|0,0:0|0:0,0:0:0:0:
434,321,115008,2,0,P|390:312|349:295,1,89.2500017023087,0|0,1:0|0:0,0:0:0:0:
388,152,115258,2,0,P|424:176|432:219,1,89.2500017023087,8|8,0:3|0:1,0:0:0:0:
263,271,115508,5,0,3:2:0:0:
290,129,115633,1,0,3:2:0:0:
142,54,115758,5,0,3:2:0:0:
158,128,115883,1,0,3:2:0:0:
19,211,116008,6,0,P|61:197|105:191,1,89.2500017023087,0|8,1:0|2:1,0:0:0:0:
263,271,116258,1,0,0:3:0:0:
263,271,116508,6,0,P|227:247|219:204,1,89.2500017023087,8|0,0:0|0:0,0:0:0:0:
367,144,116758,1,10,0:0:0:0:
151,274,116883,2,0,P|229:233|314:205,1,178.500003404617
512,222,117258,2,0,P|469:208|430:187,1,89.2500017023087
465,38,117508,5,0,3:0:0:0:
392,57,117633,1,0,3:0:0:0:
295,116,117758,5,0,0:0:0:0:
221,94,117883,1,0,0:0:0:0:
80,198,118008,5,0,1:0:0:0:
52,51,118133,1,0,3:0:0:0:
191,177,118258,5,8,3:0:0:0:
212,104,118383,1,8,1:1:0:0:
115,130,118508,6,0,B|23:152|85:194|-6:224,1,146.999995513916,4|2,3:2|0:0,0:0:0:0:
93,277,118883,1,0,0:0:0:0:
0,323,119008,2,0,P|41:338|83:361,1,73.4999977569581,0|0,1:0|0:0,0:0:0:0:
135,384,119258,1,0,0:0:0:0:
274,285,119383,6,0,P|262:249|254:204,1,73.4999977569581,8|2,0:2|0:0,0:0:0:0:
96,200,119633,2,0,P|108:164|116:119,1,73.4999977569581,8|8,0:0|0:0,0:0:0:0:
193,136,119883,1,0,3:0:0:0:
108,39,120008,1,2,1:2:0:0:
47,90,120133,1,0,0:0:0:0:
191,38,120258,2,0,P|226:54|270:68,1,73.4999977569581,8|0,0:0|0:0,0:0:0:0:
440,145,120508,6,0,B|384:144|370:173|376:176|364:206|312:204,1,146.999995513916,10|2,0:2|0:0,0:0:0:0:
360,272,120883,1,0,0:0:0:0:
269,327,121008,2,0,P|232:312|194:302,1,73.4999977569581,0|0,1:0|0:0,0:0:0:0:
327,384,121258,1,0,0:0:0:0:
146,240,121383,6,0,P|122:272|127:313,1,73.4999977569581,8|2,0:0|0:0,0:0:0:0:
313,204,121633,2,0,P|312:167|290:139,1,73.4999977569581,8|8,0:0|0:0,0:0:0:0:
211,132,121883,1,0,3:0:0:0:
313,32,122008,5,2,1:2:0:0:
421,111,122133,1,8,0:0:0:0:
402,22,122258,5,8,0:0:0:0:
409,34,122383,1,8,0:0:0:0:
307,114,122508,6,0,P|241:91|144:63,1,146.999995513916,10|10,0:0|0:0,0:0:0:0:
110,123,122883,1,0,0:0:0:0:
198,221,123008,2,0,P|243:212|275:184,1,73.4999977569581,10|2,1:2|0:0,0:0:0:0:
211,132,123258,1,10,0:0:0:0:
334,258,123383,6,0,P|379:267|411:295,1,73.4999977569581,0|10,0:0|0:0,0:0:0:0:
242,363,123633,2,0,P|254:323|264:276,1,73.4999977569581,2|10,0:0|0:0,0:0:0:0:
334,258,123883,1,0,3:0:0:0:
198,221,124008,5,2,1:2:0:0:
163,288,124133,1,2,0:2:0:0:
305,184,124258,2,0,P|293:144|283:97,1,73.4999977569581,8|0,0:0|0:0,0:0:0:0:
204,3,124508,6,0,P|144:14|128:85,1,110.249996635437,8|0,0:0|0:0,0:0:0:0:
123,54,124758,1,10,0:0:0:0:
135,67,124883,1,8,0:0:0:0:
285,113,125008,2,0,P|322:100|355:84,1,73.4999977569581,0|0,1:0|0:0,0:0:0:0:
213,81,125258,1,8,0:0:0:0:
120,182,125383,6,0,P|83:169|50:153,1,73.4999977569581,8|2,0:0|1:2,0:0:0:0:
262,288,125633,2,0,P|261:252|230:223,1,73.4999977569581,0|8,1:0|0:0,0:0:0:0:
200,160,125883,1,8,0:0:0:0:
73,293,126008,5,2,1:2:0:0:
166,244,126133,1,2,1:2:0:0:
151,329,126258,5,0,1:0:0:0:
140,319,126383,1,0,1:0:0:0:
262,288,126508,6,0,B|349:274|317:331|414:318,1,146.999995513916,4|2,1:2|0:0,0:0:0:0:
354,225,126883,1,0,0:0:0:0:
432,139,127008,2,0,P|471:131|514:115,1,73.4999977569581,0|0,1:0|0:0,0:0:0:0:
488,208,127258,1,0,0:0:0:0:
342,79,127383,6,0,P|341:41|369:13,1,73.4999977569581,8|2,0:2|0:0,0:0:0:0:
286,183,127633,2,0,P|246:196|207:214,1,73.4999977569581,8|8,0:0|0:0,0:0:0:0:
148,245,127883,1,0,3:0:0:0:
231,124,128008,1,2,1:2:0:0:
286,183,128133,1,0,0:0:0:0:
156,129,128258,2,0,P|144:86|135:43,1,73.4999977569581,8|0,0:0|0:0,0:0:0:0:
295,264,128508,6,0,B|351:263|365:292|359:295|371:325|423:323,1,146.999995513916,10|2,0:2|0:0,0:0:0:0:
403,228,128883,1,0,0:0:0:0:
293,349,129008,2,0,P|258:357|223:369,1,73.4999977569581,0|0,1:0|0:0,0:0:0:0:
295,264,129258,1,0,0:0:0:0:
159,205,129383,6,0,P|141:229|147:272,1,73.4999977569581,8|2,0:0|0:0,0:0:0:0:
286,183,129633,2,0,P|272:136|264:97,1,73.4999977569581,8|8,0:0|0:0,0:0:0:0:
332,74,129883,1,0,3:0:0:0:
198,14,130008,5,2,1:2:0:0:
101,91,130133,1,8,0:0:0:0:
194,108,130258,5,8,0:0:0:0:
180,99,130383,1,8,0:0:0:0:
309,4,130508,6,0,B|348:-10|384:12|384:12|393:44|430:60,1,146.999995513916,10|10,0:0|0:0,0:0:0:0:
484,112,130883,1,0,0:0:0:0:
366,194,131008,2,0,P|361:159|386:133,1,73.4999977569581,10|2,1:2|0:0,0:0:0:0:
467,189,131258,1,10,0:0:0:0:
400,272,131383,6,0,P|359:283|318:298,1,73.4999977569581,0|10,0:0|0:0,0:0:0:0:
247,112,131633,2,0,P|281:123|317:133,1,73.4999977569581,2|8,0:0|0:0,0:0:0:0:
366,194,131883,1,0,3:0:0:0:
223,260,132008,1,2,1:2:0:0:
267,199,132133,1,2,0:0:0:0:
126,172,132258,2,0,P|145:229|149:257,1,73.4999977569581,8|0,0:0|0:0,0:0:0:0:
305,374,132508,6,0,B|314:322|342:304|364:322|387:307|401:264,1,146.999995513916,8|10,0:0|0:0,0:0:0:0:
446,341,132883,1,8,0:0:0:0:
267,199,133008,6,0,B|257:147|229:129|207:147|184:132|170:89,1,146.999995513916,0|8,1:0|0:0,0:0:0:0:
126,172,133383,1,8,0:0:0:0:
284,70,133508,6,0,P|321:58|368:40,1,73.4999977569581,0|0,1:0|0:0,0:0:0:0:
238,7,133758,1,8,0:0:0:0:
230,0,133883,1,0,2:2:0:0:
348,130,134008,5,0,1:0:0:0:
267,199,134133,1,0,1:0:0:0:
342,236,134258,5,0,1:3:0:0:
351,228,134383,1,0,1:3:0:0:
205,358,134508,6,0,P|229:296|285:317,1,133.875002553463,10|0,0:0|0:0,0:0:0:0:
280,328,134758,1,0,0:0:0:0:
120,342,134883,6,0,P|58:318|79:262,1,133.875002553463,10|0,0:0|0:0,0:0:0:0:
90,267,135133,1,0,0:0:0:0:
202,69,135258,6,0,P|177:154|165:243,1,178.500003404617,14|0,0:0|0:0,0:0:0:0:
112,103,135633,2,0,P|76:113|40:118,2,73.4999977569581,10|0|0,1:2|0:0|0:0,0:0:0:0:
263,123,136008,2,0,P|299:128|334:138,1,73.4999977569581,0|0,0:2|0:2,0:0:0:0:
257,5,136258,1,0,0:2:0:0:
257,5,136383,1,0,0:2:0:0:
379,202,136508,6,0,P|406:178|410:143,1,73.4999977569581,10|0,0:0|0:0,0:0:0:0:
334,44,136758,1,2,0:0:0:0:
474,98,136883,6,0,P|450:70|415:66,1,73.4999977569581,10|0,0:0|0:0,0:0:0:0:
321,55,137133,1,2,0:0:0:0:
484,114,137258,6,0,P|501:185|507:258,1,146.999995513916,14|0,0:0|0:0,0:0:0:0:
381,361,137633,1,10,1:2:0:0:
381,361,137758,2,0,P|345:350|309:345,1,73.4999977569581
140,311,138008,5,0,0:0:0:0:
192,366,138133,1,0,0:0:0:0:
240,303,138258,1,0,0:0:0:0:
186,246,138383,1,0,0:0:0:0:
53,146,138508,6,0,P|58:206|117:198,1,133.875002553463,10|0,0:0|0:0,0:0:0:0:
121,185,138758,1,0,0:0:0:0:
250,84,138883,6,0,P|190:72|179:132,1,133.875002553463,10|0,0:0|0:0,0:0:0:0:
194,140,139133,1,0,0:0:0:0:
300,20,139258,6,0,B|361:9|374:57|367:56|383:103|448:94,1,178.500003404617,14|0,0:0|0:0,0:0:0:0:
321,119,139633,2,0,P|331:154|336:190,1,73.4999977569581,10|0,1:2|0:0,0:0:0:0:
260,188,139883,1,0,0:0:0:0:
408,225,140008,2,0,P|338:222|303:283,1,146.999995513916
361,333,140383,1,0,0:0:0:0:
231,309,140508,5,10,0:0:0:0:
158,336,140633,1,0,0:0:0:0:
104,280,140758,1,2,0:0:0:0:
134,165,140883,5,10,0:0:0:0:
61,138,141008,1,0,0:0:0:0:
7,194,141133,1,2,0:0:0:0:
8,336,141258,6,0,P|33:320|4:326,1,84,14|0,0:0|0:0,0:0:0:0:
