osu file format v14

[General]
AudioFilename: audio.mp3
AudioLeadIn: 0
PreviewTime: 52008
Countdown: 0
SampleSet: Soft
StackLeniency: 0.5
Mode: 0
LetterboxInBreaks: 0
WidescreenStoryboard: 1

[Editor]
Bookmarks: 2508,18508,34508,42508,49883,68508,84508,92508,102508,118508,134508,141258
DistanceSpacing: 1.3
BeatDivisor: 4
GridSize: 32
TimelineZoom: 2.100001

[Metadata]
Title:Karada wa Shoujiki datte Ittenno
TitleUnicode:身体は正直だって言ってんの
Artist:Shikiura.
ArtistUnicode:式浦。
Creator:seros
Version:Pigeons' Hard
Source:
Tags:Just Saying, The Body Is Honest. japanese pop jpop j-pop vocaloid 歌愛ユキ Kaai Yuki ROTUS. papapa213 papapa pigeons zengsb hakusui3820 hakusui_sama hakusui sama alevi brain exe raijodo -45 ttmnzk TT Mouse
BeatmapID:3703273
BeatmapSetID:1767411

[Difficulty]
HPDrainRate:4
CircleSize:3.3
OverallDifficulty:6
ApproachRate:7
SliderMultiplier:2.1
SliderTickRate:1

[Events]
//Background and Video events
0,0,"bg.jpg",0,0
Video,-144,"video.mp4"
//Break Periods
2,83708,89608
//Storyboard Layer 0 (Background)
//Storyboard Layer 1 (Fail)
//Storyboard Layer 2 (Pass)
//Storyboard Layer 3 (Foreground)
//Storyboard Layer 4 (Overlay)
//Storyboard Sound Samples
Sample,2508,0,"SBK/20.wav",40
Sample,3008,0,"SBK/20.wav",40
Sample,3383,0,"SBK/21.wav",60
Sample,3633,0,"SBK/21.wav",60
Sample,3883,0,"SBK/21.wav",60
Sample,4508,0,"SBK/22.wav",60
Sample,5008,0,"SBK/22.wav",60
Sample,5383,0,"SBK/23.wav",60
Sample,5633,0,"SBK/23.wav",60
Sample,5883,0,"SBK/24.wav",60
Sample,6508,0,"SBK/25.wav",60
Sample,7008,0,"SBK/25.wav",60
Sample,7383,0,"SBK/26.wav",60
Sample,7633,0,"SBK/26.wav",60
Sample,7883,0,"SBK/26.wav",60
Sample,8508,0,"SBK/27.wav",60
Sample,9008,0,"SBK/28.wav",60
Sample,9383,0,"SBK/29.wav",60
Sample,9633,0,"SBK/29.wav",60
Sample,9883,0,"SBK/29.wav",60
Sample,10508,0,"SBK/20.wav",60
Sample,11008,0,"SBK/20.wav",60
Sample,11383,0,"SBK/21.wav",60
Sample,11633,0,"SBK/21.wav",60
Sample,11883,0,"SBK/21.wav",60
Sample,12508,0,"SBK/22.wav",60
Sample,13008,0,"SBK/22.wav",60
Sample,13383,0,"SBK/23.wav",60
Sample,13633,0,"SBK/23.wav",60
Sample,13883,0,"SBK/24.wav",60
Sample,14508,0,"SBK/25.wav",60
Sample,15008,0,"SBK/25.wav",60
Sample,15383,0,"SBK/26.wav",60
Sample,15633,0,"SBK/26.wav",60
Sample,15883,0,"SBK/26.wav",60
Sample,16508,0,"SBK/27.wav",60
Sample,17008,0,"SBK/28.wav",60
Sample,17383,0,"SBK/29.wav",60
Sample,18508,0,"SBK/20.wav",60
Sample,19008,0,"SBK/20.wav",60
Sample,19383,0,"SBK/21.wav",60
Sample,19633,0,"SBK/21.wav",60
Sample,19883,0,"SBK/21.wav",60
Sample,20508,0,"SBK/22.wav",60
Sample,21008,0,"SBK/22.wav",60
Sample,21383,0,"SBK/23.wav",60
Sample,21633,0,"SBK/23.wav",60
Sample,21883,0,"SBK/24.wav",60
Sample,22508,0,"SBK/25.wav",60
Sample,23008,0,"SBK/25.wav",60
Sample,23383,0,"SBK/26.wav",60
Sample,23633,0,"SBK/26.wav",60
Sample,23883,0,"SBK/26.wav",60
Sample,24508,0,"SBK/27.wav",60
Sample,25008,0,"SBK/28.wav",60
Sample,25383,0,"SBK/29.wav",60
Sample,25633,0,"SBK/29.wav",60
Sample,25883,0,"SBK/29.wav",60
Sample,26508,0,"SBK/20.wav",60
Sample,27008,0,"SBK/20.wav",60
Sample,27383,0,"SBK/21.wav",60
Sample,27633,0,"SBK/21.wav",60
Sample,27883,0,"SBK/21.wav",60
Sample,28508,0,"SBK/22.wav",60
Sample,29008,0,"SBK/22.wav",60
Sample,29383,0,"SBK/23.wav",60
Sample,29633,0,"SBK/23.wav",60
Sample,29883,0,"SBK/24.wav",60
Sample,30508,0,"SBK/25.wav",60
Sample,31008,0,"SBK/25.wav",60
Sample,31383,0,"SBK/26.wav",60
Sample,31633,0,"SBK/26.wav",60
Sample,31883,0,"SBK/26.wav",60
Sample,32508,0,"SBK/27.wav",60
Sample,33008,0,"SBK/28.wav",60
Sample,33383,0,"SBK/29.wav",60
Sample,68508,0,"SBK/20.wav",60
Sample,69008,0,"SBK/20.wav",60
Sample,69383,0,"SBK/21.wav",60
Sample,69633,0,"SBK/21.wav",60
Sample,69883,0,"SBK/21.wav",60
Sample,70508,0,"SBK/22.wav",60
Sample,71008,0,"SBK/22.wav",60
Sample,71383,0,"SBK/23.wav",60
Sample,71633,0,"SBK/23.wav",60
Sample,71883,0,"SBK/24.wav",60
Sample,72508,0,"SBK/25.wav",60
Sample,73008,0,"SBK/25.wav",60
Sample,73383,0,"SBK/26.wav",60
Sample,73633,0,"SBK/26.wav",60
Sample,73883,0,"SBK/26.wav",60
Sample,74508,0,"SBK/27.wav",60
Sample,75008,0,"SBK/28.wav",60
Sample,75383,0,"SBK/29.wav",60
Sample,75633,0,"SBK/29.wav",60
Sample,75883,0,"SBK/29.wav",60
Sample,76508,0,"SBK/20.wav",60
Sample,77008,0,"SBK/20.wav",60
Sample,77383,0,"SBK/21.wav",60
Sample,77633,0,"SBK/21.wav",60
Sample,77883,0,"SBK/21.wav",60
Sample,78508,0,"SBK/22.wav",60
Sample,79008,0,"SBK/22.wav",60
Sample,79383,0,"SBK/23.wav",60
Sample,79633,0,"SBK/23.wav",60
Sample,79883,0,"SBK/24.wav",60
Sample,80508,0,"SBK/25.wav",60
Sample,81008,0,"SBK/25.wav",60
Sample,81383,0,"SBK/26.wav",60
Sample,81633,0,"SBK/26.wav",60
Sample,81883,0,"SBK/26.wav",60
Sample,82508,0,"SBK/27.wav",60
Sample,83008,0,"SBK/28.wav",60
Sample,118508,0,"SBK/40.wav",60
Sample,119008,0,"SBK/40.wav",60
Sample,119383,0,"SBK/41.wav",60
Sample,119633,0,"SBK/41.wav",60
Sample,119883,0,"SBK/41.wav",60
Sample,120508,0,"SBK/42.wav",60
Sample,121008,0,"SBK/42.wav",60
Sample,121383,0,"SBK/43.wav",60
Sample,121633,0,"SBK/43.wav",60
Sample,121883,0,"SBK/44.wav",60
Sample,122508,0,"SBK/45.wav",60
Sample,123008,0,"SBK/45.wav",60
Sample,123383,0,"SBK/46.wav",60
Sample,123633,0,"SBK/46.wav",60
Sample,123883,0,"SBK/46.wav",60
Sample,124508,0,"SBK/47.wav",60
Sample,125008,0,"SBK/48.wav",60
Sample,125383,0,"SBK/49.wav",60
Sample,125633,0,"SBK/49.wav",60
Sample,125883,0,"SBK/49.wav",60
Sample,126508,0,"SBK/40.wav",60
Sample,127008,0,"SBK/40.wav",60
Sample,127383,0,"SBK/41.wav",60
Sample,127633,0,"SBK/41.wav",60
Sample,127883,0,"SBK/41.wav",60
Sample,128508,0,"SBK/42.wav",60
Sample,129008,0,"SBK/42.wav",60
Sample,129383,0,"SBK/43.wav",60
Sample,129633,0,"SBK/43.wav",60
Sample,129883,0,"SBK/44.wav",60
Sample,130508,0,"SBK/45.wav",60
Sample,131008,0,"SBK/45.wav",60
Sample,131383,0,"SBK/46.wav",60
Sample,131633,0,"SBK/46.wav",60
Sample,131883,0,"SBK/46.wav",60
Sample,132508,0,"SBK/47.wav",60
Sample,133008,0,"SBK/48.wav",60
Sample,133383,0,"SBK/49.wav",60
Sample,133633,0,"SBK/49.wav",60
Sample,133883,0,"SBK/49.wav",60

[TimingPoints]
478,508.474576271186,4,2,1,50,1,0
2003,-125,4,2,1,50,0,0
2508,500,4,2,1,50,1,0
2508,-125,4,2,1,50,0,0
18008,-100,4,2,2,50,0,0
18133,-100,4,2,2,55,0,0
18258,-100,4,2,2,60,0,0
18383,-100,4,2,2,65,0,0
18508,-100,4,2,2,70,0,0
18758,-100,4,2,1,70,0,0
18883,-100,4,2,2,70,0,0
20758,-100,4,2,1,70,0,0
20883,-100,4,2,2,70,0,0
22758,-100,4,2,1,70,0,0
22883,-100,4,2,2,70,0,0
23258,-100,4,2,1,70,0,0
23383,-100,4,2,2,70,0,0
23758,-100,4,2,1,70,0,0
23883,-100,4,2,2,70,0,0
24758,-100,4,2,1,70,0,0
24883,-100,4,2,2,70,0,0
25258,-100,4,2,1,70,0,0
25383,-100,4,2,2,70,0,0
25508,-100,4,2,3,70,0,0
25633,-100,4,2,2,70,0,0
25758,-100,4,2,1,70,0,0
25883,-100,4,2,2,70,0,0
26008,-100,4,2,3,70,0,0
26133,-100,4,2,2,70,0,0
26258,-100,4,2,3,70,0,0
26383,-100,4,2,2,70,0,0
26758,-100,4,2,1,70,0,0
26883,-100,4,2,2,70,0,0
28758,-100,4,2,1,70,0,0
28883,-100,4,2,2,70,0,0
30758,-100,4,2,1,70,0,0
30883,-100,4,2,2,70,0,0
31258,-100,4,2,1,70,0,0
31383,-100,4,2,2,70,0,0
31758,-100,4,2,1,70,0,0
31883,-100,4,2,2,70,0,0
32508,-100,4,2,1,70,0,0
32633,-100,4,2,2,70,0,0
33508,-100,4,2,3,50,0,0
34508,-125,4,2,4,60,0,0
34758,-125,4,2,4,45,0,0
35133,-125,4,2,4,60,0,0
38008,-125,4,2,2,60,0,0
38508,-125,4,2,4,60,0,0
43820,-100,4,2,4,35,0,0
44008,-125,4,2,4,60,0,0
47820,-125,4,2,4,35,0,0
48008,-125,4,2,4,60,0,0
50508,-125,4,2,2,60,0,0
52008,-100,4,2,2,60,0,0
52508,-83.3333333333333,4,2,10,80,0,1
68508,-100,4,2,2,70,0,0
68758,-100,4,2,1,70,0,0
68883,-100,4,2,2,70,0,0
70758,-100,4,2,1,70,0,0
70883,-100,4,2,2,70,0,0
72758,-100,4,2,1,70,0,0
72883,-100,4,2,2,70,0,0
73258,-100,4,2,1,70,0,0
73383,-100,4,2,2,70,0,0
73758,-100,4,2,1,70,0,0
73883,-100,4,2,2,70,0,0
74758,-100,4,2,1,70,0,0
74883,-100,4,2,2,70,0,0
75508,-100,4,2,3,70,0,0
75633,-100,4,2,2,70,0,0
76008,-100,4,2,3,70,0,0
76133,-100,4,2,2,70,0,0
76258,-100,4,2,3,70,0,0
76383,-100,4,2,2,70,0,0
76758,-100,4,2,1,70,0,0
76883,-100,4,2,2,70,0,0
78758,-100,4,2,1,70,0,0
78883,-100,4,2,2,70,0,0
80758,-100,4,2,1,70,0,0
80883,-100,4,2,2,70,0,0
81258,-100,4,2,1,70,0,0
81383,-100,4,2,2,70,0,0
81758,-100,4,2,1,70,0,0
81883,-100,4,2,2,70,0,0
82758,-100,4,2,1,70,0,0
82883,-100,4,2,2,70,0,0
83508,-100,4,2,3,50,0,0
83633,-100,4,2,2,50,0,0
83883,-100,4,2,2,5,0,0
84508,-100,4,2,2,40,0,0
90508,-125,4,2,2,45,0,0
92508,-125,4,2,4,60,0,0
100008,-100,4,2,4,60,0,0
100508,-100,4,2,2,60,0,0
102508,-83.3333333333333,4,2,10,80,0,1
118508,-100,4,2,2,70,0,0
118758,-100,4,2,1,70,0,0
118883,-100,4,2,2,70,0,0
120758,-100,4,2,1,70,0,0
120883,-100,4,2,2,70,0,0
122758,-100,4,2,1,70,0,0
122883,-100,4,2,2,70,0,0
123258,-100,4,2,1,70,0,0
123383,-100,4,2,2,70,0,0
123758,-100,4,2,1,70,0,0
123883,-100,4,2,2,70,0,0
124758,-100,4,2,1,70,0,0
124883,-100,4,2,2,70,0,0
125508,-100,4,2,3,70,0,0
125633,-100,4,2,2,70,0,0
126008,-100,4,2,3,70,0,0
126133,-100,4,2,2,70,0,0
126258,-100,4,2,3,70,0,0
126383,-100,4,2,2,70,0,0
126758,-100,4,2,1,70,0,0
126883,-100,4,2,2,70,0,0
128758,-100,4,2,1,70,0,0
128883,-100,4,2,2,70,0,0
130758,-100,4,2,1,70,0,0
130883,-100,4,2,2,70,0,0
131258,-100,4,2,1,70,0,0
131383,-100,4,2,2,70,0,0
132758,-100,4,2,1,70,0,0
132883,-100,4,2,2,70,0,0
133508,-100,4,2,3,70,0,0
133883,-100,4,2,10,70,0,0
134008,-100,4,2,3,70,0,0
134133,-100,4,2,2,70,0,0
134508,-83.3333333333333,4,2,2,80,0,0
136008,-83.3333333333333,4,2,4,80,0,0
136508,-83.3333333333333,4,2,2,80,0,0
138008,-83.3333333333333,4,2,4,80,0,0
138508,-83.3333333333333,4,2,2,80,0,0
140008,-83.3333333333333,4,2,4,80,0,0
140508,-83.3333333333333,4,2,2,80,0,0
141758,-83.3333333333333,4,2,4,15,0,0

[Colours]
Combo1 : 182,199,218
Combo2 : 154,154,186

[HitObjects]
25,66,2003,6,0,L|45:125,3,42
77,129,2508,6,0,B|116:105|116:105|168:123,1,84,10|0,3:2|0:0,0:0:0:0:
185,140,2883,1,0,3:0:0:0:
185,140,3008,2,0,P|252:147|297:73,1,126,0|0,3:0|3:0,0:0:0:0:
361,22,3633,1,0,3:0:0:0:
454,83,3883,1,0,3:0:0:0:
383,169,4133,2,0,L|372:222,1,42,0|0,0:0|3:0,0:0:0:0:
389,253,4383,1,0,1:2:0:0:
389,253,4508,6,0,B|353:228|353:228|294:242,1,84,10|8,3:2|0:2,0:0:0:0:
295,268,4883,1,0,3:0:0:0:
295,268,5008,2,0,P|242:312|168:293,1,126,0|0,3:0|3:0,0:0:0:0:
111,244,5633,1,0,3:0:0:0:
2,313,5883,1,0,3:0:0:0:
2,313,6008,2,0,L|18:250,3,42,0|0|0|0,3:0|0:0|3:0|1:0,0:0:0:0:
33,352,6508,6,0,B|70:366|70:366|139:333,1,84,10|0,3:2|0:0,0:0:0:0:
147,326,6883,1,0,3:0:0:0:
147,326,7008,2,0,P|174:256|123:196,1,126,0|0,3:0|3:0,0:0:0:0:
43,154,7633,1,0,3:0:0:0:
120,69,7883,1,0,3:0:0:0:
120,69,8008,2,0,L|169:74,3,42,0|0|0|0,3:0|0:0|3:0|1:0,0:0:0:0:
211,24,8508,6,0,B|191:63|191:63|209:116,1,84,10|8,3:2|0:0,0:0:0:0:
228,129,8883,1,0,3:0:0:0:
228,129,9008,2,0,P|291:138|356:78,1,126,0|0,3:0|3:0,0:0:0:0:
412,25,9633,1,0,3:0:0:0:
499,106,9883,1,0,3:0:0:0:
499,106,10008,2,0,L|488:52,3,42,0|0|0|0,3:0|0:0|3:0|1:0,0:0:0:0:
471,130,10508,6,0,P|447:167|470:224,1,84,10|0,3:2|0:0,0:0:0:0:
478,244,10883,1,0,3:0:0:0:
478,244,11008,2,0,B|382:259|382:259|337:218,1,126,0|0,3:0|3:0,0:0:0:0:
291,161,11633,1,0,3:0:0:0:
206,219,11883,1,0,3:0:0:0:
206,219,12008,2,0,L|216:268,3,42,0|0|0|0,3:0|0:0|3:0|1:0,0:0:0:0:
164,186,12508,6,0,P|124:177|62:218,1,84,10|8,3:2|0:0,0:0:0:0:
51,228,12883,1,0,3:0:0:0:
51,228,13008,2,0,B|67:68,1,126,0|0,3:0|3:0,0:0:0:0:
136,27,13633,1,0,3:0:0:0:
213,100,13883,1,0,3:0:0:0:
213,100,14008,2,0,L|199:161,3,42,0|0|0|0,3:0|0:0|3:0|1:0,0:0:0:0:
249,79,14508,6,0,P|298:86|346:57,1,84,10|0,3:2|0:0,0:0:0:0:
356,44,14883,1,0,3:0:0:0:
356,44,15008,2,0,P|432:91|419:147,1,126,0|0,3:0|3:0,0:0:0:0:
359,203,15633,1,0,3:0:0:0:
244,211,15883,1,0,3:0:0:0:
244,211,16008,2,0,L|182:194,3,42,0|0|0|0,3:0|0:0|3:2|1:0,0:0:0:0:
155,218,16508,6,0,P|181:170|169:120,1,84,10|8,3:2|0:0,0:0:0:0:
158,102,16883,1,0,3:0:0:0:
158,102,17008,2,0,P|111:96|56:115,1,84,0|0,3:0|0:0,0:0:0:0:
53,133,17383,1,0,3:0:0:0:
53,133,17508,6,0,P|56:232|120:293,1,168,0|8,0:0|1:2,0:0:0:0:
286,298,18258,1,0,1:0:0:0:
286,298,18383,1,0,1:0:0:0:
286,298,18508,6,0,B|335:300|370:335|349:339|379:383|445:370,1,157.5,4|0,3:2|0:0,0:0:0:0:
493,335,19008,1,0,1:0:0:0:
409,213,19258,1,0,0:0:0:0:
409,213,19383,2,0,P|351:194|297:226,1,105,8|8,0:2|0:0,0:0:0:0:
203,279,19883,1,0,3:0:0:0:
203,279,20008,2,0,L|217:217,1,52.5,2|0,1:2|0:0,0:0:0:0:
163,155,20258,2,0,L|154:95,1,52.5,8|0,0:0|0:0,0:0:0:0:
95,38,20508,6,0,B|131:72|131:72|261:33,1,157.5,10|0,0:2|0:0,0:0:0:0:
308,12,21008,1,0,1:0:0:0:
506,77,21258,5,0,0:0:0:0:
506,77,21383,2,0,P|478:80|446:95,1,52.5,8|2,0:0|0:0,0:0:0:0:
393,150,21633,2,0,P|361:153|336:140,1,52.5,8|8,0:0|0:0,0:0:0:0:
273,95,21883,1,0,3:0:0:0:
273,95,22008,2,0,L|258:157,3,52.5,2|8|8|8,1:2|0:0|0:0|0:0,0:0:0:0:
209,215,22508,6,0,B|152:180|152:180|113:217|59:205,1,157.5,10|0,0:0|0:0,0:0:0:0:
0,158,23008,1,10,1:2:0:0:
63,36,23258,1,10,0:0:0:0:
63,36,23383,2,0,P|117:43|162:80,1,105,0|2,0:0|0:0,0:0:0:0:
300,29,23883,5,0,3:0:0:0:
300,29,24008,2,0,P|329:14|355:13,1,52.5,2|2,1:2|0:2,0:0:0:0:
406,77,24258,2,0,P|436:80|461:60,1,52.5,8|0,0:0|0:0,0:0:0:0:
502,3,24508,6,0,L|482:162,1,157.5,8|8,0:0|0:0,0:0:0:0:
484,245,25008,2,0,B|431:231|431:231|374:255|374:255|316:238,1,157.5,0|8,1:0|0:0,0:0:0:0:
272,186,25508,2,0,L|211:204,1,52.5,0|0,1:0|1:0,0:0:0:0:
169,266,25758,2,0,L|113:249,1,52.5,10|8,0:0|0:0,0:0:0:0:
62,193,26008,2,0,L|48:122,3,52.5,0|0|0|0,1:0|1:0|1:0|1:0,0:0:0:0:
4,259,26508,6,0,P|-9:330|67:372,1,157.5,4|0,1:2|0:0,0:0:0:0:
136,351,27008,1,0,1:0:0:0:
277,273,27258,1,0,0:0:0:0:
277,273,27383,2,0,P|336:272|376:312,1,105,8|8,0:2|0:0,0:0:0:0:
485,380,27883,1,0,3:0:0:0:
485,380,28008,2,0,L|492:320,1,52.5,2|0,1:2|0:0,0:0:0:0:
452,250,28258,2,0,L|441:173,1,52.5,8|0,0:0|0:0,0:0:0:0:
496,131,28508,6,0,B|444:153|444:153|317:109,1,157.5,10|0,0:2|0:0,0:0:0:0:
270,72,29008,1,0,1:0:0:0:
157,161,29258,1,0,0:0:0:0:
157,161,29383,2,0,P|202:115|204:94,1,52.5,8|2,0:0|0:0,0:0:0:0:
176,44,29633,2,0,P|114:27|94:36,1,52.5,8|8,0:0|0:0,0:0:0:0:
58,84,29883,1,0,3:0:0:0:
58,84,30008,2,0,P|74:145|91:158,3,52.5,2|8|8|8,1:2|0:0|0:0|0:0,0:0:0:0:
8,196,30508,6,0,B|48:170|48:170|171:197,1,157.5,10|0,0:0|0:0,0:0:0:0:
239,214,31008,1,10,1:2:0:0:
386,281,31258,1,10,0:0:0:0:
386,281,31383,2,0,P|329:282|292:325,1,105,0|2,0:0|0:0,0:0:0:0:
235,382,31883,1,0,3:0:0:0:
235,382,32008,2,0,L|172:366,1,52.5,2|2,1:2|0:0,0:0:0:0:
125,302,32258,2,0,L|64:309,1,52.5,8|0,0:0|0:0,0:0:0:0:
24,381,32508,6,0,P|44:312|-21:236,1,157.5,10|8,0:0|0:0,0:0:0:0:
50,164,33008,2,0,P|99:215|198:197,1,157.5,0|8,1:0|0:0,0:0:0:0:
238,148,33508,1,0,1:0:0:0:
478,48,34508,6,0,L|427:43,1,42,8|0,2:2|0:0,0:0:0:0:
376,119,34758,1,2,0:0:0:0:
376,119,34883,1,2,0:0:0:0:
376,119,35008,2,0,L|327:116,1,42,2|2,0:0|0:0,0:0:0:0:
400,207,35383,6,0,L|493:212,2,84,8|10|0,0:0|0:0|0:0,0:0:0:0:
368,294,36008,2,0,L|468:301,1,84,8|10,0:0|0:0,0:0:0:0:
297,368,36508,6,0,P|261:333|211:334,1,84,8|2,0:2|0:0,0:0:0:0:
136,368,36883,2,0,P|89:360|62:308,1,84,2|8,0:0|0:2,0:0:0:0:
8,221,37258,1,0,0:0:0:0:
8,221,37383,2,0,L|-4:285,1,42,2|2,0:0|0:0,0:0:0:0:
94,188,37633,2,0,L|83:250,1,42,0|8,0:0|0:2,0:0:0:0:
180,167,37883,1,0,0:0:0:0:
180,167,38008,2,0,L|173:219,3,42
128,90,38508,6,0,L|228:73,1,84,4|0,0:0|0:0,0:0:0:0:
277,21,38883,1,8,3:2:0:0:
277,21,39008,2,0,P|291:44|294:76,2,42,2|0|0,0:0|0:0|0:0,0:0:0:0:
387,81,39383,2,0,P|371:105|367:138,1,42,2|0,0:0|0:0,0:0:0:0:
335,195,39633,2,0,L|286:199,1,42,2|0,0:0|0:0,0:0:0:0:
267,290,39883,1,0,0:0:0:0:
267,290,40008,2,0,B|374:283,1,84,2|2,0:0|0:0,0:0:0:0:
476,330,40508,5,2,0:0:0:0:
438,205,40758,1,2,0:0:0:0:
438,205,40883,2,0,P|441:151|480:115,1,84,2|0,3:2|0:0,0:0:0:0:
490,25,41383,2,0,L|423:38,1,42
373,83,41633,2,0,L|314:77,1,42,0|0,0:0|3:0,0:0:0:0:
253,29,41883,1,0,0:0:0:0:
253,29,42008,2,0,P|199:23|153:57,1,84,2|2,0:0|0:0,0:0:0:0:
21,147,42508,6,0,B|57:171|57:171|119:150,1,84,2|2,0:0|0:0,0:0:0:0:
174,121,42883,1,0,3:0:0:0:
174,121,43008,2,0,P|205:125|226:147,1,42,2|2,0:0|0:0,0:0:0:0:
287,220,43383,2,0,L|335:212,1,42,2|0,0:0|0:0,0:0:0:0:
407,168,43633,2,0,L|414:200,4,21,2|0|2|2|2,0:0|0:0|0:0|0:0|0:0,0:0:0:0:
445,215,44008,2,0,L|428:316,1,84,2|2,0:0|0:0,0:0:0:0:
357,354,44508,6,0,B|342:331|342:331|260:324,1,84,2|2,0:0|0:0,0:0:0:0:
209,365,44883,2,0,B|186:349|186:349|194:270,1,84,2|2,3:2|0:0,0:0:0:0:
239,220,45258,1,0,0:0:0:0:
239,220,45383,2,0,P|197:204|134:219,1,84,2|2,0:0|0:0,0:0:0:0:
87,171,45758,1,0,0:0:0:0:
87,171,45883,1,2,0:0:0:0:
87,171,46008,2,0,P|32:180|2:217,1,84,2|2,0:0|0:0,0:0:0:0:
55,333,46508,6,0,B|93:351|93:351|151:330,1,84,2|2,0:0|0:0,0:0:0:0:
199,283,46883,1,0,3:0:0:0:
199,283,47008,2,0,L|254:276,1,42,2|2,0:0|0:0,0:0:0:0:
380,314,47383,6,0,P|383:292|367:258,1,42,2|0,0:0|0:0,0:0:0:0:
435,210,47633,2,0,L|439:184,4,21,2|0|2|2|2,0:0|0:0|0:0|0:0|0:0,0:0:0:0:
473,154,48008,2,0,L|363:140,1,84,2|2,0:0|0:0,0:0:0:0:
274,13,48508,6,0,B|300:64|300:64|283:108,1,84,0|10,0:0|0:0,0:0:0:0:
225,149,48883,2,0,B|199:104|199:104|214:54,1,84,10|10,0:0|0:0,0:0:0:0:
32,151,49508,6,0,P|83:153|119:193,1,84
74,305,50008,2,0,P|30:304|-9:266,1,84
201,254,50508,5,8,0:0:0:0:
245,367,50758,2,0,L|255:303,1,42,2|0,0:0|0:0,0:0:0:0:
287,243,51008,1,8,0:0:0:0:
333,357,51258,2,0,L|345:295,1,42,2|0,0:0|0:0,0:0:0:0:
376,235,51508,1,8,0:0:0:0:
38,153,52008,6,0,L|15:221,3,52.5
0,72,52508,2,0,B|56:65|56:65|117:102|117:102|188:93,1,188.999994232178,8|0,0:0|0:0,0:0:0:0:
241,27,53008,2,0,L|309:37,1,62.9999980773926,0|0,1:0|0:0,0:0:0:0:
393,27,53258,1,8,2:3:0:0:
393,27,53383,2,0,P|408:53|407:90,1,62.9999980773926,8|0,0:1|0:0,0:0:0:0:
346,143,53633,2,0,P|315:142|284:123,1,62.9999980773926,0|0,3:0|3:0,0:0:0:0:
418,208,53883,1,0,3:0:0:0:
418,208,54008,6,0,P|448:208|479:227,3,62.9999980773926,0|8|0|8,1:0|2:1|3:0|2:3,0:0:0:0:
357,276,54508,2,0,B|326:315|276:311|276:311|233:273|171:283,1,188.999994232178,8|0,2:3|0:0,0:0:0:0:
106,341,55008,2,0,P|106:307|89:260,1,62.9999980773926,0|0,1:0|0:0,0:0:0:0:
21,198,55258,1,0,0:0:0:0:
21,198,55383,2,0,P|52:200|79:184,1,62.9999980773926,8|0,2:1|0:0,0:0:0:0:
136,121,55633,1,0,0:0:0:0:
136,121,55758,2,0,P|124:89|130:53,1,62.9999980773926
222,16,56008,2,0,L|215:81,3,62.9999980773926,0|0|0|8,1:0|3:0|3:0|3:3,0:0:0:0:
325,155,56508,6,0,P|297:142|266:145,1,62.9999980773926,8|0,0:0|0:0,0:0:0:0:
373,235,56758,2,0,P|398:216|411:188,1,62.9999980773926,2|0,0:0|0:0,0:0:0:0:
287,232,57008,1,0,1:0:0:0:
287,232,57133,1,0,0:0:0:0:
207,286,57258,2,0,L|215:348,1,62.9999980773926,8|8,0:3|0:1,0:0:0:0:
127,239,57508,6,0,L|135:176,3,62.9999980773926,0|0|0|0,3:2|3:2|3:2|3:2,0:0:0:0:
46,293,58008,1,0,1:0:0:0:
46,293,58133,1,0,2:0:0:0:
46,293,58258,2,0,L|54:366,1,62.9999980773926,8|0,0:1|0:0,0:0:0:0:
20,187,58508,6,0,P|73:203|154:149,1,125.999996154785,8|10,0:0|0:0,0:0:0:0:
199,111,58883,1,0,0:0:0:0:
199,111,59008,2,0,P|234:112|259:128,1,62.9999980773926,0|8,1:0|2:1,0:0:0:0:
325,184,59258,2,0,P|360:183|385:166,1,62.9999980773926
467,110,59508,1,0,3:0:0:0:
467,110,59633,1,8,3:1:0:0:
467,110,59758,2,0,L|473:175,1,62.9999980773926
377,81,60008,2,0,L|386:15,3,62.9999980773926,0|0|8|8,1:0|3:0|3:0|1:1,0:0:0:0:
292,40,60508,6,0,B|250:15|250:15|111:48,1,188.999994232178,12|0,0:0|0:0,0:0:0:0:
27,73,61008,2,0,L|40:6,1,62.9999980773926,0|0,1:0|0:0,0:0:0:0:
104,132,61258,1,8,2:3:0:0:
104,132,61383,2,0,P|120:162|117:199,1,62.9999980773926,8|0,0:1|0:0,0:0:0:0:
195,244,61633,2,0,P|211:214|208:177,1,62.9999980773926,0|0,3:0|3:0,0:0:0:0:
114,276,61883,1,0,3:0:0:0:
114,276,62008,2,0,P|98:311|106:341,3,62.9999980773926,0|8|0|8,1:0|2:1|3:0|2:3,0:0:0:0:
191,335,62508,6,0,B|246:382|312:360|312:360|359:298,1,188.999994232178,8|0,2:3|0:0,0:0:0:0:
433,269,63008,2,0,L|451:350,1,62.9999980773926,0|0,1:0|0:0,0:0:0:0:
353,227,63258,1,0,0:0:0:0:
353,227,63383,2,0,P|375:202|431:185,1,62.9999980773926
373,106,63633,1,8,2:1:0:0:
373,106,63758,2,0,P|406:104|457:132,1,62.9999980773926
512,42,64008,2,0,L|446:23,3,62.9999980773926,0|0|0|8,1:0|3:0|3:0|3:3,0:0:0:0:
363,13,64508,6,0,P|322:25|295:19,1,62.9999980773926,8|0,0:0|0:0,0:0:0:0:
226,73,64758,2,0,P|196:58|164:58,1,62.9999980773926,2|0,0:0|0:0,0:0:0:0:
91,103,65008,1,0,1:0:0:0:
91,103,65133,1,0,0:0:0:0:
175,145,65258,2,0,L|169:208,1,62.9999980773926,8|8,0:3|0:1,0:0:0:0:
77,218,65508,2,0,L|69:289,3,62.9999980773926,0|0|0|0,3:2|3:2|3:2|3:2,0:0:0:0:
128,355,66008,1,0,1:0:0:0:
128,355,66133,1,0,2:1:0:0:
128,355,66258,2,0,L|190:363,1,62.9999980773926,8|0,2:1|0:0,0:0:0:0:
262,299,66508,6,0,P|325:291|377:333,1,125.999996154785,8|10,0:0|0:0,0:0:0:0:
463,370,66883,1,0,0:0:0:0:
463,370,67008,2,0,L|469:307,1,62.9999980773926,0|0,1:0|0:0,0:0:0:0:
410,234,67258,2,0,L|487:223,1,62.9999980773926
365,153,67508,2,0,L|236:138,1,125.999996154785,0|0,3:0|0:0,0:0:0:0:
154,173,67883,1,0,0:0:0:0:
154,173,68008,2,0,P|141:141|146:99,3,62.9999980773926,0|0|8|8,1:0|3:0|3:0|1:1,0:0:0:0:
169,32,68508,6,0,B|222:25|222:25|279:58|279:58|338:51,1,157.5,4|0,3:2|0:0,0:0:0:0:
397,33,69008,2,0,L|404:87,1,52.5,0|0,1:0|0:0,0:0:0:0:
464,158,69258,1,0,0:0:0:0:
465,158,69383,2,0,P|408:139|361:160,1,105,8|8,0:2|0:0,0:0:0:0:
260,231,69883,5,0,3:0:0:0:
260,231,70008,2,0,P|268:262|294:286,1,52.5,2|0,1:2|0:0,0:0:0:0:
244,353,70258,2,0,P|211:344|178:354,1,52.5,8|0,0:0|0:0,0:0:0:0:
132,278,70508,2,0,P|161:235|116:110,1,157.5,10|0,0:2|0:0,0:0:0:0:
85,67,71008,1,0,1:0:0:0:
239,30,71258,5,0,0:0:0:0:
239,30,71383,2,0,P|265:43|318:36,1,52.5,8|2,0:0|0:0,0:0:0:0:
407,17,71633,2,0,P|382:33|362:82,1,52.5,8|8,0:0|0:0,0:0:0:0:
333,169,71883,1,0,3:0:0:0:
333,169,72008,2,0,P|331:139|298:97,3,52.5,2|8|8|8,1:2|0:0|0:0|0:0,0:0:0:0:
426,191,72508,6,0,B|395:235|395:235|423:349,1,157.5,10|0,0:0|0:0,0:0:0:0:
341,373,73008,2,0,L|279:363,1,52.5,10|2,1:2|0:0,0:0:0:0:
234,291,73258,1,10,0:0:0:0:
234,291,73383,2,0,B|256:261|256:261|238:170,1,105,0|2,0:0|0:0,0:0:0:0:
199,67,73883,5,0,3:0:0:0:
199,67,74008,2,0,L|142:58,1,52.5,2|2,1:2|0:2,0:0:0:0:
75,112,74258,2,0,L|18:121,1,52.5,8|0,0:0|0:0,0:0:0:0:
0,210,74508,2,0,P|66:214|122:322,1,157.5,8|8,0:0|0:0,0:0:0:0:
172,377,75008,2,0,P|203:318|325:313,1,157.5,0|8,1:0|0:0,0:0:0:0:
370,357,75508,2,0,L|378:303,1,52.5,2|0,1:2|1:0,0:0:0:0:
457,260,75758,2,0,L|449:208,1,52.5,8|8,0:0|0:0,0:0:0:0:
364,165,76008,2,0,L|355:223,3,52.5,2|2|0|0,1:2|1:2|1:0|1:0,0:0:0:0:
426,85,76508,6,0,L|258:60,1,157.5,4|0,1:2|0:0,0:0:0:0:
197,29,77008,2,0,P|187:58|191:87,1,52.5,0|0,1:0|0:0,0:0:0:0:
156,157,77258,1,0,0:0:0:0:
156,157,77383,2,0,P|215:161|263:124,1,105,8|8,0:2|0:0,0:0:0:0:
93,88,77883,5,0,3:0:0:0:
93,88,78008,2,0,L|42:96,1,52.5,2|0,1:2|0:0,0:0:0:0:
0,175,78258,2,0,L|60:185,1,52.5,8|0,0:0|0:0,0:0:0:0:
93,261,78508,2,0,P|176:239|237:302,1,157.5,10|0,0:2|0:0,0:0:0:0:
276,354,79008,1,0,1:0:0:0:
394,287,79258,5,0,0:0:0:0:
394,287,79383,2,0,P|357:292|326:278,1,52.5,8|2,0:0|0:0,0:0:0:0:
294,213,79633,2,0,P|303:176|293:144,1,52.5,8|8,0:0|0:0,0:0:0:0:
370,100,79883,1,0,3:0:0:0:
370,100,80008,2,0,P|401:98|431:116,3,52.5,2|8|8|8,1:2|0:0|0:0|0:0,0:0:0:0:
305,24,80508,2,0,B|226:8|227:66|139:44,1,157.5,10|0,0:0|0:0,0:0:0:0:
67,31,81008,2,0,L|58:88,1,52.5,10|2,1:2|0:0,0:0:0:0:
0,150,81258,1,10,0:0:0:0:
0,150,81383,2,0,L|18:281,1,105,0|2,0:0|0:0,0:0:0:0:
128,363,81883,5,0,3:0:0:0:
128,363,82008,2,0,P|136:333|135:299,1,52.5,2|2,1:2|0:0,0:0:0:0:
189,233,82258,2,0,P|215:232|245:243,1,52.5,8|0,0:0|0:0,0:0:0:0:
292,147,82508,2,0,P|219:143|175:56,1,157.5,8|8,0:0|0:0,0:0:0:0:
244,12,83008,2,0,P|316:15|360:102,1,157.5,0|8,1:0|0:0,0:0:0:0:
384,170,83508,1,0,1:0:0:0:
0,347,90508,6,0,P|82:358|142:264,1,168,8|8,3:2|3:2,0:0:0:0:
239,91,91508,6,0,P|187:89|150:116,1,84,8|8,0:2|0:2,0:0:0:0:
299,155,92008,2,0,P|326:111|320:63,1,84,8|8,0:2|0:2,0:0:0:0:
212,174,92508,6,0,P|236:219|277:236,1,84,8|0,3:2|0:0,0:0:0:0:
355,331,93008,2,0,B|308:309|308:309|214:348,1,126,0|2,3:0|0:0,0:0:0:0:
152,300,93633,1,8,0:0:0:0:
63,367,93883,1,8,0:0:0:0:
63,367,94008,6,0,L|50:308,1,42,2|2,3:2|0:2,0:0:0:0:
26,237,94258,2,0,L|-9:231,3,21,2|0|0|0,0:0|0:0|0:0|0:0,0:0:0:0:
36,231,94508,2,0,P|90:217|117:175,1,84,8|0,3:2|0:0,0:0:0:0:
236,167,94883,1,0,0:0:0:0:
236,167,95008,2,0,P|179:143|176:61,1,126,0|10,3:0|0:0,0:0:0:0:
240,18,95633,1,8,0:0:0:0:
325,70,95883,1,8,0:0:0:0:
325,70,96008,6,0,L|333:120,1,42,2|2,3:2|0:0,0:0:0:0:
415,166,96258,2,0,L|440:162,3,21,2|0|0|0,0:0|0:0|0:0|0:0,0:0:0:0:
403,173,96508,2,0,B|383:205|383:205|408:266,1,84,0|0,3:0|0:0,0:0:0:0:
376,343,96883,1,0,0:0:0:0:
376,343,97008,2,0,P|342:313|281:318,1,84,0|2,3:0|0:0,0:0:0:0:
236,363,97383,1,2,0:0:0:0:
236,363,97508,2,0,L|186:352,1,42,0|8,3:0|0:0,0:0:0:0:
107,297,97758,6,0,P|118:272|110:245,1,42,0|8,0:0|0:0,0:0:0:0:
48,200,98008,2,0,P|71:181|110:185,1,42,2|2,3:2|0:0,0:0:0:0:
170,166,98258,2,0,L|164:204,3,21,2|0|0|0,0:0|0:0|0:0|0:0,0:0:0:0:
177,157,98508,2,0,L|288:143,1,84,0|0,3:0|0:0,0:0:0:0:
323,87,98883,1,0,0:0:0:0:
323,87,99008,2,0,B|364:57|364:57|413:73,1,84,0|0,3:0|0:0,0:0:0:0:
463,135,99383,1,0,0:0:0:0:
463,135,99508,6,0,B|429:164|429:164|379:145,1,84,0|0,3:0|0:0,0:0:0:0:
298,219,100008,1,10,0:0:0:0:
375,301,100258,1,10,0:0:0:0:
262,374,100508,6,0,L|126:363,1,105,8|2,0:0|0:0,0:0:0:0:
201,273,101008,2,0,L|65:262,1,105,8|2,0:0|0:0,0:0:0:0:
138,166,101508,1,10,0:0:0:0:
33,157,101758,1,10,0:0:0:0:
118,65,102008,2,0,L|178:71,3,52.5
248,26,102508,6,0,B|306:21|306:21|367:58|367:58|435:55,1,188.999994232178,8|0,0:0|0:0,0:0:0:0:
471,141,103008,2,0,L|405:144,1,62.9999980773926,0|0,1:0|0:0,0:0:0:0:
323,135,103258,1,8,2:3:0:0:
323,135,103383,2,0,P|323:167|336:197,1,62.9999980773926,8|0,0:1|0:0,0:0:0:0:
192,207,103633,1,0,3:0:0:0:
192,207,103758,2,0,P|219:191|239:164,1,62.9999980773926,0|0,3:0|3:0,0:0:0:0:
327,288,104008,2,0,P|299:272|266:268,3,62.9999980773926,0|8|0|8,1:0|2:1|3:0|2:3,0:0:0:0:
266,353,104508,6,0,P|214:380|104:308,1,188.999994232178,8|0,2:3|0:0,0:0:0:0:
32,273,105008,2,0,L|17:346,1,62.9999980773926,0|0,1:0|0:0,0:0:0:0:
0,182,105258,1,0,0:0:0:0:
0,182,105383,2,0,P|37:183|67:164,1,62.9999980773926,8|0,2:1|0:0,0:0:0:0:
178,240,105633,1,0,0:0:0:0:
178,240,105758,2,0,P|160:206|129:190,1,62.9999980773926
140,56,106008,2,0,P|120:87|121:123,3,62.9999980773926,0|0|0|8,1:0|3:0|3:0|3:3,0:0:0:0:
227,77,106508,6,0,L|238:2,1,62.9999980773926,8|0,0:0|0:0,0:0:0:0:
318,59,106758,2,0,L|308:121,1,62.9999980773926,2|0,0:0|0:0,0:0:0:0:
407,32,107008,1,0,1:0:0:0:
407,32,107133,1,0,0:0:0:0:
471,98,107258,2,0,L|461:160,1,62.9999980773926,8|8,0:3|0:1,0:0:0:0:
362,227,107508,2,0,P|395:224|429:242,3,62.9999980773926,0|0|0|0,3:2|3:2|3:2|3:2,0:0:0:0:
316,311,108008,1,0,1:0:0:0:
316,311,108133,1,8,2:1:0:0:
316,311,108258,2,0,L|254:305,1,62.9999980773926,0|0,0:3|0:0,0:0:0:0:
172,363,108508,6,0,P|117:321|112:262,1,125.999996154785,8|10,0:0|0:0,0:0:0:0:
151,192,108883,1,0,0:0:0:0:
151,192,109008,2,0,P|114:179|70:197,1,62.9999980773926,0|0,1:0|0:0,0:0:0:0:
15,246,109258,2,0,P|14:211|-5:184,1,62.9999980773926
28,109,109508,1,0,3:0:0:0:
28,109,109633,1,0,3:0:0:0:
28,109,109758,2,0,P|59:107|90:85,1,62.9999980773926
143,23,110008,2,0,B|115:1|115:1|81:4,3,62.9999980773926,0|0|8|8,1:0|3:0|3:0|1:1,0:0:0:0:
255,14,110508,6,0,P|217:89|264:178,1,188.999994232178,8|0,0:0|0:0,0:0:0:0:
336,221,111008,2,0,P|348:194|336:142,1,62.9999980773926,0|0,1:0|0:0,0:0:0:0:
263,268,111258,1,8,2:3:0:0:
263,268,111383,2,0,P|290:296|340:301,1,62.9999980773926,8|0,0:1|0:0,0:0:0:0:
391,340,111633,1,0,3:0:0:0:
391,340,111758,2,0,P|398:307|387:271,1,62.9999980773926,0|0,3:0|3:0,0:0:0:0:
497,225,112008,6,0,L|488:287,3,62.9999980773926,0|8|0|8,1:0|2:1|3:0|2:3,0:0:0:0:
511,133,112508,2,0,B|436:93|398:179|311:140,1,188.999994232178,8|0,2:3|0:0,0:0:0:0:
276,68,113008,1,0,1:0:0:0:
152,115,113258,1,0,0:0:0:0:
152,115,113383,2,0,L|161:47,1,62.9999980773926,8|0,2:1|0:0,0:0:0:0:
71,163,113633,1,0,0:0:0:0:
71,163,113758,2,0,L|61:97,1,62.9999980773926
16,239,114008,2,0,L|78:249,3,62.9999980773926,0|0|0|8,1:0|3:0|3:0|3:3,0:0:0:0:
167,224,114508,6,0,L|174:295,1,62.9999980773926,8|0,0:0|0:0,0:0:0:0:
262,269,114758,2,0,L|255:340,1,62.9999980773926,2|0,0:0|0:0,0:0:0:0:
338,233,115008,1,0,1:0:0:0:
338,233,115133,1,0,0:0:0:0:
408,276,115258,2,0,L|415:347,1,62.9999980773926,8|8,0:3|0:1,0:0:0:0:
487,242,115508,2,0,L|491:176,3,62.9999980773926,0|0|0|0,3:2|3:2|3:2|3:2,0:0:0:0:
414,154,116008,2,0,P|379:158|354:145,1,62.9999980773926,0|8,1:0|2:1,0:0:0:0:
300,80,116258,2,0,P|265:76|240:89,1,62.9999980773926,0|0,0:3|0:0,0:0:0:0:
169,156,116508,6,0,P|165:123|147:97,1,62.9999980773926,8|0,0:0|0:0,0:0:0:0:
60,111,116758,1,10,0:0:0:0:
60,111,116883,2,0,L|48:177,2,62.9999980773926,0|0|0,0:0|1:0|0:0,0:0:0:0:
0,265,117258,1,0,0:0:0:0:
0,265,117383,1,0,0:0:0:0:
0,265,117508,2,0,P|37:252|83:279,1,62.9999980773926,0|0,3:0|3:0,0:0:0:0:
103,350,117758,1,0,0:0:0:0:
103,350,117883,1,0,0:0:0:0:
103,350,118008,2,0,L|41:340,3,62.9999980773926,0|0|8|8,1:0|3:0|3:0|1:1,0:0:0:0:
192,366,118508,6,0,B|186:320|186:320|219:263|219:263|212:204,1,157.5,4|0,3:2|0:0,0:0:0:0:
181,144,119008,2,0,P|206:133|242:143,1,52.5,0|0,1:0|0:0,0:0:0:0:
301,200,119258,1,0,0:0:0:0:
301,200,119383,2,0,P|358:210|403:181,1,105,8|8,0:2|0:0,0:0:0:0:
472,60,119883,1,0,3:0:0:0:
472,60,120008,2,0,L|410:68,1,52.5,2|0,1:2|0:0,0:0:0:0:
347,111,120258,2,0,L|292:102,1,52.5,8|0,0:0|0:0,0:0:0:0:
220,49,120508,6,0,P|161:18|80:73,1,157.5,10|0,0:2|0:0,0:0:0:0:
43,132,121008,1,0,1:0:0:0:
124,235,121258,1,0,0:0:0:0:
124,235,121383,2,0,L|131:179,1,52.5,8|2,0:0|0:0,0:0:0:0:
208,141,121633,2,0,L|215:197,1,52.5,8|8,0:0|0:0,0:0:0:0:
290,253,121883,1,0,3:0:0:0:
290,253,122008,2,0,L|343:250,3,52.5,2|8|8|8,1:2|0:0|0:0|0:0,0:0:0:0:
404,314,122508,6,0,P|364:360|268:368,1,157.5,10|0,0:0|0:0,0:0:0:0:
207,311,123008,2,0,L|136:328,1,52.5,10|2,1:2|0:0,0:0:0:0:
26,251,123258,1,10,0:0:0:0:
26,251,123383,2,0,P|74:228|154:255,1,105,0|2,0:0|0:0,0:0:0:0:
259,182,123883,1,0,3:0:0:0:
259,182,124008,2,0,L|252:127,1,52.5,2|2,1:2|0:2,0:0:0:0:
162,108,124258,2,0,L|171:54,1,52.5,8|0,0:0|0:0,0:0:0:0:
266,9,124508,6,0,P|347:27|369:108,1,157.5,8|8,0:0|0:0,0:0:0:0:
478,125,125008,2,0,P|421:175|431:250,1,157.5,0|8,1:0|0:0,0:0:0:0:
474,336,125508,2,0,L|421:330,1,52.5,2|0,1:2|1:0,0:0:0:0:
349,380,125758,2,0,L|296:374,1,52.5,8|8,0:0|0:0,0:0:0:0:
216,335,126008,2,0,L|208:284,3,52.5,2|2|0|0,1:2|1:2|1:0|1:0,0:0:0:0:
263,218,126508,6,0,P|189:201|127:246,1,157.5,4|0,1:2|0:0,0:0:0:0:
78,316,127008,2,0,L|25:309,1,52.5,0|0,1:0|0:0,0:0:0:0:
0,228,127258,1,0,0:0:0:0:
0,228,127383,2,0,P|10:174|63:143,1,105,8|8,0:2|0:0,0:0:0:0:
172,45,127883,5,0,3:0:0:0:
172,45,128008,2,0,L|235:57,1,52.5,2|0,1:2|0:0,0:0:0:0:
301,105,128258,2,0,L|364:96,1,52.5,8|0,0:0|0:0,0:0:0:0:
409,30,128508,2,0,P|440:103|402:169,1,157.5,10|0,0:2|0:0,0:0:0:0:
341,226,129008,2,0,L|349:297,1,52.5,0|0,1:0|0:0,0:0:0:0:
287,344,129258,5,0,0:0:0:0:
287,344,129383,2,0,L|229:337,1,52.5,8|2,0:0|0:0,0:0:0:0:
176,276,129633,2,0,L|101:291,1,52.5,8|8,0:0|0:0,0:0:0:0:
72,365,129883,1,0,3:0:0:0:
72,365,130008,2,0,L|124:372,3,52.5,2|8|8|8,1:2|0:0|0:0|0:0,0:0:0:0:
19,292,130508,6,0,B|0:252|0:252|39:119,1,157.5,10|0,0:0|0:0,0:0:0:0:
70,65,131008,2,0,L|122:53,1,52.5,10|2,1:2|0:0,0:0:0:0:
193,0,131258,1,10,0:0:0:0:
193,0,131383,2,0,P|213:47|192:109,1,105,0|2,0:0|0:0,0:0:0:0:
152,229,131883,5,0,3:0:0:0:
152,229,132008,2,0,L|144:285,1,52.5,2|2,1:2|0:0,0:0:0:0:
246,306,132258,2,0,L|238:250,1,52.5,8|0,0:0|0:0,0:0:0:0:
228,169,132508,6,0,P|300:190|318:277,1,157.5,8|8,0:0|0:0,0:0:0:0:
316,365,133008,2,0,P|386:339|452:399,1,157.5,0|8,1:0|0:0,0:0:0:0:
502,304,133508,2,0,B|479:258|479:258|496:184,1,105,0|8,1:0|0:0,0:0:0:0:
435,95,134008,2,0,L|418:161,3,52.5,0|0|0|0,1:0|1:0|1:3|1:3,0:0:0:0:
379,25,134508,6,0,B|303:-7|277:120|174:70,4,188.999994232178,10|10|14|10|0,0:0|0:0|0:0|1:2|0:2,0:0:0:0:
265,164,136508,6,0,P|349:187|350:275,4,188.999994232178,10|10|14|10|0,0:0|0:0|0:0|1:2|0:0,0:0:0:0:
226,370,138508,6,0,B|175:371|175:371|104:308|104:308|52:310,4,188.999994232178,10|10|14|10|0,0:0|0:0|0:0|1:2|0:0,0:0:0:0:
197,210,140508,6,0,P|175:127|47:120,1,188.999994232178,10|10,0:0|0:0,0:0:0:0:
0,249,141258,5,14,0:0:0:0:
