osu file format v14

[General]
AudioFilename: audio.mp3
AudioLeadIn: 0
PreviewTime:52008
Countdown: 0
SampleSet: Soft
StackLeniency: 0
Mode: 0
LetterboxInBreaks: 0
WidescreenStoryboard: 0

[Editor]
DistanceSpacing: 1
BeatDivisor: 4
GridSize: 32
TimelineZoom: 3

[Metadata]
Title:Karada wa Shoujiki datte Ittenno
TitleUnicode:身体は正直だって言ってんの
Artist:Shikiura.
ArtistUnicode:式浦。
Creator:seros
Version:Hakusui3820's Normal
Source:
Tags:Just Saying, The Body Is Honest. japanese pop jpop j-pop vocaloid 歌愛ユキ Kaai Yuki ROTUS. papapa213 papapa pigeons zengsb hakusui3820 hakusui_sama hakusui sama alevi brain exe raijodo -45 ttmnzk TT Mouse
BeatmapID:3731476
BeatmapSetID:1767411

[Difficulty]
HPDrainRate:3.5
CircleSize:3.5
OverallDifficulty:5
ApproachRate:6
SliderMultiplier:1.3
SliderTickRate:1

[Events]
//Background and Video events
0,0,"bg.jpg",0,0
Video,-144,"video.mp4"
//Break Periods
2,34508,37458
2,50508,51458
2,84508,91458
2,100508,101458
//Storyboard Layer 0 (Background)
//Storyboard Layer 1 (Fail)
//Storyboard Layer 2 (Pass)
//Storyboard Layer 3 (Foreground)
//Storyboard Layer 4 (Overlay)
//Storyboard Sound Samples
Sample,2508,0,"SBK/20.wav",40
Sample,3008,0,"SBK/20.wav",40
Sample,3383,0,"SBK/21.wav",60
Sample,3633,0,"SBK/21.wav",60
Sample,3883,0,"SBK/21.wav",60
Sample,4508,0,"SBK/22.wav",60
Sample,5008,0,"SBK/22.wav",60
Sample,5383,0,"SBK/23.wav",60
Sample,5633,0,"SBK/23.wav",60
Sample,5883,0,"SBK/24.wav",60
Sample,6508,0,"SBK/25.wav",60
Sample,7008,0,"SBK/25.wav",60
Sample,7383,0,"SBK/26.wav",60
Sample,7633,0,"SBK/26.wav",60
Sample,7883,0,"SBK/26.wav",60
Sample,8508,0,"SBK/27.wav",60
Sample,9008,0,"SBK/28.wav",60
Sample,9383,0,"SBK/29.wav",60
Sample,9633,0,"SBK/29.wav",60
Sample,9883,0,"SBK/29.wav",60
Sample,10508,0,"SBK/20.wav",60
Sample,11008,0,"SBK/20.wav",60
Sample,11383,0,"SBK/21.wav",60
Sample,11633,0,"SBK/21.wav",60
Sample,11883,0,"SBK/21.wav",60
Sample,12508,0,"SBK/22.wav",60
Sample,13008,0,"SBK/22.wav",60
Sample,13383,0,"SBK/23.wav",60
Sample,13633,0,"SBK/23.wav",60
Sample,13883,0,"SBK/24.wav",60
Sample,14508,0,"SBK/25.wav",60
Sample,15008,0,"SBK/25.wav",60
Sample,15383,0,"SBK/26.wav",60
Sample,15633,0,"SBK/26.wav",60
Sample,15883,0,"SBK/26.wav",60
Sample,16508,0,"SBK/27.wav",60
Sample,17008,0,"SBK/28.wav",60
Sample,17383,0,"SBK/29.wav",60
Sample,18508,0,"SBK/20.wav",60
Sample,19008,0,"SBK/20.wav",60
Sample,19383,0,"SBK/21.wav",60
Sample,19633,0,"SBK/21.wav",60
Sample,19883,0,"SBK/21.wav",60
Sample,20508,0,"SBK/22.wav",60
Sample,21008,0,"SBK/22.wav",60
Sample,21383,0,"SBK/23.wav",60
Sample,21633,0,"SBK/23.wav",60
Sample,21883,0,"SBK/24.wav",60
Sample,22508,0,"SBK/25.wav",60
Sample,23008,0,"SBK/25.wav",60
Sample,23383,0,"SBK/26.wav",60
Sample,23633,0,"SBK/26.wav",60
Sample,23883,0,"SBK/26.wav",60
Sample,24508,0,"SBK/27.wav",60
Sample,25008,0,"SBK/28.wav",60
Sample,25383,0,"SBK/29.wav",60
Sample,25633,0,"SBK/29.wav",60
Sample,25883,0,"SBK/29.wav",60
Sample,26508,0,"SBK/20.wav",60
Sample,27008,0,"SBK/20.wav",60
Sample,27383,0,"SBK/21.wav",60
Sample,27633,0,"SBK/21.wav",60
Sample,27883,0,"SBK/21.wav",60
Sample,28508,0,"SBK/22.wav",60
Sample,29008,0,"SBK/22.wav",60
Sample,29383,0,"SBK/23.wav",60
Sample,29633,0,"SBK/23.wav",60
Sample,29883,0,"SBK/24.wav",60
Sample,30508,0,"SBK/25.wav",60
Sample,31008,0,"SBK/25.wav",60
Sample,31383,0,"SBK/26.wav",60
Sample,31633,0,"SBK/26.wav",60
Sample,31883,0,"SBK/26.wav",60
Sample,32508,0,"SBK/27.wav",60
Sample,33008,0,"SBK/28.wav",60
Sample,33383,0,"SBK/29.wav",60
Sample,68508,0,"SBK/20.wav",60
Sample,69008,0,"SBK/20.wav",60
Sample,69383,0,"SBK/21.wav",60
Sample,69633,0,"SBK/21.wav",60
Sample,69883,0,"SBK/21.wav",60
Sample,70508,0,"SBK/22.wav",60
Sample,71008,0,"SBK/22.wav",60
Sample,71383,0,"SBK/23.wav",60
Sample,71633,0,"SBK/23.wav",60
Sample,71883,0,"SBK/24.wav",60
Sample,72508,0,"SBK/25.wav",60
Sample,73008,0,"SBK/25.wav",60
Sample,73383,0,"SBK/26.wav",60
Sample,73633,0,"SBK/26.wav",60
Sample,73883,0,"SBK/26.wav",60
Sample,74508,0,"SBK/27.wav",60
Sample,75008,0,"SBK/28.wav",60
Sample,75383,0,"SBK/29.wav",60
Sample,75633,0,"SBK/29.wav",60
Sample,75883,0,"SBK/29.wav",60
Sample,76508,0,"SBK/20.wav",60
Sample,77008,0,"SBK/20.wav",60
Sample,77383,0,"SBK/21.wav",60
Sample,77633,0,"SBK/21.wav",60
Sample,77883,0,"SBK/21.wav",60
Sample,78508,0,"SBK/22.wav",60
Sample,79008,0,"SBK/22.wav",60
Sample,79383,0,"SBK/23.wav",60
Sample,79633,0,"SBK/23.wav",60
Sample,79883,0,"SBK/24.wav",60
Sample,80508,0,"SBK/25.wav",60
Sample,81008,0,"SBK/25.wav",60
Sample,81383,0,"SBK/26.wav",60
Sample,81633,0,"SBK/26.wav",60
Sample,81883,0,"SBK/26.wav",60
Sample,82508,0,"SBK/27.wav",60
Sample,83008,0,"SBK/28.wav",60
Sample,118508,0,"SBK/40.wav",60
Sample,119008,0,"SBK/40.wav",60
Sample,119383,0,"SBK/41.wav",60
Sample,119633,0,"SBK/41.wav",60
Sample,119883,0,"SBK/41.wav",60
Sample,120508,0,"SBK/42.wav",60
Sample,121008,0,"SBK/42.wav",60
Sample,121383,0,"SBK/43.wav",60
Sample,121633,0,"SBK/43.wav",60
Sample,121883,0,"SBK/44.wav",60
Sample,122508,0,"SBK/45.wav",60
Sample,123008,0,"SBK/45.wav",60
Sample,123383,0,"SBK/46.wav",60
Sample,123633,0,"SBK/46.wav",60
Sample,123883,0,"SBK/46.wav",60
Sample,124508,0,"SBK/47.wav",60
Sample,125008,0,"SBK/48.wav",60
Sample,125383,0,"SBK/49.wav",60
Sample,125633,0,"SBK/49.wav",60
Sample,125883,0,"SBK/49.wav",60
Sample,126508,0,"SBK/40.wav",60
Sample,127008,0,"SBK/40.wav",60
Sample,127383,0,"SBK/41.wav",60
Sample,127633,0,"SBK/41.wav",60
Sample,127883,0,"SBK/41.wav",60
Sample,128508,0,"SBK/42.wav",60
Sample,129008,0,"SBK/42.wav",60
Sample,129383,0,"SBK/43.wav",60
Sample,129633,0,"SBK/43.wav",60
Sample,129883,0,"SBK/44.wav",60
Sample,130508,0,"SBK/45.wav",60
Sample,131008,0,"SBK/45.wav",60
Sample,131383,0,"SBK/46.wav",60
Sample,131633,0,"SBK/46.wav",60
Sample,131883,0,"SBK/46.wav",60
Sample,132508,0,"SBK/47.wav",60
Sample,133008,0,"SBK/48.wav",60
Sample,133383,0,"SBK/49.wav",60
Sample,133633,0,"SBK/49.wav",60
Sample,133883,0,"SBK/49.wav",60

[TimingPoints]
478,508.474576271186,4,2,1,50,1,0
2508,500,4,2,1,50,1,0
2508,-111.111111111111,4,2,1,50,0,0
18008,-111.111111111111,4,2,2,50,0,0
18133,-111.111111111111,4,2,2,55,0,0
18258,-111.111111111111,4,2,2,60,0,0
18383,-111.111111111111,4,2,2,65,0,0
18508,-100,4,2,2,70,0,1
18570,-100,4,2,2,70,0,0
18758,-100,4,2,1,70,0,0
18883,-100,4,2,2,70,0,0
20758,-100,4,2,1,70,0,0
20883,-100,4,2,2,70,0,0
22758,-100,4,2,1,70,0,0
22883,-100,4,2,2,70,0,0
23258,-100,4,2,1,70,0,0
23383,-100,4,2,2,70,0,0
23758,-100,4,2,1,70,0,0
23883,-100,4,2,2,70,0,0
24758,-100,4,2,1,70,0,0
24883,-100,4,2,2,70,0,0
25258,-100,4,2,1,70,0,0
25383,-100,4,2,2,70,0,0
25508,-100,4,2,3,70,0,0
25633,-100,4,2,2,70,0,0
25758,-100,4,2,1,70,0,0
25883,-100,4,2,2,70,0,0
26008,-100,4,2,3,70,0,0
26133,-100,4,2,2,70,0,0
26258,-100,4,2,3,70,0,0
26383,-100,4,2,2,70,0,0
26758,-100,4,2,1,70,0,0
26883,-100,4,2,2,70,0,0
28758,-100,4,2,1,70,0,0
28883,-100,4,2,2,70,0,0
30758,-100,4,2,1,70,0,0
30883,-100,4,2,2,70,0,0
31258,-100,4,2,1,70,0,0
31383,-100,4,2,2,70,0,0
31758,-100,4,2,1,70,0,0
31883,-100,4,2,2,70,0,0
32508,-100,4,2,1,70,0,0
32633,-100,4,2,2,70,0,0
33508,-100,4,2,3,50,0,0
34508,-111.111111111111,4,2,4,60,0,0
34758,-111.111111111111,4,2,4,45,0,0
35133,-111.111111111111,4,2,4,60,0,0
38008,-111.111111111111,4,2,2,60,0,0
38508,-100,4,2,4,60,0,0
43820,-100,4,2,4,35,0,0
44008,-100,4,2,4,60,0,0
47820,-100,4,2,4,35,0,0
48008,-100,4,2,4,60,0,0
50508,-100,4,2,2,60,0,1
50758,-100,4,2,2,60,0,0
51008,-100,4,2,2,60,0,1
51258,-100,4,2,2,60,0,0
51508,-100,4,2,2,60,0,1
51758,-100,4,2,2,60,0,0
52508,-90.9090909090909,4,2,10,80,0,1
68445,-90.9090909090909,4,2,10,80,0,0
68508,-100,4,2,2,70,0,1
68570,-100,4,2,2,70,0,0
68758,-100,4,2,1,70,0,0
68883,-100,4,2,2,70,0,0
70758,-100,4,2,1,70,0,0
70883,-100,4,2,2,70,0,0
72758,-100,4,2,1,70,0,0
72883,-100,4,2,2,70,0,0
73258,-100,4,2,1,70,0,0
73383,-100,4,2,2,70,0,0
73758,-100,4,2,1,70,0,0
73883,-100,4,2,2,70,0,0
74758,-100,4,2,1,70,0,0
74883,-100,4,2,2,70,0,0
75508,-100,4,2,3,70,0,0
75633,-100,4,2,2,70,0,0
76008,-100,4,2,3,70,0,0
76133,-100,4,2,2,70,0,0
76258,-100,4,2,3,70,0,0
76383,-100,4,2,2,70,0,0
76758,-100,4,2,1,70,0,0
76883,-100,4,2,2,70,0,0
78758,-100,4,2,1,70,0,0
78883,-100,4,2,2,70,0,0
80758,-100,4,2,1,70,0,0
80883,-100,4,2,2,70,0,0
81258,-100,4,2,1,70,0,0
81383,-100,4,2,2,70,0,0
81758,-100,4,2,1,70,0,0
81883,-100,4,2,2,70,0,0
82758,-100,4,2,1,70,0,0
82883,-100,4,2,2,70,0,0
83508,-100,4,2,3,50,0,0
83633,-100,4,2,2,50,0,0
83883,-100,4,2,2,5,0,0
84508,-111.111111111111,4,2,2,40,0,0
90508,-111.111111111111,4,2,2,45,0,0
92508,-100,4,2,4,60,0,0
100008,-100,4,2,4,60,0,0
100508,-100,4,2,2,60,0,1
100758,-100,4,2,2,60,0,0
101008,-100,4,2,2,60,0,1
101258,-100,4,2,2,60,0,0
101508,-100,4,2,2,60,0,1
101633,-100,4,2,2,60,0,0
101758,-100,4,2,2,60,0,1
101883,-100,4,2,2,60,0,0
102508,-90.9090909090909,4,2,10,80,0,1
118445,-90.9090909090909,4,2,10,80,0,0
118508,-100,4,2,2,70,0,1
118570,-100,4,2,2,70,0,0
118758,-100,4,2,1,70,0,0
118883,-100,4,2,2,70,0,0
120758,-100,4,2,1,70,0,0
120883,-100,4,2,2,70,0,0
122758,-100,4,2,1,70,0,0
122883,-100,4,2,2,70,0,0
123258,-100,4,2,1,70,0,0
123383,-100,4,2,2,70,0,0
123758,-100,4,2,1,70,0,0
123883,-100,4,2,2,70,0,0
124758,-100,4,2,1,70,0,0
124883,-100,4,2,2,70,0,0
125508,-100,4,2,3,70,0,0
125633,-100,4,2,2,70,0,0
126008,-100,4,2,3,70,0,0
126133,-100,4,2,2,70,0,0
126258,-100,4,2,3,70,0,0
126383,-100,4,2,2,70,0,0
126758,-100,4,2,1,70,0,0
126883,-100,4,2,2,70,0,0
128758,-100,4,2,1,70,0,0
128883,-100,4,2,2,70,0,0
130758,-100,4,2,1,70,0,0
130883,-100,4,2,2,70,0,0
131258,-100,4,2,1,70,0,0
131383,-100,4,2,2,70,0,0
132758,-100,4,2,1,70,0,0
132883,-100,4,2,2,70,0,0
133508,-100,4,2,3,70,0,0
133883,-100,4,2,10,70,0,0
134008,-100,4,2,3,70,0,0
134133,-100,4,2,2,70,0,0
134508,-90.9090909090909,4,2,2,80,0,1
136008,-90.9090909090909,4,2,4,80,0,1
136508,-90.9090909090909,4,2,2,80,0,1
138008,-90.9090909090909,4,2,4,80,0,1
138508,-90.9090909090909,4,2,2,80,0,1
140008,-90.9090909090909,4,2,4,80,0,1
140508,-90.9090909090909,4,2,2,80,0,1
141258,-100,4,2,2,80,0,0
141758,-100,4,2,4,15,0,0

[Colours]
Combo1 : 182,199,218
Combo2 : 154,154,186

[HitObjects]
64,101,2508,6,0,P|113:74|171:81,1,116.999996429443,10|0,3:2|3:0,0:0:0:0:
288,153,3383,2,0,L|349:142,2,58.4999982147217,0|0|0,3:0|3:0|3:0,0:0:0:0:
236,377,4508,6,0,P|209:328|216:270,1,116.999996429443,10|0,3:2|3:0,0:0:0:0:
288,153,5383,2,0,L|277:92,2,58.4999982147217,0|0|0,3:0|3:0|3:0,0:0:0:0:
512,205,6508,6,0,P|463:232|405:225,1,116.999996429443,10|0,3:2|3:0,0:0:0:0:
288,153,7383,2,0,L|227:164,2,58.4999982147217,0|0|0,3:0|3:0|3:0,0:0:0:0:
236,377,8508,6,0,P|209:328|216:270,1,116.999996429443,10|0,3:2|3:0,0:0:0:0:
288,153,9383,2,0,L|277:92,2,58.4999982147217,0|0|0,3:0|3:0|3:0,0:0:0:0:
64,101,10508,6,0,B|114:71|114:71|183:83,1,116.999996429443,10|0,3:2|3:0,0:0:0:0:
288,153,11383,2,0,L|349:142,2,58.4999982147217,0|0|0,3:0|3:0|3:0,0:0:0:0:
236,377,12508,6,0,B|206:327|206:327|218:258,1,116.999996429443,10|0,3:2|3:0,0:0:0:0:
288,153,13383,2,0,L|277:92,2,58.4999982147217,0|0|0,3:0|3:0|3:0,0:0:0:0:
512,205,14508,6,0,B|462:235|462:235|393:223,1,116.999996429443,10|0,3:2|3:0,0:0:0:0:
288,153,15383,2,0,L|227:164,2,58.4999982147217,0|0|0,3:0|3:0|3:0,0:0:0:0:
236,377,16508,6,0,B|206:327|206:327|218:258,1,116.999996429443,10|0,3:2|3:0,0:0:0:0:
278,96,17508,1,0,0:0:0:0:
278,96,18008,1,8,1:2:0:0:
294,186,18258,1,0,1:0:0:0:
222,242,18508,6,0,P|276:276|339:265,1,130,4|0,3:2|1:0,0:0:0:0:
340,85,19508,2,0,P|307:84|277:97,1,65,2|8,0:0|0:0,0:0:0:0:
326,174,20008,2,0,P|359:175|389:162,1,65,2|8,1:2|0:0,0:0:0:0:
444,234,20508,2,0,P|478:180|467:117,1,130,10|0,0:2|1:0,0:0:0:0:
287,116,21508,2,0,P|286:149|299:179,1,65,2|8,0:0|0:0,0:0:0:0:
376,130,22008,2,0,P|377:97|364:67,1,65,2|8,1:2|0:0,0:0:0:0:
468,80,22508,6,0,L|500:80,2,32.5,10|2|10,0:0|0:0|0:0,0:0:0:0:
483,170,23008,2,0,P|474:200|452:230,1,65,10|10,1:2|0:0,0:0:0:0:
416,251,23383,1,0,0:0:0:0:
367,174,23633,1,2,0:0:0:0:
286,219,23883,1,0,3:0:0:0:
290,223,24008,2,0,L|226:223,1,65,2|8,1:2|0:0,0:0:0:0:
147,176,24508,2,0,P|134:239|166:294,1,130,8|0,0:0|1:0,0:0:0:0:
150,384,25258,2,0,P|183:385|213:372,2,65,10|0|10,0:0|1:0|0:0,0:0:0:0:
75,332,26008,2,0,L|43:332,2,32.5,0|0|0,1:0|1:0|1:0,0:0:0:0:
101,245,26508,6,0,B|63:192|63:192|81:128,1,130,4|0,1:2|1:0,0:0:0:0:
262,129,27508,2,0,L|262:197,1,65,2|8,0:0|0:0,0:0:0:0:
353,194,28008,2,0,L|353:126,1,65,2|8,1:2|0:0,0:0:0:0:
423,71,28508,2,0,B|461:124|461:124|443:188,1,130,10|0,0:2|1:0,0:0:0:0:
288,283,29508,2,0,L|356:283,1,65,2|8,0:0|0:0,0:0:0:0:
353,374,30008,2,0,L|285:374,1,65,2|8,1:2|0:0,0:0:0:0:
209,329,30508,6,0,L|171:329,2,32.5,10|2|10,0:0|0:0|0:0,0:0:0:0:
194,239,31008,2,0,P|203:209|225:179,1,65,10|10,1:2|0:0,0:0:0:0:
261,158,31383,1,0,0:0:0:0:
222,76,31633,1,2,0:0:0:0:
132,42,31883,1,0,3:0:0:0:
136,46,32008,2,0,L|72:46,1,65,2|8,1:2|0:0,0:0:0:0:
3,107,32508,5,10,0:0:0:0:
36,192,32758,1,8,0:0:0:0:
3,277,33008,1,0,1:0:0:0:
36,362,33258,1,8,0:0:0:0:
121,329,33508,1,0,1:0:0:0:
121,329,38508,22,0,P|107:267|139:212,1,130,4|2,0:0|0:0,0:0:0:0:
219,169,39258,2,0,L|197:39,1,130
282,6,40008,1,2,0:0:0:0:
386,156,40508,2,0,B|402:252|402:252|385:279,1,130,2|0,0:0|0:0,0:0:0:0:
224,194,41508,2,0,B|208:98|208:98|225:71,1,130,0|2,0:0|0:0,0:0:0:0:
399,14,42508,6,0,P|413:76|381:131,1,130,2|2,0:0|0:0,0:0:0:0:
301,174,43258,2,0,L|323:304,1,130,0|2,0:0|0:0,0:0:0:0:
238,337,44008,1,2,0:0:0:0:
136,185,44508,2,0,P|122:247|154:302,1,130,2|0,0:0|0:0,0:0:0:0:
238,337,45258,2,0,L|368:315,1,130
435,255,46008,1,2,0:0:0:0:
461,76,46508,6,0,P|399:62|344:94,1,130,2|2,0:0|0:0,0:0:0:0:
301,174,47258,2,0,L|171:152,1,130,0|2,0:0|0:0,0:0:0:0:
138,237,48008,1,2,0:0:0:0:
290,339,48508,6,0,P|260:352|228:353,1,65,0|10,0:0|0:0,0:0:0:0:
186,335,48883,1,10,0:0:0:0:
241,262,49133,1,10,0:0:0:0:
372,300,49508,1,0,0:0:0:0:
449,251,49758,1,0,0:0:0:0:
400,174,50008,1,0,0:0:0:0:
477,125,50258,1,0,0:0:0:0:
477,125,52508,6,0,P|477:90|465:57,1,71.5000021820069,8|2,0:0|0:0,0:0:0:0:
430,25,52883,1,0,0:0:0:0:
385,33,53008,2,0,L|313:33,1,71.5000021820069,0|8,1:0|2:3,0:0:0:0:
273,56,53383,1,8,0:1:0:0:
291,146,53633,2,0,P|256:146|223:134,1,71.5000021820069,0|0,3:0|3:0,0:0:0:0:
177,144,54008,2,0,L|177:216,1,71.5000021820069,0|0,1:0|3:0,0:0:0:0:
110,278,54508,6,0,P|110:313|122:346,1,71.5000021820069,8|10,2:3|0:0,0:0:0:0:
208,380,55008,2,0,L|280:380,1,71.5000021820069,0|0,1:0|0:0,0:0:0:0:
320,357,55383,1,8,2:1:0:0:
302,267,55633,2,0,P|337:267|370:279,1,71.5000021820069
416,269,56008,2,0,L|416:197,1,71.5000021820069,0|0,1:0|3:0,0:0:0:0:
349,135,56508,6,0,P|314:135|281:123,1,71.5000021820069,8|2,0:0|0:0,0:0:0:0:
250,87,56883,1,0,0:0:0:0:
222,51,57008,2,0,L|151:51,1,71.5000021820069,0|8,1:0|0:3,0:0:0:0:
67,13,57508,2,0,B|17:31|17:31|38:89,1,107.25000327301,0|0,3:2|3:2,0:0:0:0:
58,122,58008,2,0,L|58:202,1,71.5000021820069,0|8,1:0|0:1,0:0:0:0:
58,286,58508,5,8,0:0:0:0:
121,352,58758,1,10,0:0:0:0:
204,315,59008,2,0,P|239:315|272:327,1,71.5000021820069,0|0,1:0|0:0,0:0:0:0:
333,258,59508,2,0,B|383:276|383:276|362:334,1,107.25000327301,0|0,3:0|0:0,0:0:0:0:
370,372,60008,2,0,L|406:385,2,35.7500010910034,0|0|8,1:0|3:0|3:0,0:0:0:0:
279,384,60508,6,0,P|244:384|211:372,1,71.5000021820069,12|2,0:0|0:0,0:0:0:0:
179,338,60883,1,0,0:0:0:0:
169,293,61008,2,0,L|169:221,1,71.5000021820069,0|8,1:0|2:3,0:0:0:0:
169,175,61383,1,8,0:1:0:0:
151,85,61633,2,0,P|186:85|219:97,1,71.5000021820069,0|0,3:0|3:0,0:0:0:0:
250,132,62008,2,0,L|322:132,1,71.5000021820069,0|0,1:0|3:0,0:0:0:0:
398,183,62508,6,0,P|398:218|386:251,1,71.5000021820069,8|10,2:3|0:0,0:0:0:0:
351,283,62883,1,0,0:0:0:0:
306,275,63008,2,0,L|234:275,1,71.5000021820069,0|0,1:0|0:0,0:0:0:0:
194,252,63383,1,0,0:0:0:0:
104,270,63633,2,0,P|104:235|116:202,1,71.5000021820069,8|0,2:1|0:0,0:0:0:0:
151,171,64008,2,0,L|151:99,1,71.5000021820069,0|0,1:0|3:0,0:0:0:0:
86,35,64508,6,0,P|51:35|18:47,1,71.5000021820069,8|2,0:0|0:0,0:0:0:0:
0,89,64883,1,0,0:0:0:0:
7,134,65008,2,0,L|24:204,1,71.5000021820069,0|8,1:0|0:3,0:0:0:0:
101,153,65508,2,0,B|151:171|151:171|130:229,1,107.25000327301,0|0,3:2|3:2,0:0:0:0:
101,255,66008,2,0,B|74:281|74:281|61:311,1,71.5000021820069,0|8,1:0|2:1,0:0:0:0:
137,363,66508,6,0,P|172:363|205:351,1,71.5000021820069,8|10,0:0|0:0,0:0:0:0:
237,316,66883,1,0,0:0:0:0:
229,271,67008,2,0,L|229:199,1,71.5000021820069,0|0,1:0|0:0,0:0:0:0:
285,127,67508,2,0,P|320:127|353:139,1,71.5000021820069,0|0,3:0|0:0,0:0:0:0:
385,174,67883,1,0,0:0:0:0:
377,219,68008,2,0,L|377:254,2,35.7500010910034,0|0|8,1:0|3:0|3:0,0:0:0:0:
468,211,68508,6,0,P|502:157|491:94,1,130,4|0,3:2|1:0,0:0:0:0:
320,33,69508,2,0,P|287:32|257:45,1,65,2|8,0:0|0:0,0:0:0:0:
168,29,70008,2,0,P|167:62|180:92,1,65,2|8,1:2|0:0,0:0:0:0:
224,171,70508,2,0,P|170:137|107:148,1,130,10|0,0:2|1:0,0:0:0:0:
253,257,71508,2,0,P|286:258|316:245,1,65,2|8,0:0|0:0,0:0:0:0:
405,261,72008,2,0,P|406:228|393:198,1,65,2|8,1:2|0:0,0:0:0:0:
331,133,72508,6,0,L|331:101,2,32.5,10|2|10,0:0|0:0|0:0,0:0:0:0:
241,118,73008,2,0,P|211:127|181:149,1,65,10|10,1:2|0:0,0:0:0:0:
160,185,73383,1,0,0:0:0:0:
237,234,73633,1,2,0:0:0:0:
184,307,73883,1,0,3:0:0:0:
188,311,74008,2,0,L|123:311,1,65,2|8,1:2|0:0,0:0:0:0:
43,268,74508,2,0,P|30:205|62:150,1,130,8|0,0:0|1:0,0:0:0:0:
108,71,75258,2,0,P|74:58|46:60,2,65,8|2|8,0:0|1:2|0:0,0:0:0:0:
153,150,76008,2,0,L|153:183,2,32.5,2|2|0,1:2|1:2|1:0,0:0:0:0:
240,124,76508,6,0,B|293:162|293:162|357:144,1,130,4|0,1:2|1:0,0:0:0:0:
258,298,77508,2,0,L|205:260,1,65,2|8,0:0|0:0,0:0:0:0:
152,334,78008,2,0,L|205:372,1,65,2|8,1:2|0:0,0:0:0:0:
296,381,78508,2,0,B|300:316|300:316|356:279,1,130,10|0,0:2|1:0,0:0:0:0:
255,128,79508,2,0,L|200:164,1,65,2|8,0:0|0:0,0:0:0:0:
150,87,80008,2,0,L|205:51,1,65,2|8,1:2|0:0,0:0:0:0:
296,47,80508,6,0,L|296:15,2,32.5,10|2|10,0:0|0:0|0:0,0:0:0:0:
386,32,81008,2,0,P|416:41|446:63,1,65,10|10,1:2|0:0,0:0:0:0:
467,99,81383,1,0,0:0:0:0:
390,148,81633,1,2,0:0:0:0:
439,225,81883,1,0,3:0:0:0:
443,229,82008,2,0,L|480:286,1,65,2|8,1:2|0:0,0:0:0:0:
443,368,82508,5,8,0:0:0:0:
352,368,82758,1,10,0:0:0:0:
323,281,83008,1,0,1:0:0:0:
232,281,83258,1,8,0:0:0:0:
206,368,83508,1,0,1:0:0:0:
206,368,92508,6,0,L|113:275,1,130,8|0,3:2|3:0,0:0:0:0:
243,147,93508,2,0,L|336:240,1,130,0|2,0:0|3:2,0:0:0:0:
206,368,94508,2,0,L|76:368,1,130,8|0,3:2|3:0,0:0:0:0:
76,186,95508,2,0,L|206:186,1,130,0|2,3:0|3:2,0:0:0:0:
335,57,96508,6,0,L|428:150,1,130,0|0,3:0|3:0,0:0:0:0:
298,278,97508,2,0,L|205:185,1,130,0|2,3:0|3:2,0:0:0:0:
335,57,98508,2,0,L|465:57,1,130,0|0,3:0|3:0,0:0:0:0:
465,239,99508,1,0,3:0:0:0:
465,239,102508,6,0,P|465:274|453:307,1,71.5000021820069,8|2,0:0|0:0,0:0:0:0:
418,339,102883,1,0,0:0:0:0:
373,331,103008,2,0,L|301:331,1,71.5000021820069,0|8,1:0|2:3,0:0:0:0:
261,308,103383,1,8,0:1:0:0:
279,218,103633,2,0,P|244:218|211:230,1,71.5000021820069,0|0,3:0|3:0,0:0:0:0:
165,220,104008,2,0,L|165:148,1,71.5000021820069,0|0,1:0|3:0,0:0:0:0:
82,108,104508,6,0,P|82:73|94:40,1,71.5000021820069,8|10,2:3|0:0,0:0:0:0:
180,6,105008,2,0,L|252:6,1,71.5000021820069,0|0,1:0|0:0,0:0:0:0:
292,29,105383,1,8,2:1:0:0:
333,111,105633,2,0,P|368:111|401:99,1,71.5000021820069
447,109,106008,2,0,L|447:181,1,71.5000021820069,0|0,1:0|3:0,0:0:0:0:
381,244,106508,6,0,P|346:244|313:232,1,71.5000021820069,8|2,0:0|0:0,0:0:0:0:
282,196,106883,1,0,0:0:0:0:
237,205,107008,2,0,L|166:205,1,71.5000021820069,0|8,1:0|0:3,0:0:0:0:
82,167,107508,2,0,B|32:185|32:185|53:243,1,107.25000327301,0|0,3:2|3:2,0:0:0:0:
62,280,108008,2,0,L|62:360,1,71.5000021820069,0|0,1:0|0:3,0:0:0:0:
152,370,108508,5,8,0:0:0:0:
213,302,108758,1,10,0:0:0:0:
303,320,109008,2,0,P|303:285|291:252,1,71.5000021820069,0|0,1:0|0:0,0:0:0:0:
360,191,109508,2,0,B|342:141|342:141|284:162,1,107.25000327301,0|0,3:0|0:0,0:0:0:0:
254,132,110008,2,0,L|254:97,2,35.7500010910034,0|0|8,1:0|3:0|3:0,0:0:0:0:
208,212,110508,6,0,P|173:212|140:200,1,71.5000021820069,8|2,0:0|0:0,0:0:0:0:
108,165,110883,1,0,0:0:0:0:
116,120,111008,2,0,L|116:48,1,71.5000021820069,0|8,1:0|2:3,0:0:0:0:
139,8,111383,1,8,0:1:0:0:
210,66,111633,2,0,P|245:66|278:54,1,71.5000021820069,0|0,3:0|3:0,0:0:0:0:
309,19,112008,2,0,L|381:19,1,71.5000021820069,0|0,1:0|3:0,0:0:0:0:
439,90,112508,6,0,P|439:125|427:158,1,71.5000021820069,8|10,2:3|0:0,0:0:0:0:
392,190,112883,1,0,0:0:0:0:
347,182,113008,2,0,L|275:182,1,71.5000021820069,0|0,1:0|0:0,0:0:0:0:
235,159,113383,1,8,2:1:0:0:
160,212,113633,2,0,P|160:247|172:280,1,71.5000021820069
205,313,114008,2,0,L|256:364,1,71.5000021820069,0|0,1:0|3:0,0:0:0:0:
345,384,114508,6,0,P|380:384|413:372,1,71.5000021820069,8|2,0:0|0:0,0:0:0:0:
431,329,114883,1,0,0:0:0:0:
411,288,115008,2,0,L|411:217,1,71.5000021820069,0|8,1:0|0:3,0:0:0:0:
432,127,115508,2,0,B|482:109|482:109|461:51,1,107.25000327301,0|0,3:2|3:2,0:0:0:0:
448,15,116008,2,0,L|368:15,1,71.5000021820069,0|0,1:0|0:3,0:0:0:0:
294,56,116508,6,0,P|259:56|226:68,1,71.5000021820069,8|10,0:0|0:0,0:0:0:0:
194,103,116883,1,0,0:0:0:0:
202,148,117008,2,0,L|202:220,1,71.5000021820069,0|0,1:0|0:0,0:0:0:0:
146,292,117508,2,0,P|111:292|78:280,1,71.5000021820069,0|0,3:0|0:0,0:0:0:0:
46,245,117883,1,0,0:0:0:0:
35,201,118008,2,0,L|0:201,2,35.7500010910034,0|0|8,1:0|3:0|3:0,0:0:0:0:
77,120,118508,6,0,P|131:86|194:97,1,130,4|0,3:2|1:0,0:0:0:0:
195,277,119508,2,0,P|162:278|132:265,1,65,2|8,0:0|0:0,0:0:0:0:
181,188,120008,2,0,P|214:187|244:200,1,65,2|8,1:2|0:0,0:0:0:0:
299,128,120508,2,0,P|333:182|322:245,1,130,10|0,0:2|1:0,0:0:0:0:
142,246,121508,2,0,P|141:213|154:183,1,65,2|8,0:0|0:0,0:0:0:0:
231,232,122008,2,0,P|232:265|219:295,1,65,2|8,1:2|0:0,0:0:0:0:
323,282,122508,6,0,L|355:282,2,32.5,10|2|10,0:0|0:0|0:0,0:0:0:0:
338,192,123008,2,0,P|329:162|307:132,1,65,10|10,1:2|0:0,0:0:0:0:
271,111,123383,1,0,0:0:0:0:
222,188,123633,1,2,0:0:0:0:
145,130,123883,1,0,3:0:0:0:
149,134,124008,2,0,L|84:134,1,65,2|8,1:2|0:0,0:0:0:0:
2,174,124508,2,0,P|-11:237|21:292,1,130,8|0,0:0|1:0,0:0:0:0:
67,371,125258,2,0,P|33:384|5:382,2,65,8|2|8,0:0|1:2|0:0,0:0:0:0:
112,292,126008,2,0,L|112:259,2,32.5,2|2|0,1:2|1:2|1:0,0:0:0:0:
199,318,126508,6,0,B|252:280|252:280|316:298,1,130,4|0,1:2|1:0,0:0:0:0:
217,144,127508,2,0,L|164:182,1,65,2|8,0:0|0:0,0:0:0:0:
111,108,128008,2,0,L|164:70,1,65,2|8,1:2|0:0,0:0:0:0:
255,61,128508,2,0,B|308:23|308:23|372:41,1,130,10|0,0:2|1:0,0:0:0:0:
440,208,129508,2,0,L|440:276,1,65,2|8,0:0|0:0,0:0:0:0:
349,273,130008,2,0,L|349:205,1,65,2|8,1:2|0:0,0:0:0:0:
292,137,130508,6,0,L|292:105,2,32.5,10|2|10,0:0|0:0|0:0,0:0:0:0:
202,122,131008,2,0,P|172:131|142:153,1,65,10|10,1:2|0:0,0:0:0:0:
121,189,131383,1,0,0:0:0:0:
198,238,131633,1,2,0:0:0:0:
141,315,131883,1,0,3:0:0:0:
145,319,132008,2,0,L|78:319,1,65,2|8,1:2|0:0,0:0:0:0:
43,236,132508,5,8,0:0:0:0:
121,189,132758,1,10,0:0:0:0:
74,111,133008,1,0,1:0:0:0:
152,64,133258,1,8,0:0:0:0:
231,108,133508,2,0,L|231:207,2,97.5,0|0|0,1:0|2:2|1:3,0:0:0:0:
311,64,134508,6,0,P|346:64|379:76,1,71.5000021820069,10|0,0:0|0:0,0:0:0:0:
425,66,134883,2,0,P|449:90|464:122,1,71.5000021820069,10|0,0:0|0:0,0:0:0:0:
504,148,135258,2,0,L|504:257,2,107.25000327301,14|10|0,0:0|1:2|0:2,0:0:0:0:
345,239,136508,2,0,P|310:239|277:227,1,71.5000021820069,10|2,0:0|0:0,0:0:0:0:
231,237,136883,2,0,P|207:213|192:181,1,71.5000021820069,10|2,0:0|0:0,0:0:0:0:
152,155,137258,2,0,L|152:46,2,107.25000327301,14|10|0,0:0|1:2|0:0,0:0:0:0:
191,334,138508,6,0,P|226:334|259:322,1,71.5000021820069,10|0,0:0|0:0,0:0:0:0:
305,332,138883,2,0,P|329:308|344:276,1,71.5000021820069,10|0,0:0|0:0,0:0:0:0:
384,250,139258,2,0,L|384:142,2,107.25000327301,14|10|0,0:0|1:2|0:0,0:0:0:0:
225,159,140508,2,0,P|190:159|157:171,1,71.5000021820069,10|2,0:0|0:0,0:0:0:0:
111,161,140883,2,0,P|87:185|72:217,1,71.5000021820069,10|2,0:0|0:0,0:0:0:0:
91,260,141258,2,0,B|142:301|142:301|91:341,1,130,14|0,0:0|0:0,0:0:0:0:
