osu file format v14

[General]
AudioFilename: audio.mp3
AudioLeadIn: 0
PreviewTime: 52008
Countdown: 0
SampleSet: Soft
StackLeniency: 0.5
Mode: 0
LetterboxInBreaks: 0
WidescreenStoryboard: 1

[Editor]
Bookmarks: 2508,18508,34508,68508,84508,92508,102508,118508,134508,141258
DistanceSpacing: 0.8
BeatDivisor: 4
GridSize: 8
TimelineZoom: 2.6

[Metadata]
Title:Karada wa Shoujiki datte Ittenno
TitleUnicode:身体は正直だって言ってんの
Artist:Shikiura.
ArtistUnicode:式浦。
Creator:seros
Version:-45's Expert
Source:
Tags:Just Saying, The Body Is Honest. japanese pop jpop j-pop vocaloid 歌愛ユキ Kaai Yuki ROTUS. papapa213 papapa pigeons zengsb hakusui3820 hakusui_sama hakusui sama alevi brain exe raijodo -45 ttmnzk TT Mouse
BeatmapID:3752950
BeatmapSetID:1767411

[Difficulty]
HPDrainRate:7
CircleSize:4
OverallDifficulty:9
ApproachRate:9.3
SliderMultiplier:2.5
SliderTickRate:1

[Events]
//Background and Video events
0,0,"bg.jpg",0,0
Video,-144,"video.mp4"
//Break Periods
2,83958,89954
//Storyboard Layer 0 (Background)
//Storyboard Layer 1 (Fail)
//Storyboard Layer 2 (Pass)
//Storyboard Layer 3 (Foreground)
//Storyboard Layer 4 (Overlay)
//Storyboard Sound Samples
Sample,2508,0,"SBK/20.wav",40
Sample,3008,0,"SBK/20.wav",40
Sample,3383,0,"SBK/21.wav",60
Sample,3633,0,"SBK/21.wav",60
Sample,3883,0,"SBK/21.wav",60
Sample,4508,0,"SBK/22.wav",60
Sample,5008,0,"SBK/22.wav",60
Sample,5383,0,"SBK/23.wav",60
Sample,5633,0,"SBK/23.wav",60
Sample,5883,0,"SBK/24.wav",60
Sample,6508,0,"SBK/25.wav",60
Sample,7008,0,"SBK/25.wav",60
Sample,7383,0,"SBK/26.wav",60
Sample,7633,0,"SBK/26.wav",60
Sample,7883,0,"SBK/26.wav",60
Sample,8508,0,"SBK/27.wav",60
Sample,9008,0,"SBK/28.wav",60
Sample,9383,0,"SBK/29.wav",60
Sample,9633,0,"SBK/29.wav",60
Sample,9883,0,"SBK/29.wav",60
Sample,10508,0,"SBK/20.wav",60
Sample,11008,0,"SBK/20.wav",60
Sample,11383,0,"SBK/21.wav",60
Sample,11633,0,"SBK/21.wav",60
Sample,11883,0,"SBK/21.wav",60
Sample,12508,0,"SBK/22.wav",60
Sample,13008,0,"SBK/22.wav",60
Sample,13383,0,"SBK/23.wav",60
Sample,13633,0,"SBK/23.wav",60
Sample,13883,0,"SBK/24.wav",60
Sample,14508,0,"SBK/25.wav",60
Sample,15008,0,"SBK/25.wav",60
Sample,15383,0,"SBK/26.wav",60
Sample,15633,0,"SBK/26.wav",60
Sample,15883,0,"SBK/26.wav",60
Sample,16508,0,"SBK/27.wav",60
Sample,17008,0,"SBK/28.wav",60
Sample,17383,0,"SBK/29.wav",60
Sample,18508,0,"SBK/20.wav",60
Sample,19008,0,"SBK/20.wav",60
Sample,19383,0,"SBK/21.wav",60
Sample,19633,0,"SBK/21.wav",60
Sample,19883,0,"SBK/21.wav",60
Sample,20508,0,"SBK/22.wav",60
Sample,21008,0,"SBK/22.wav",60
Sample,21383,0,"SBK/23.wav",60
Sample,21633,0,"SBK/23.wav",60
Sample,21883,0,"SBK/24.wav",60
Sample,22508,0,"SBK/25.wav",60
Sample,23008,0,"SBK/25.wav",60
Sample,23383,0,"SBK/26.wav",60
Sample,23633,0,"SBK/26.wav",60
Sample,23883,0,"SBK/26.wav",60
Sample,24508,0,"SBK/27.wav",60
Sample,25008,0,"SBK/28.wav",60
Sample,25383,0,"SBK/29.wav",60
Sample,25633,0,"SBK/29.wav",60
Sample,25883,0,"SBK/29.wav",60
Sample,26508,0,"SBK/20.wav",60
Sample,27008,0,"SBK/20.wav",60
Sample,27383,0,"SBK/21.wav",60
Sample,27633,0,"SBK/21.wav",60
Sample,27883,0,"SBK/21.wav",60
Sample,28508,0,"SBK/22.wav",60
Sample,29008,0,"SBK/22.wav",60
Sample,29383,0,"SBK/23.wav",60
Sample,29633,0,"SBK/23.wav",60
Sample,29883,0,"SBK/24.wav",60
Sample,30508,0,"SBK/25.wav",60
Sample,31008,0,"SBK/25.wav",60
Sample,31383,0,"SBK/26.wav",60
Sample,31633,0,"SBK/26.wav",60
Sample,31883,0,"SBK/26.wav",60
Sample,32508,0,"SBK/27.wav",60
Sample,33008,0,"SBK/28.wav",60
Sample,33383,0,"SBK/29.wav",60
Sample,68508,0,"SBK/20.wav",60
Sample,69008,0,"SBK/20.wav",60
Sample,69383,0,"SBK/21.wav",60
Sample,69633,0,"SBK/21.wav",60
Sample,69883,0,"SBK/21.wav",60
Sample,70508,0,"SBK/22.wav",60
Sample,71008,0,"SBK/22.wav",60
Sample,71383,0,"SBK/23.wav",60
Sample,71633,0,"SBK/23.wav",60
Sample,71883,0,"SBK/24.wav",60
Sample,72508,0,"SBK/25.wav",60
Sample,73008,0,"SBK/25.wav",60
Sample,73383,0,"SBK/26.wav",60
Sample,73633,0,"SBK/26.wav",60
Sample,73883,0,"SBK/26.wav",60
Sample,74508,0,"SBK/27.wav",60
Sample,75008,0,"SBK/28.wav",60
Sample,75383,0,"SBK/29.wav",60
Sample,75633,0,"SBK/29.wav",60
Sample,75883,0,"SBK/29.wav",60
Sample,76508,0,"SBK/20.wav",60
Sample,77008,0,"SBK/20.wav",60
Sample,77383,0,"SBK/21.wav",60
Sample,77633,0,"SBK/21.wav",60
Sample,77883,0,"SBK/21.wav",60
Sample,78508,0,"SBK/22.wav",60
Sample,79008,0,"SBK/22.wav",60
Sample,79383,0,"SBK/23.wav",60
Sample,79633,0,"SBK/23.wav",60
Sample,79883,0,"SBK/24.wav",60
Sample,80508,0,"SBK/25.wav",60
Sample,81008,0,"SBK/25.wav",60
Sample,81383,0,"SBK/26.wav",60
Sample,81633,0,"SBK/26.wav",60
Sample,81883,0,"SBK/26.wav",60
Sample,82508,0,"SBK/27.wav",60
Sample,83008,0,"SBK/28.wav",60
Sample,118508,0,"SBK/40.wav",60
Sample,119008,0,"SBK/40.wav",60
Sample,119383,0,"SBK/41.wav",60
Sample,119633,0,"SBK/41.wav",60
Sample,119883,0,"SBK/41.wav",60
Sample,120508,0,"SBK/42.wav",60
Sample,121008,0,"SBK/42.wav",60
Sample,121383,0,"SBK/43.wav",60
Sample,121633,0,"SBK/43.wav",60
Sample,121883,0,"SBK/44.wav",60
Sample,122508,0,"SBK/45.wav",60
Sample,123008,0,"SBK/45.wav",60
Sample,123383,0,"SBK/46.wav",60
Sample,123633,0,"SBK/46.wav",60
Sample,123883,0,"SBK/46.wav",60
Sample,124508,0,"SBK/47.wav",60
Sample,125008,0,"SBK/48.wav",60
Sample,125383,0,"SBK/49.wav",60
Sample,125633,0,"SBK/49.wav",60
Sample,125883,0,"SBK/49.wav",60
Sample,126508,0,"SBK/40.wav",60
Sample,127008,0,"SBK/40.wav",60
Sample,127383,0,"SBK/41.wav",60
Sample,127633,0,"SBK/41.wav",60
Sample,127883,0,"SBK/41.wav",60
Sample,128508,0,"SBK/42.wav",60
Sample,129008,0,"SBK/42.wav",60
Sample,129383,0,"SBK/43.wav",60
Sample,129633,0,"SBK/43.wav",60
Sample,129883,0,"SBK/44.wav",60
Sample,130508,0,"SBK/45.wav",60
Sample,131008,0,"SBK/45.wav",60
Sample,131383,0,"SBK/46.wav",60
Sample,131633,0,"SBK/46.wav",60
Sample,131883,0,"SBK/46.wav",60
Sample,132508,0,"SBK/47.wav",60
Sample,133008,0,"SBK/48.wav",60
Sample,133383,0,"SBK/49.wav",60
Sample,133633,0,"SBK/49.wav",60
Sample,133883,0,"SBK/49.wav",60

[TimingPoints]
478,508.474576271186,4,2,1,50,1,0
2508,500,4,2,1,50,1,0
17508,-133.333333333333,4,2,1,50,0,0
18008,-133.333333333333,4,2,2,50,0,0
18133,-133.333333333333,4,2,2,55,0,0
18258,-133.333333333333,4,2,2,60,0,0
18383,-133.333333333333,4,2,2,65,0,0
18508,-76.9230769230769,4,2,2,70,0,0
18758,-76.9230769230769,4,2,1,70,0,0
18883,-76.9230769230769,4,2,2,70,0,0
20758,-76.9230769230769,4,2,1,70,0,0
20883,-76.9230769230769,4,2,2,70,0,0
22758,-76.9230769230769,4,2,1,70,0,0
22883,-76.9230769230769,4,2,2,70,0,0
23258,-76.9230769230769,4,2,1,70,0,0
23383,-76.9230769230769,4,2,2,70,0,0
23758,-76.9230769230769,4,2,1,70,0,0
23883,-76.9230769230769,4,2,2,70,0,0
24758,-76.9230769230769,4,2,1,70,0,0
24883,-76.9230769230769,4,2,2,70,0,0
25258,-76.9230769230769,4,2,1,70,0,0
25383,-76.9230769230769,4,2,2,70,0,0
25508,-76.9230769230769,4,2,3,70,0,0
25633,-76.9230769230769,4,2,2,70,0,0
25758,-76.9230769230769,4,2,1,70,0,0
25883,-76.9230769230769,4,2,2,70,0,0
26008,-76.9230769230769,4,2,3,70,0,0
26133,-76.9230769230769,4,2,2,70,0,0
26258,-76.9230769230769,4,2,3,70,0,0
26383,-76.9230769230769,4,2,2,70,0,0
26758,-76.9230769230769,4,2,1,70,0,0
26883,-76.9230769230769,4,2,2,70,0,0
28758,-76.9230769230769,4,2,1,70,0,0
28883,-76.9230769230769,4,2,2,70,0,0
30758,-76.9230769230769,4,2,1,70,0,0
30883,-76.9230769230769,4,2,2,70,0,0
31258,-76.9230769230769,4,2,1,70,0,0
31383,-76.9230769230769,4,2,2,70,0,0
31758,-76.9230769230769,4,2,1,70,0,0
31883,-76.9230769230769,4,2,2,70,0,0
32508,-76.9230769230769,4,2,1,70,0,0
32633,-76.9230769230769,4,2,2,70,0,0
33508,-76.9230769230769,4,2,3,50,0,0
34508,-76.9230769230769,4,2,4,60,0,0
34758,-76.9230769230769,4,2,4,45,0,0
35133,-76.9230769230769,4,2,4,60,0,0
37508,-200,4,2,4,60,0,0
38008,-200,4,2,2,60,0,0
38508,-200,4,2,4,60,0,0
43820,-200,4,2,4,35,0,0
44008,-200,4,2,4,60,0,0
47820,-200,4,2,4,35,0,0
48008,-200,4,2,4,60,0,0
49508,-133.333333333333,4,2,4,60,0,0
49758,-100,4,2,4,60,0,0
50008,-80,4,2,4,60,0,0
50258,-66.6666666666667,4,2,4,60,0,0
50508,-1000,4,2,2,60,0,0
52508,-66.6666666666667,4,2,10,80,0,0
68508,-66.6666666666667,4,2,2,70,0,0
68758,-66.6666666666667,4,2,1,70,0,0
68883,-66.6666666666667,4,2,2,70,0,0
69008,-76.9230769230769,4,2,2,70,0,0
70758,-76.9230769230769,4,2,1,70,0,0
70883,-76.9230769230769,4,2,2,70,0,0
72758,-76.9230769230769,4,2,1,70,0,0
72883,-76.9230769230769,4,2,2,70,0,0
73258,-76.9230769230769,4,2,1,70,0,0
73383,-76.9230769230769,4,2,2,70,0,0
73758,-76.9230769230769,4,2,1,70,0,0
73883,-76.9230769230769,4,2,2,70,0,0
74758,-76.9230769230769,4,2,1,70,0,0
74883,-76.9230769230769,4,2,2,70,0,0
75508,-76.9230769230769,4,2,3,70,0,0
75633,-76.9230769230769,4,2,2,70,0,0
76008,-76.9230769230769,4,2,3,70,0,0
76133,-76.9230769230769,4,2,2,70,0,0
76258,-76.9230769230769,4,2,3,70,0,0
76383,-76.9230769230769,4,2,2,70,0,0
76758,-76.9230769230769,4,2,1,70,0,0
76883,-76.9230769230769,4,2,2,70,0,0
78758,-76.9230769230769,4,2,1,70,0,0
78883,-76.9230769230769,4,2,2,70,0,0
80758,-76.9230769230769,4,2,1,70,0,0
80883,-76.9230769230769,4,2,2,70,0,0
81258,-76.9230769230769,4,2,1,70,0,0
81383,-76.9230769230769,4,2,2,70,0,0
81758,-76.9230769230769,4,2,1,70,0,0
81883,-76.9230769230769,4,2,2,70,0,0
82758,-76.9230769230769,4,2,1,70,0,0
82883,-76.9230769230769,4,2,2,70,0,0
83508,-76.9230769230769,4,2,3,50,0,0
83633,-76.9230769230769,4,2,2,50,0,0
83883,-76.9230769230769,4,2,2,5,0,0
84508,-76.9230769230769,4,2,2,40,0,0
90508,-76.9230769230769,4,2,2,45,0,0
92508,-76.9230769230769,4,2,4,60,0,0
95070,-76.9230769230769,4,2,4,5,0,0
95133,-76.9230769230769,4,2,4,60,0,0
95195,-76.9230769230769,4,2,4,5,0,0
95258,-76.9230769230769,4,2,4,60,0,0
95320,-76.9230769230769,4,2,4,5,0,0
95383,-76.9230769230769,4,2,4,60,0,0
97383,-133.333333333333,4,2,4,60,0,0
98508,-76.9230769230769,4,2,4,60,0,0
99508,-200,4,2,4,60,0,0
100008,-200,4,2,4,60,0,0
100508,-200,4,2,2,60,0,0
101758,-1000,4,2,2,60,0,0
102508,-66.6666666666667,4,2,10,80,0,0
118508,-66.6666666666667,4,2,2,70,0,0
118758,-66.6666666666667,4,2,1,70,0,0
118883,-66.6666666666667,4,2,2,70,0,0
120758,-66.6666666666667,4,2,1,70,0,0
120883,-66.6666666666667,4,2,2,70,0,0
122758,-66.6666666666667,4,2,1,70,0,0
122883,-66.6666666666667,4,2,2,70,0,0
123258,-66.6666666666667,4,2,1,70,0,0
123383,-66.6666666666667,4,2,2,70,0,0
123758,-66.6666666666667,4,2,1,70,0,0
123883,-66.6666666666667,4,2,2,70,0,0
124758,-66.6666666666667,4,2,1,70,0,0
124883,-66.6666666666667,4,2,2,70,0,0
125508,-66.6666666666667,4,2,3,70,0,0
125633,-66.6666666666667,4,2,2,70,0,0
126008,-66.6666666666667,4,2,3,70,0,0
126133,-66.6666666666667,4,2,2,70,0,0
126258,-66.6666666666667,4,2,3,70,0,0
126383,-66.6666666666667,4,2,2,70,0,0
126758,-66.6666666666667,4,2,1,70,0,0
126883,-66.6666666666667,4,2,2,70,0,0
128758,-66.6666666666667,4,2,1,70,0,0
128883,-66.6666666666667,4,2,2,70,0,0
130758,-66.6666666666667,4,2,1,70,0,0
130883,-66.6666666666667,4,2,2,70,0,0
131258,-66.6666666666667,4,2,1,70,0,0
131383,-66.6666666666667,4,2,2,70,0,0
132758,-66.6666666666667,4,2,1,70,0,0
132883,-66.6666666666667,4,2,2,70,0,0
133508,-66.6666666666667,4,2,3,70,0,0
133883,-66.6666666666667,4,2,10,70,0,0
134008,-66.6666666666667,4,2,3,70,0,0
134133,-66.6666666666667,4,2,2,70,0,0
134508,-50,4,2,2,80,0,0
136008,-50,4,2,4,80,0,0
136508,-50,4,2,2,80,0,0
138008,-50,4,2,4,80,0,0
138508,-50,4,2,2,80,0,0
140008,-50,4,2,4,80,0,0
140508,-50,4,2,2,80,0,0
141258,-133.333333333333,4,2,2,80,0,0
141758,-133.333333333333,4,2,4,15,0,0

[Colours]
Combo1 : 182,199,218
Combo2 : 154,154,186

[HitObjects]
142,151,2508,6,0,P|117:153|81:167,1,62.5,10|0,3:2|0:0,0:0:0:0:
9,169,2758,1,0,0:0:0:0:
9,169,2883,1,0,3:0:0:0:
9,169,3008,2,0,B|83:177|53:228|147:239,1,125,0|0,3:0|0:0,0:0:0:0:
126,313,3383,6,0,P|166:300|184:261,1,62.5,0|0,3:0|0:0,0:0:0:0:
255,312,3633,6,0,P|263:270|238:235,1,62.5,0|0,3:0|0:0,0:0:0:0:
318,199,3883,5,0,3:0:0:0:
305,182,4008,1,0,3:0:0:0:
288,171,4133,1,0,0:0:0:0:
267,168,4258,1,0,3:0:0:0:
340,272,4383,5,0,1:2:0:0:
415,290,4508,2,0,P|451:298|484:331,1,62.5,10|0,3:2|0:0,0:0:0:0:
287,328,4758,1,8,0:2:0:0:
287,328,4883,1,0,3:0:0:0:
287,328,5008,2,0,B|216:334|241:368|171:378,1,125,0|0,3:0|0:0,0:0:0:0:
168,298,5383,6,0,L|158:229,1,62.5,0|0,3:0|0:0,0:0:0:0:
76,209,5633,6,0,L|66:140,1,62.5,0|0,3:0|0:0,0:0:0:0:
52,53,5883,5,0,3:0:0:0:
134,84,6008,5,0,3:0:0:0:
136,33,6133,1,0,0:0:0:0:
216,115,6258,5,0,3:0:0:0:
220,13,6383,1,0,1:0:0:0:
313,171,6508,6,0,P|250:189|172:221,1,125,10|0,3:2|0:0,0:0:0:0:
151,278,6883,1,0,3:0:0:0:
138,289,7008,2,0,P|87:280|66:280,1,62.5,0|0,3:0|0:0,0:0:0:0:
113,207,7258,1,0,0:0:0:0:
236,287,7383,6,0,L|216:362,1,62.5,0|0,3:0|0:0,0:0:0:0:
319,277,7633,6,0,L|299:352,1,62.5,0|0,3:0|0:0,0:0:0:0:
402,267,7883,6,0,L|382:342,1,62.5,0|0,3:0|3:0,0:0:0:0:
469,361,8133,5,0,0:0:0:0:
480,365,8258,1,0,3:0:0:0:
478,353,8383,1,0,1:0:0:0:
486,237,8508,6,0,P|438:197|338:184,1,125,10|8,3:2|0:0,0:0:0:0:
256,68,8883,5,0,3:0:0:0:
176,117,9008,1,0,3:0:0:0:
256,165,9133,1,0,0:0:0:0:
337,117,9258,1,0,0:0:0:0:
206,228,9383,6,0,P|189:257|159:300,1,62.5,0|0,3:0|0:0,0:0:0:0:
338,281,9633,2,0,P|320:255|306:228,1,62.5,0|0,3:0|0:0,0:0:0:0:
224,368,9883,2,0,P|255:366|287:367,1,62.5,0|0,3:0|3:0,0:0:0:0:
262,294,10133,5,0,0:0:0:0:
262,294,10258,1,0,3:0:0:0:
262,294,10383,1,0,1:0:0:0:
203,356,10508,6,0,B|133:350|164:392|56:377,1,125,10|0,3:2|0:0,0:0:0:0:
66,371,10883,1,0,3:0:0:0:
309,356,11008,6,0,B|379:350|348:392|456:377,1,125,0|0,3:0|0:0,0:0:0:0:
471,317,11383,6,0,P|438:304|396:309,1,62.5,0|0,3:0|0:0,0:0:0:0:
416,295,11633,2,0,P|447:295|475:307,1,62.5,0|0,3:0|0:0,0:0:0:0:
372,217,11883,5,0,3:0:0:0:
350,230,12008,1,0,3:0:0:0:
337,251,12133,1,0,0:0:0:0:
331,275,12258,1,0,3:0:0:0:
454,219,12383,5,0,1:0:0:0:
415,153,12508,2,0,L|424:9,1,125,10|8,3:2|0:0,0:0:0:0:
338,145,12883,1,0,3:0:0:0:
338,145,13008,2,0,L|343:50,1,62.5,0|0,3:0|0:0,0:0:0:0:
260,134,13258,1,0,0:0:0:0:
189,81,13383,6,0,P|138:87|107:117,1,62.5,0|0,3:0|0:0,0:0:0:0:
102,169,13633,6,0,P|70:209|69:252,1,62.5,0|0,3:0|0:0,0:0:0:0:
150,283,13883,5,0,3:0:0:0:
147,259,14008,5,0,3:0:0:0:
153,307,14133,1,0,0:0:0:0:
144,235,14258,5,0,3:0:0:0:
156,331,14383,1,0,1:0:0:0:
67,218,14508,6,0,P|79:190|102:169,1,62.5,10|0,3:2|0:0,0:0:0:0:
129,92,14758,5,0,0:0:0:0:
153,89,14883,5,0,3:0:0:0:
105,95,15008,1,0,3:0:0:0:
177,86,15133,5,0,0:0:0:0:
81,98,15258,1,0,0:0:0:0:
232,17,15383,6,0,P|271:39|280:89,1,62.5,0|0,3:0|0:0,0:0:0:0:
366,69,15633,6,0,P|378:112|349:153,1,62.5,0|0,3:0|0:0,0:0:0:0:
423,200,15883,6,0,P|401:239|351:248,1,62.5,0|0,3:0|3:0,0:0:0:0:
469,361,16133,5,0,0:0:0:0:
480,365,16258,1,0,3:2:0:0:
478,353,16383,1,0,1:0:0:0:
366,325,16508,6,0,P|312:332|245:384,1,125,10|8,3:2|0:0,0:0:0:0:
242,376,16883,1,0,3:0:0:0:
164,357,17008,2,0,P|140:343|114:289,1,62.5,0|0,3:0|0:0,0:0:0:0:
0,183,17258,5,0,0:0:0:0:
6,178,17383,1,0,3:0:0:0:
8,184,17508,2,0,B|83:175|72:234|163:228,1,140.625005364418,0|0,0:0|3:0,0:0:0:0:
193,285,18008,5,8,1:2:0:0:
228,129,18133,1,8,0:2:0:0:
153,148,18258,5,0,1:0:0:0:
269,258,18383,1,0,1:0:0:0:
291,181,18508,6,0,P|308:137|341:86,1,81.2499962806703,4|0,3:2|0:0,0:0:0:0:
264,58,18758,1,2,0:0:0:0:
261,41,18883,1,0,0:0:0:0:
335,93,19008,6,0,P|352:137|410:244,1,162.499992561341,0|0,1:0|0:0,0:0:0:0:
257,327,19383,5,8,0:2:0:0:
257,327,19633,1,8,0:0:0:0:
179,211,19758,1,8,0:0:0:0:
122,340,19883,1,0,3:0:0:0:
253,244,20008,1,2,1:2:0:0:
113,261,20133,1,0,0:0:0:0:
191,371,20258,1,8,0:0:0:0:
187,289,20383,1,0,0:0:0:0:
191,371,20508,5,10,0:2:0:0:
113,261,20633,1,0,0:0:0:0:
253,244,20758,1,2,0:0:0:0:
187,289,20883,1,0,0:0:0:0:
253,216,21008,6,0,L|431:249,1,162.499992561341,0|0,1:0|0:0,0:0:0:0:
254,128,21383,6,0,L|144:144,1,81.2499962806703,8|2,0:0|0:0,0:0:0:0:
96,152,21633,2,0,L|-14:168,2,81.2499962806703,8|8|0,0:0|0:0|3:0,0:0:0:0:
317,65,22008,5,2,1:2:0:0:
381,128,22133,1,8,0:0:0:0:
318,191,22258,1,8,0:0:0:0:
254,128,22383,1,8,0:0:0:0:
318,201,22508,5,10,0:0:0:0:
391,128,22633,1,2,0:0:0:0:
316,54,22758,1,10,0:0:0:0:
243,128,22883,1,0,0:0:0:0:
315,43,23008,5,10,1:2:0:0:
401,128,23133,1,2,0:0:0:0:
318,212,23258,2,0,P|271:213|221:218,1,81.2499962806703,10|0,0:0|0:0,0:0:0:0:
171,172,23508,5,10,0:0:0:0:
85,258,23633,1,2,0:0:0:0:
168,342,23758,2,0,P|215:343|265:348,1,81.2499962806703,10|0,0:0|3:0,0:0:0:0:
167,252,24008,5,2,1:2:0:0:
83,381,24133,1,2,0:2:0:0:
3,248,24258,2,0,P|7:208|3:161,1,81.2499962806703,8|0,0:0|0:0,0:0:0:0:
91,21,24508,5,8,0:0:0:0:
91,21,24758,1,10,0:0:0:0:
4,140,24883,1,8,0:0:0:0:
145,95,25008,1,0,1:0:0:0:
4,49,25133,1,0,0:0:0:0:
91,169,25258,1,10,0:0:0:0:
69,93,25383,1,8,0:0:0:0:
57,246,25508,6,0,P|99:254|150:230,1,81.2499962806703,0|0,1:0|1:0,0:0:0:0:
455,138,25758,2,0,P|413:130|362:154,1,81.2499962806703,10|8,0:0|0:0,0:0:0:0:
234,141,26008,5,0,1:0:0:0:
278,243,26133,1,0,1:0:0:0:
279,75,26258,1,0,1:0:0:0:
233,309,26383,1,0,1:0:0:0:
256,1,26508,5,4,1:2:0:0:
260,384,26758,5,2,0:0:0:0:
260,384,26883,1,0,0:0:0:0:
321,328,27008,2,0,L|514:356,1,162.499992561341,0|0,1:0|0:0,0:0:0:0:
335,252,27383,6,0,P|289:253|263:274,1,81.2499962806703,8|2,0:2|0:0,0:0:0:0:
259,264,27633,2,0,P|292:240|332:242,1,81.2499962806703,8|8,0:0|0:0,0:0:0:0:
401,313,27883,5,0,3:0:0:0:
421,237,28008,2,0,L|452:57,1,162.499992561341,2|8,1:2|0:0,0:0:0:0:
256,7,28383,5,0,0:0:0:0:
197,56,28508,2,0,P|191:134|307:133,1,162.499992561341,10|2,0:2|0:0,0:0:0:0:
267,154,28883,1,0,0:0:0:0:
175,134,29008,2,0,P|138:139|96:184,1,81.2499962806703,0|0,1:0|0:0,0:0:0:0:
27,152,29258,1,0,0:0:0:0:
46,230,29383,6,0,L|63:329,1,81.2499962806703,8|2,0:0|0:0,0:0:0:0:
71,310,29633,2,0,L|58:230,2,81.2499962806703,8|8|0,0:0|0:0|3:0,0:0:0:0:
256,350,30008,5,2,1:2:0:0:
347,258,30133,1,8,0:0:0:0:
256,166,30258,1,8,0:0:0:0:
164,258,30383,1,8,0:0:0:0:
236,238,30508,5,10,0:0:0:0:
275,238,30633,1,2,0:0:0:0:
275,277,30758,1,10,0:0:0:0:
236,277,30883,1,0,0:0:0:0:
256,350,31008,5,10,1:2:0:0:
347,258,31133,1,2,0:0:0:0:
256,166,31258,1,10,0:0:0:0:
164,258,31383,1,0,0:0:0:0:
236,238,31508,5,10,0:0:0:0:
275,238,31633,1,2,0:0:0:0:
275,277,31758,1,10,0:0:0:0:
236,277,31883,1,0,3:0:0:0:
256,350,32008,5,2,1:2:0:0:
347,258,32133,1,2,0:0:0:0:
256,166,32258,1,8,0:0:0:0:
164,258,32383,1,0,0:0:0:0:
1,189,32508,5,10,0:0:0:0:
1,189,32758,1,8,0:0:0:0:
79,168,32883,2,0,L|173:183,1,81.2499962806703,8|0,0:0|1:0,0:0:0:0:
164,258,33133,1,0,0:0:0:0:
86,279,33258,2,0,L|-8:264,1,81.2499962806703,8|8,0:0|0:0,0:0:0:0:
256,32,33508,5,0,1:0:0:0:
256,32,34508,5,8,2:2:0:0:
266,39,34758,1,2,0:0:0:0:
326,88,34883,1,2,0:0:0:0:
328,166,35008,1,2,0:0:0:0:
271,220,35133,1,2,0:0:0:0:
260,222,35383,1,8,0:0:0:0:
248,223,35633,1,10,0:0:0:0:
204,289,35758,1,0,0:0:0:0:
258,348,35883,1,0,0:0:0:0:
319,295,36008,5,8,0:0:0:0:
332,267,36133,1,0,0:0:0:0:
171,218,36258,5,10,0:0:0:0:
158,190,36383,1,0,0:0:0:0:
256,93,36508,5,8,0:2:0:0:
299,160,36633,1,0,0:0:0:0:
339,90,36758,1,2,0:0:0:0:
382,157,36883,1,2,0:0:0:0:
442,50,37008,5,0,0:0:0:0:
448,39,37258,1,0,0:0:0:0:
509,89,37383,1,2,0:0:0:0:
506,191,37508,6,0,L|492:233,1,31.25,2|0,0:0|0:0,0:0:0:0:
484,216,37758,2,0,L|493:186,1,31.25,8|0,0:2|0:0,0:0:0:0:
479,365,38008,5,0,0:0:0:0:
353,371,38133,5,0,0:0:0:0:
232,319,38258,5,0,0:0:0:0:
186,171,38383,5,0,0:0:0:0:
256,32,38508,5,4,0:0:0:0:
266,39,38758,1,0,0:0:0:0:
326,88,38883,1,8,3:2:0:0:
328,166,39008,1,2,0:0:0:0:
271,220,39133,1,0,0:0:0:0:
260,222,39383,1,2,0:0:0:0:
248,223,39633,1,2,0:0:0:0:
204,289,39758,1,0,0:0:0:0:
258,348,39883,1,0,0:0:0:0:
319,295,40008,5,2,0:0:0:0:
332,267,40133,1,2,0:0:0:0:
171,218,40258,5,2,0:0:0:0:
158,190,40383,1,0,0:0:0:0:
256,32,40508,5,2,0:0:0:0:
265,26,40758,1,2,0:0:0:0:
342,15,40883,1,2,3:2:0:0:
412,47,41008,1,0,0:0:0:0:
431,122,41133,1,0,0:0:0:0:
492,185,41258,5,0,0:0:0:0:
396,205,41383,1,0,0:0:0:0:
495,198,41508,1,0,0:0:0:0:
399,218,41633,1,0,0:0:0:0:
498,211,41758,1,0,3:0:0:0:
402,231,41883,1,0,0:0:0:0:
503,327,42008,6,0,L|489:369,1,31.25,2|0,0:0|0:0,0:0:0:0:
481,352,42258,2,0,L|490:322,1,31.25,2|0,0:0|0:0,0:0:0:0:
256,352,42508,5,2,0:0:0:0:
243,343,42758,1,2,0:0:0:0:
168,320,42883,1,0,3:0:0:0:
93,344,43008,1,2,0:0:0:0:
22,310,43133,1,2,0:0:0:0:
18,300,43383,1,2,0:0:0:0:
14,290,43633,1,2,0:0:0:0:
0,212,43758,2,0,L|10:186,3,15.625,2|2|2|2,0:0|0:0|0:0|0:0,0:0:0:0:
71,148,44007,5,2,0:0:0:0:
106,163,44133,1,0,0:0:0:0:
180,217,44258,5,2,0:0:0:0:
215,202,44384,1,0,0:0:0:0:
299,141,44508,5,2,0:0:0:0:
325,234,44633,1,0,0:0:0:0:
324,133,44758,1,2,0:0:0:0:
350,226,44883,1,2,3:2:0:0:
420,84,45008,5,0,0:0:0:0:
361,32,45133,1,2,0:0:0:0:
282,32,45258,1,0,0:0:0:0:
230,93,45383,1,2,0:0:0:0:
226,105,45633,1,2,0:0:0:0:
172,160,45758,1,0,0:0:0:0:
93,157,45883,1,2,0:0:0:0:
33,99,46008,6,0,L|15:58,1,31.25,2|0,0:0|0:0,0:0:0:0:
32,68,46258,2,0,L|44:96,1,31.25,2|0,0:0|0:0,0:0:0:0:
0,187,46508,5,2,0:0:0:0:
10,181,46758,1,2,0:0:0:0:
80,221,46883,1,0,3:0:0:0:
94,300,47008,1,2,0:0:0:0:
44,363,47133,1,2,0:0:0:0:
34,358,47383,1,2,0:0:0:0:
24,353,47633,1,2,0:0:0:0:
8,277,47758,2,0,L|19:253,3,15.625,2|2|2|2,0:0|0:0|0:0|0:0,0:0:0:0:
80,221,48008,5,2,0:0:0:0:
156,245,48133,1,0,0:0:0:0:
251,185,48258,5,2,0:0:0:0:
347,159,48383,1,0,0:0:0:0:
493,200,48508,5,0,0:0:0:0:
493,200,48758,1,10,0:0:0:0:
493,200,48883,1,10,0:0:0:0:
493,200,49133,1,10,0:0:0:0:
493,200,49508,6,0,P|473:232|442:250,1,46.8750017881394
419,310,49758,6,0,P|381:308|350:290,1,62.5
252,326,50008,6,0,P|232:289|232:250,1,78.125
117,195,50258,6,0,P|144:150|188:125,1,93.7500035762788
254,16,50508,6,0,L|257:44,2,25,8|8|8,0:0|0:0|0:0,0:0:0:0:
254,16,51633,1,0,0:0:0:0:
254,16,51758,1,0,0:0:0:0:
500,191,52508,6,0,B|461:287|317:241|317:241,1,187.500007152558,8|2,0:0|0:0,0:0:0:0:
208,217,52883,1,0,0:0:0:0:
271,175,53008,2,0,P|318:187|319:266,1,93.7500035762788,0|0,1:0|0:0,0:0:0:0:
256,331,53258,1,8,2:3:0:0:
177,361,53383,6,0,P|150:373|103:320,1,93.7500035762788,8|0,0:1|0:0,0:0:0:0:
335,361,53633,2,0,P|362:373|409:320,1,93.7500035762788,0|0,3:0|3:0,0:0:0:0:
500,191,53883,5,0,3:0:0:0:
419,143,54008,1,0,1:0:0:0:
346,202,54133,1,8,2:1:0:0:
425,250,54258,1,0,3:0:0:0:
402,196,54383,1,8,2:3:0:0:
287,132,54508,5,8,2:3:0:0:
272,257,54633,1,0,0:0:0:0:
206,125,54758,1,10,0:0:0:0:
191,250,54883,1,0,0:0:0:0:
103,114,55008,6,0,B|59:94|95:14|192:16|240:67,1,187.500007152558,0|0,1:0|0:0,0:0:0:0:
287,132,55383,6,0,P|317:142|358:89,1,93.7500035762788,8|0,2:1|0:0,0:0:0:0:
191,250,55633,2,0,P|160:239|119:292,2,93.7500035762788
259,317,56008,5,0,1:0:0:0:
286,227,56133,1,0,3:0:0:0:
338,322,56258,1,0,3:0:0:0:
365,232,56383,1,8,3:3:0:0:
191,250,56508,5,8,0:0:0:0:
173,129,56633,1,0,0:0:0:0:
110,257,56758,1,2,0:0:0:0:
92,136,56883,1,0,0:0:0:0:
279,209,57008,5,0,1:0:0:0:
311,58,57133,1,0,0:0:0:0:
362,214,57258,1,8,0:3:0:0:
394,63,57383,1,8,0:1:0:0:
457,208,57508,5,0,3:2:0:0:
442,281,57633,1,0,3:2:0:0:
376,317,57758,1,0,3:2:0:0:
303,297,57883,1,0,3:2:0:0:
211,312,58008,5,0,1:0:0:0:
164,305,58133,1,0,2:0:0:0:
120,323,58258,1,8,0:1:0:0:
102,366,58383,1,0,0:0:0:0:
260,382,58508,6,0,P|259:321|243:163,1,187.500007152558,8|10,0:0|0:0,0:0:0:0:
317,156,58883,1,0,0:0:0:0:
317,156,59008,2,0,P|304:128|225:136,1,93.7500035762788,0|8,1:0|2:1,0:0:0:0:
179,76,59258,1,0,0:0:0:0:
113,121,59383,1,0,0:0:0:0:
34,95,59508,5,0,3:0:0:0:
33,258,59633,1,8,3:1:0:0:
196,259,59758,1,0,0:0:0:0:
196,180,59883,1,0,0:0:0:0:
129,218,60008,5,0,1:0:0:0:
248,315,60133,1,0,3:0:0:0:
264,218,60258,5,8,3:0:0:0:
145,315,60383,1,8,1:1:0:0:
281,226,60508,6,0,B|379:206|366:317|448:315,1,187.500007152558,12|2,0:0|0:0,0:0:0:0:
445,330,60883,1,0,0:0:0:0:
452,243,61008,2,0,P|461:207|490:138,1,93.7500035762788,0|0,1:0|0:0,0:0:0:0:
475,136,61258,1,8,2:3:0:0:
480,55,61383,6,0,P|429:61|405:127,1,93.7500035762788,8|0,0:1|0:0,0:0:0:0:
167,117,61633,2,0,P|218:111|242:45,1,93.7500035762788,0|0,3:0|3:0,0:0:0:0:
332,84,61883,5,0,3:0:0:0:
316,75,62008,1,0,1:0:0:0:
316,94,62133,1,8,2:1:0:0:
280,166,62258,6,0,P|339:174|372:154,1,93.7500035762788,0|8,3:0|2:3,0:0:0:0:
225,224,62508,6,0,P|121:233|11:268,1,187.500007152558,8|10,2:3|0:0,0:0:0:0:
27,245,62883,1,0,0:0:0:0:
234,299,63008,6,0,P|291:272|296:220,1,93.7500035762788,0|0,1:0|0:0,0:0:0:0:
315,242,63258,1,0,0:0:0:0:
206,64,63383,6,0,L|99:82,1,93.7500035762788
398,79,63633,2,0,L|306:64,2,93.7500035762788,8|0|0,2:1|0:0|0:0,0:0:0:0:
426,168,64008,5,0,1:0:0:0:
503,189,64133,1,0,3:0:0:0:
426,168,64258,1,0,3:0:0:0:
503,189,64383,1,8,3:3:0:0:
253,240,64508,5,8,0:0:0:0:
351,229,64633,1,0,0:0:0:0:
253,240,64758,1,2,0:0:0:0:
351,229,64883,1,0,0:0:0:0:
63,157,65008,5,0,1:0:0:0:
190,176,65133,1,0,0:0:0:0:
63,157,65258,1,8,0:3:0:0:
190,176,65383,1,8,0:1:0:0:
15,78,65508,5,0,3:2:0:0:
18,152,65633,1,0,3:2:0:0:
20,226,65758,1,0,3:2:0:0:
21,300,65883,1,0,3:2:0:0:
97,384,66008,5,0,1:0:0:0:
108,338,66133,1,0,2:1:0:0:
122,293,66258,1,8,2:1:0:0:
134,247,66383,1,0,0:0:0:0:
190,176,66508,6,0,B|306:167|255:245|391:232,1,187.500007152558,8|10,0:0|0:0,0:0:0:0:
388,310,66883,1,0,0:0:0:0:
388,310,67008,2,0,P|430:285|434:223,1,93.7500035762788,0|0,1:0|0:0,0:0:0:0:
378,82,67258,5,0,0:0:0:0:
409,170,67383,1,0,0:0:0:0:
447,106,67508,1,0,3:0:0:0:
339,145,67633,1,0,3:0:0:0:
483,172,67758,5,0,0:0:0:0:
434,34,67883,1,0,0:0:0:0:
296,83,68008,1,0,1:0:0:0:
345,221,68133,1,0,3:0:0:0:
396,129,68258,5,8,3:0:0:0:
396,129,68383,1,8,1:1:0:0:
327,218,68508,6,0,B|219:215|266:313|159:343,1,187.500007152558,4|2,3:2|0:0,0:0:0:0:
185,345,68883,1,0,0:0:0:0:
322,298,69008,2,0,P|359:310|423:335,1,81.2499962806703,0|0,1:0|0:0,0:0:0:0:
405,341,69258,1,0,0:0:0:0:
400,205,69383,6,0,P|349:201|315:241,1,81.2499962806703,8|2,0:2|0:0,0:0:0:0:
185,166,69633,2,0,P|151:186|112:179,2,81.2499962806703,8|8|0,0:0|0:0|3:0,0:0:0:0:
271,105,70008,5,2,1:2:0:0:
241,279,70133,1,0,0:0:0:0:
292,144,70258,1,8,0:0:0:0:
220,240,70383,1,0,0:0:0:0:
326,217,70508,6,0,P|360:197|400:205,1,81.2499962806703,10|0,0:2|0:0,0:0:0:0:
461,160,70758,1,2,0:0:0:0:
472,176,70883,1,0,0:0:0:0:
466,256,71008,2,0,P|482:296|453:340,1,81.2499962806703,0|0,1:0|0:0,0:0:0:0:
256,338,71258,5,0,0:0:0:0:
184,313,71383,2,0,B|144:307|149:348|88:354,1,81.2499962806703,8|2,0:0|0:0,0:0:0:0:
328,313,71633,2,0,B|368:307|363:348|424:354,2,81.2499962806703,8|8|0,0:0|0:0|3:0,0:0:0:0:
251,154,72008,5,2,1:2:0:0:
191,104,72133,1,8,0:0:0:0:
121,139,72258,1,8,0:0:0:0:
181,189,72383,1,8,0:0:0:0:
261,164,72508,5,10,0:0:0:0:
330,129,72633,1,2,0:0:0:0:
390,179,72758,1,10,0:0:0:0:
320,214,72883,1,0,0:0:0:0:
251,154,73008,5,10,1:2:0:0:
179,93,73133,1,2,0:0:0:0:
94,135,73258,1,10,0:0:0:0:
166,196,73383,1,0,0:0:0:0:
261,164,73508,5,10,0:0:0:0:
344,121,73633,1,2,0:0:0:0:
416,182,73758,1,10,0:0:0:0:
332,224,73883,1,0,3:0:0:0:
243,262,74008,5,2,1:2:0:0:
268,55,74133,1,2,0:2:0:0:
243,262,74258,1,8,0:0:0:0:
268,55,74383,1,0,0:0:0:0:
161,281,74508,6,0,B|86:281|117:356|-5:362,1,162.499992561341,8|10,0:0|0:0,0:0:0:0:
16,284,74883,1,8,0:0:0:0:
16,265,75008,1,0,1:0:0:0:
31,274,75133,1,0,0:0:0:0:
163,364,75258,5,8,0:0:0:0:
163,364,75383,1,8,0:0:0:0:
240,330,75508,5,2,1:2:0:0:
246,372,75633,1,0,1:0:0:0:
321,298,75758,5,8,0:0:0:0:
329,377,75883,1,8,0:0:0:0:
412,382,76008,5,2,1:2:0:0:
407,324,76133,1,2,1:2:0:0:
402,266,76258,1,0,1:0:0:0:
397,208,76383,1,0,1:0:0:0:
464,143,76508,6,0,B|416:124|374:164|403:168|354:211|295:181,1,162.499992561341,4|2,1:2|0:0,0:0:0:0:
278,255,76883,1,0,0:0:0:0:
278,255,77008,2,0,P|248:231|246:167,1,81.2499962806703,0|0,1:0|0:0,0:0:0:0:
256,50,77258,5,0,0:0:0:0:
329,20,77383,2,0,B|366:12|352:39|410:62,1,81.2499962806703,8|2,0:2|0:0,0:0:0:0:
183,20,77633,2,0,B|146:12|160:39|102:62,2,81.2499962806703,8|8|0,0:0|0:0|3:0,0:0:0:0:
37,54,78008,1,2,1:2:0:0:
23,39,78133,1,0,0:0:0:0:
77,122,78258,2,0,P|82:139|64:212,1,81.2499962806703,8|0,0:0|0:0,0:0:0:0:
0,273,78508,6,0,P|43:234|152:264,1,162.499992561341,10|2,0:2|0:0,0:0:0:0:
201,199,78883,1,0,0:0:0:0:
201,199,79008,2,0,P|259:194|289:146,1,81.2499962806703,0|0,1:0|0:0,0:0:0:0:
512,191,79258,5,0,0:0:0:0:
495,280,79383,2,0,B|460:302|460:302|478:257,1,81.2499962806703,8|2,0:0|0:0,0:0:0:0:
474,117,79633,2,0,B|460:81|460:81|495:104,2,81.2499962806703,8|8|0,0:0|0:0|3:0,0:0:0:0:
424,182,80008,5,2,1:2:0:0:
379,247,80133,1,8,0:0:0:0:
301,237,80258,1,8,0:0:0:0:
288,226,80383,1,8,0:0:0:0:
163,51,80508,5,10,0:0:0:0:
242,57,80633,1,2,0:0:0:0:
272,129,80758,1,10,0:0:0:0:
269,146,80883,1,0,0:0:0:0:
180,342,81008,5,10,1:2:0:0:
146,270,81133,1,2,0:0:0:0:
193,208,81258,1,10,0:0:0:0:
210,202,81383,1,0,0:0:0:0:
346,170,81508,5,10,0:0:0:0:
228,281,81633,1,2,0:0:0:0:
190,123,81758,1,10,0:0:0:0:
256,192,81883,1,0,3:0:0:0:
164,212,82008,5,2,1:2:0:0:
320,258,82133,1,2,0:0:0:0:
282,100,82258,1,8,0:0:0:0:
256,192,82383,1,0,0:0:0:0:
346,170,82508,6,0,P|392:159|415:117,1,81.2499962806703,8|0,0:0|0:0,0:0:0:0:
485,163,82758,1,10,0:0:0:0:
492,133,82883,1,8,0:0:0:0:
459,251,83008,6,0,P|413:262|390:304,1,81.2499962806703,0|0,1:0|0:0,0:0:0:0:
320,258,83258,1,8,0:0:0:0:
313,288,83383,1,8,0:0:0:0:
256,192,83508,6,0,B|270:169|256:154|256:154|241:169|256:192,2,81.2499962806703,0|0|0,1:0|0:0|0:0,0:0:0:0:
0,192,90508,5,8,3:2:0:0:
101,192,91008,5,8,3:2:0:0:
202,192,91508,5,8,0:2:0:0:
304,192,91758,5,8,0:2:0:0:
405,192,92008,5,8,0:2:0:0:
506,192,92258,5,8,0:2:0:0:
312,59,92508,6,0,B|304:33|283:34|283:34|285:55|312:59,1,81.2499962806703,8|0,3:2|0:0,0:0:0:0:
320,136,92758,2,0,B|301:155|312:172|312:172|330:160|320:136,1,81.2499962806703
382,91,93008,2,0,B|407:97|417:78|417:78|398:69|382:91,1,81.2499962806703,0|0,3:0|0:0,0:0:0:0:
341,96,93258,5,2,0:0:0:0:
341,96,93383,1,2,0:0:0:0:
150,134,93633,6,0,B|185:136|185:136|190:149|190:149|158:147,2,81.2499962806703,8|0|8,0:0|0:0|0:0,0:0:0:0:
71,137,94008,1,2,3:2:0:0:
71,216,94133,1,2,0:2:0:0:
71,295,94258,1,2,0:0:0:0:
68,302,94320,1,0,0:0:0:0:
65,309,94383,1,0,0:0:0:0:
62,316,94445,1,0,0:0:0:0:
58,323,94508,6,0,B|39:342|50:359|50:359|68:347|58:323,1,81.2499962806703,8|0,3:2|0:0,0:0:0:0:
153,334,94758,2,0,B|134:353|145:370|145:370|163:358|153:334,1,81.2499962806703
221,298,95008,6,0,P|201:274|186:268,1,40.6249981403352,0|0,3:0|0:0,0:0:0:0:
300,260,95133,6,0,L|308:214,1,40.6249981403352
372,309,95258,6,0,P|387:295|415:293,1,40.6249981403352,2|0,0:0|0:0,0:0:0:0:
299,338,95383,6,0,P|304:358|294:336,1,81.2499962806703,10|0,0:0|3:0,0:0:0:0:
373,171,95633,6,0,B|408:173|408:173|413:186|413:186|381:184,2,81.2499962806703,8|0|8,0:0|0:0|0:0,0:0:0:0:
315,116,96008,1,2,3:2:0:0:
254,165,96133,1,2,0:0:0:0:
194,116,96258,1,2,0:0:0:0:
185,115,96320,1,0,0:0:0:0:
176,115,96383,1,0,0:0:0:0:
167,114,96445,1,0,0:0:0:0:
158,113,96508,6,0,B|135:98|120:113|120:113|135:127|158:113,1,81.2499962806703,0|0,3:0|0:0,0:0:0:0:
56,68,96758,2,0,P|42:108|60:156,1,81.2499962806703
69,221,97008,2,0,B|46:225|30:220|30:220|47:235|69:221,1,81.2499962806703,0|0,3:0|0:0,0:0:0:0:
145,198,97258,5,2,0:0:0:0:
145,198,97383,2,0,L|145:269,1,46.8750017881394,2|0,0:0|3:0,0:0:0:0:
223,198,97633,2,0,L|223:269,1,46.8750017881394,8|0,0:0|0:0,0:0:0:0:
301,198,97883,2,0,L|301:269,1,46.8750017881394,8|2,0:0|3:2,0:0:0:0:
302,321,98133,5,2,0:0:0:0:
382,321,98258,1,2,0:0:0:0:
391,320,98320,1,0,0:0:0:0:
400,320,98383,1,0,0:0:0:0:
409,319,98445,1,0,0:0:0:0:
418,318,98508,6,0,B|440:303|455:318|455:318|440:332|418:318,1,81.2499962806703,0|0,3:0|0:0,0:0:0:0:
418,224,98758,2,0,B|440:209|455:224|455:224|440:238|418:224,1,81.2499962806703
418,130,99008,2,0,B|440:115|455:130|455:130|440:144|418:130,1,81.2499962806703,0|0,3:0|0:0,0:0:0:0:
246,208,99258,5,0,0:0:0:0:
274,192,99383,1,0,0:0:0:0:
246,175,99508,1,0,3:0:0:0:
298,266,100008,5,10,0:0:0:0:
298,117,100258,5,10,0:0:0:0:
170,192,100508,5,10,0:0:0:0:
376,191,101008,5,8,0:0:0:0:
376,191,101133,1,0,0:0:0:0:
195,87,101258,5,2,1:2:0:0:
195,87,101383,1,0,0:0:0:0:
142,384,101508,5,8,0:0:0:0:
195,296,101633,1,2,1:2:0:0:
256,201,101758,6,0,L|256:186,1,12.5,10|0,0:0|0:0,0:0:0:0:
2,169,102508,6,0,B|45:136|109:185|73:199|118:245|187:220,1,187.500007152558,8|2,0:0|0:0,0:0:0:0:
195,296,102883,1,0,0:0:0:0:
256,188,103008,2,0,B|286:200|309:132|199:84|152:158,1,187.500007152558,0|8,1:0|2:3,0:0:0:0:
256,188,103383,6,0,P|308:197|314:132,1,93.7500035762788,8|0,0:1|0:0,0:0:0:0:
466,201,103633,2,0,P|414:192|408:257,1,93.7500035762788,0|0,3:0|3:0,0:0:0:0:
324,291,103883,1,0,3:0:0:0:
269,346,104008,5,0,1:0:0:0:
378,346,104133,1,8,2:1:0:0:
378,236,104258,1,0,3:0:0:0:
269,236,104383,1,8,2:3:0:0:
394,221,104508,5,8,2:3:0:0:
394,362,104633,1,0,0:0:0:0:
254,362,104758,1,10,0:0:0:0:
251,220,104883,1,0,0:0:0:0:
324,291,105008,6,0,B|312:311|312:311|241:314|173:331|173:331|152:313,1,187.500007152558,0|0,1:0|0:0,0:0:0:0:
65,247,105383,6,0,B|48:205|48:205|79:155,1,93.7500035762788,8|0,2:1|0:0,0:0:0:0:
447,137,105633,6,0,B|464:179|464:179|438:220,2,93.7500035762788
210,174,106008,5,0,1:0:0:0:
299,207,106133,1,0,3:0:0:0:
210,174,106258,1,0,3:0:0:0:
299,207,106383,1,8,3:3:0:0:
140,213,106508,5,8,0:0:0:0:
372,171,106633,1,0,0:0:0:0:
140,213,106758,1,2,0:0:0:0:
372,171,106883,1,0,0:0:0:0:
231,250,107008,5,0,1:0:0:0:
231,250,107133,1,0,0:0:0:0:
274,130,107258,5,8,0:3:0:0:
274,130,107383,1,8,0:1:0:0:
302,287,107508,5,0,3:2:0:0:
227,297,107633,1,0,3:2:0:0:
152,307,107758,1,0,3:2:0:0:
77,317,107883,1,0,3:2:0:0:
198,364,108008,5,0,1:0:0:0:
236,369,108133,1,8,2:1:0:0:
275,374,108258,1,0,0:3:0:0:
314,379,108383,1,0,0:0:0:0:
406,338,108508,6,0,L|428:139,1,187.500007152558,8|10,0:0|0:0,0:0:0:0:
440,77,108883,1,0,0:0:0:0:
260,215,109008,5,0,1:0:0:0:
334,228,109133,1,0,0:0:0:0:
347,154,109258,1,0,0:0:0:0:
273,141,109383,1,0,0:0:0:0:
267,178,109508,5,0,3:0:0:0:
304,184,109633,1,0,3:0:0:0:
310,147,109758,1,0,0:0:0:0:
273,141,109883,1,0,0:0:0:0:
194,163,110008,5,0,1:0:0:0:
414,203,110133,1,0,3:0:0:0:
322,73,110258,5,8,3:0:0:0:
284,295,110383,1,8,1:1:0:0:
203,313,110508,6,0,B|119:279|128:403|19:379,1,187.500007152558,8|2,0:0|0:0,0:0:0:0:
28,372,110883,1,0,0:0:0:0:
85,306,111008,2,0,P|124:349|130:394,2,93.7500035762788,0|0|8,1:0|0:0|2:3,0:0:0:0:
0,163,111383,6,0,L|111:147,1,93.7500035762788,8|0,0:1|0:0,0:0:0:0:
120,225,111633,2,0,L|231:241,1,93.7500035762788,0|0,3:0|3:0,0:0:0:0:
269,182,111883,1,0,3:0:0:0:
344,163,112008,1,0,1:0:0:0:
406,215,112133,1,8,2:1:0:0:
395,290,112258,1,0,3:0:0:0:
324,326,112383,1,8,2:3:0:0:
373,276,112508,6,0,B|470:250|427:381|513:386,1,187.500007152558,8|10,2:3|0:0,0:0:0:0:
507,370,112883,1,0,0:0:0:0:
484,296,113008,2,0,P|452:311|428:365,2,93.7500035762788,0|0|0,1:0|0:0|0:0,0:0:0:0:
512,163,113383,6,0,L|401:147,1,93.7500035762788,8|0,2:1|0:0,0:0:0:0:
299,238,113633,2,0,L|392:225,2,93.7500035762788
6,147,114008,5,0,1:0:0:0:
28,237,114133,1,0,3:0:0:0:
81,117,114258,1,0,3:0:0:0:
107,268,114383,1,8,3:3:0:0:
169,77,114508,5,8,0:0:0:0:
193,305,114633,1,0,0:0:0:0:
256,110,114758,1,2,0:0:0:0:
270,267,114883,1,0,0:0:0:0:
337,147,115008,5,0,1:0:0:0:
357,248,115133,1,0,0:0:0:0:
413,94,115258,1,8,0:3:0:0:
433,284,115383,1,8,0:1:0:0:
504,193,115508,5,0,3:2:0:0:
435,158,115633,1,0,3:2:0:0:
363,179,115758,1,0,3:2:0:0:
337,249,115883,1,0,3:2:0:0:
256,267,116008,5,0,1:0:0:0:
213,287,116133,1,8,2:1:0:0:
166,279,116258,1,0,0:3:0:0:
133,244,116383,1,0,0:0:0:0:
71,171,116508,6,0,P|108:250|101:373,1,187.500007152558,8|10,0:0|0:0,0:0:0:0:
96,358,116883,1,0,0:0:0:0:
199,210,117008,6,0,P|228:168|323:134,1,93.7500035762788,0|0,1:0|0:0,0:0:0:0:
224,78,117258,1,0,0:0:0:0:
303,81,117383,1,0,0:0:0:0:
386,2,117508,5,0,3:0:0:0:
485,87,117633,1,0,3:0:0:0:
377,173,117758,1,0,0:0:0:0:
406,87,117883,1,0,0:0:0:0:
512,192,118008,5,0,1:0:0:0:
391,304,118133,5,0,3:0:0:0:
257,312,118258,5,8,3:0:0:0:
185,263,118383,5,8,1:1:0:0:
174,240,118508,6,0,B|168:214|183:162|277:119|336:237|222:225|255:196,1,187.500007152558,4|2,3:2|0:0,0:0:0:0:
311,132,118883,1,0,0:0:0:0:
346,195,119008,2,0,P|331:252|284:277,1,93.7500035762788,0|0,1:0|0:0,0:0:0:0:
181,326,119258,5,0,0:0:0:0:
111,289,119383,2,0,L|78:401,1,93.7500035762788,8|2,0:2|0:0,0:0:0:0:
44,250,119633,2,0,L|11:362,2,93.7500035762788,8|8|0,0:0|0:0|3:0,0:0:0:0:
112,105,120008,5,2,1:2:0:0:
188,159,120133,1,0,0:0:0:0:
109,211,120258,1,8,0:0:0:0:
33,157,120383,1,0,0:0:0:0:
198,137,120508,6,0,P|216:238|235:324,1,187.500007152558,10|2,0:2|0:0,0:0:0:0:
224,338,120883,1,0,0:0:0:0:
259,239,121008,2,0,P|276:192|297:145,1,93.7500035762788,0|0,1:0|0:0,0:0:0:0:
331,58,121258,5,0,0:0:0:0:
401,95,121383,2,0,L|434:-17,1,93.7500035762788,8|2,0:0|0:0,0:0:0:0:
468,134,121633,2,0,L|501:22,2,93.7500035762788,8|8|0,0:0|0:0|3:0,0:0:0:0:
494,214,122008,5,2,1:2:0:0:
484,258,122133,1,8,0:0:0:0:
494,214,122258,1,8,0:0:0:0:
484,258,122383,1,8,0:0:0:0:
403,262,122508,5,10,0:0:0:0:
406,308,122633,1,2,0:0:0:0:
443,336,122758,1,10,0:0:0:0:
489,337,122883,1,0,0:0:0:0:
412,186,123008,5,10,1:2:0:0:
397,112,123133,1,2,0:0:0:0:
412,186,123258,1,10,0:0:0:0:
397,112,123383,1,0,0:0:0:0:
494,214,123508,5,10,0:0:0:0:
437,262,123633,1,2,0:0:0:0:
362,255,123758,1,10,0:0:0:0:
327,188,123883,1,0,3:0:0:0:
264,113,124008,5,2,1:2:0:0:
248,271,124133,1,2,0:2:0:0:
264,113,124258,1,8,0:0:0:0:
248,271,124383,1,0,0:0:0:0:
252,28,124508,5,8,0:0:0:0:
252,28,124758,1,10,0:0:0:0:
326,38,124883,1,8,0:0:0:0:
400,46,125008,2,0,B|424:86|424:86|383:136,1,93.7500035762788,0|0,1:0|0:0,0:0:0:0:
148,165,125258,5,8,0:0:0:0:
74,175,125383,1,8,0:0:0:0:
0,183,125508,2,0,B|-24:223|-24:223|17:273,1,93.7500035762788,2|0,1:2|1:0,0:0:0:0:
219,292,125758,5,8,0:0:0:0:
293,292,125883,1,8,0:0:0:0:
255,218,126008,5,2,1:2:0:0:
177,364,126133,1,2,1:2:0:0:
335,364,126258,1,0,1:0:0:0:
256,292,126383,1,0,1:0:0:0:
321,366,126508,6,0,B|376:390|429:374|486:303|429:273|406:307|430:316,1,187.500007152558,4|2,1:2|0:0,0:0:0:0:
482,243,126883,1,0,0:0:0:0:
482,243,127008,2,0,P|436:224|369:252,1,93.7500035762788,0|0,1:0|0:0,0:0:0:0:
255,152,127258,5,0,0:0:0:0:
186,126,127383,2,0,L|161:30,1,93.7500035762788,8|2,0:2|0:0,0:0:0:0:
326,126,127633,2,0,L|351:30,2,93.7500035762788,8|8|0,0:0|0:0|3:0,0:0:0:0:
289,232,128008,5,2,1:2:0:0:
278,246,128133,1,0,0:0:0:0:
257,329,128258,5,8,0:0:0:0:
246,315,128383,1,0,0:0:0:0:
169,296,128508,6,0,P|260:281|393:277,1,187.500007152558,10|2,0:2|0:0,0:0:0:0:
366,256,128883,1,0,0:0:0:0:
424,308,129008,2,0,P|393:346|342:351,1,93.7500035762788,0|0,1:0|0:0,0:0:0:0:
440,193,129258,5,0,0:0:0:0:
402,124,129383,2,0,L|516:95,1,93.7500035762788,8|2,0:0|0:0,0:0:0:0:
325,96,129633,2,0,L|409:13,2,93.7500035762788,8|8|0,0:0|0:0|3:0,0:0:0:0:
176,171,130008,5,2,1:2:0:0:
159,179,130133,1,8,0:0:0:0:
166,196,130258,1,8,0:0:0:0:
184,190,130383,1,8,0:0:0:0:
83,185,130508,5,10,0:0:0:0:
111,253,130633,1,2,0:0:0:0:
184,268,130758,1,10,0:0:0:0:
248,230,130883,1,0,0:0:0:0:
264,154,131008,5,10,1:2:0:0:
328,116,131133,1,2,0:0:0:0:
401,131,131258,1,10,0:0:0:0:
429,199,131383,1,0,0:0:0:0:
336,213,131508,5,10,0:0:0:0:
328,194,131633,1,2,0:0:0:0:
346,188,131758,1,8,0:0:0:0:
353,205,131883,1,0,3:0:0:0:
248,230,132008,5,2,1:2:0:0:
264,154,132133,1,2,0:0:0:0:
301,314,132258,6,0,P|255:319|209:341,1,93.7500035762788,8|0,0:0|0:0,0:0:0:0:
168,301,132508,6,0,B|280:288|236:355|364:333,1,187.500007152558,8|10,0:0|0:0,0:0:0:0:
413,377,132883,1,8,0:0:0:0:
481,339,133008,2,0,P|490:297|486:218,1,93.7500035762788,0|0,1:0|0:0,0:0:0:0:
490,167,133258,1,8,0:0:0:0:
414,169,133383,1,8,0:0:0:0:
339,172,133508,1,0,1:0:0:0:
264,175,133633,1,0,0:0:0:0:
301,244,133758,5,8,0:0:0:0:
375,100,133883,1,0,2:2:0:0:
291,103,134008,5,0,1:0:0:0:
382,240,134133,1,0,1:0:0:0:
453,99,134258,6,0,P|461:71|509:14,1,93.7500035762788,0|0,1:3|1:3,0:0:0:0:
506,239,134508,6,0,P|469:301|272:317,1,250,10|0,0:0|0:0,0:0:0:0:
242,384,134883,2,0,P|204:344|199:265,1,125,10|0,0:0|0:0,0:0:0:0:
120,251,135133,1,0,0:0:0:0:
120,251,135258,2,0,P|143:201|215:168,1,125,14|0,0:0|0:0,0:0:0:0:
190,89,135508,5,0,0:0:0:0:
344,133,135633,1,10,1:2:0:0:
287,187,135758,1,0,0:0:0:0:
268,110,135883,5,0,0:0:0:0:
422,154,136008,1,0,0:2:0:0:
365,208,136133,1,0,0:2:0:0:
403,79,136258,5,0,0:2:0:0:
496,182,136383,1,0,0:2:0:0:
442,271,136508,6,0,P|383:313|196:251,1,250,10|2,0:0|0:0,0:0:0:0:
145,317,136883,2,0,P|125:265|151:190,1,125,10|0,0:0|0:0,0:0:0:0:
75,142,137133,1,2,0:0:0:0:
75,142,137258,2,0,P|116:105|195:103,1,125,14|0,0:0|0:0,0:0:0:0:
264,53,137508,5,0,0:0:0:0:
284,157,137633,1,10,1:2:0:0:
350,51,137758,1,0,0:0:0:0:
370,155,137883,1,0,0:0:0:0:
248,38,138008,5,0,0:0:0:0:
274,172,138133,1,0,0:0:0:0:
359,35,138258,1,0,0:0:0:0:
385,169,138383,1,0,0:0:0:0:
463,197,138508,6,0,P|343:227|201:270,1,250,10|0,0:0|0:0,0:0:0:0:
146,288,138883,2,0,P|86:303|14:324,1,125,10|0,0:0|0:0,0:0:0:0:
25,321,139133,1,0,0:0:0:0:
123,213,139258,2,0,P|63:228|-9:249,1,125,14|0,0:0|0:0,0:0:0:0:
206,339,139508,5,0,0:0:0:0:
221,263,139633,2,0,L|252:3,1,250,10|0,1:2|0:0,0:0:0:0:
198,68,140008,1,0,0:0:0:0:
216,140,140133,1,0,0:0:0:0:
286,165,140258,1,0,0:0:0:0:
352,129,140383,1,0,0:0:0:0:
433,144,140508,6,0,P|474:174|473:268,1,125,10|0,0:0|0:0,0:0:0:0:
404,260,140758,1,2,0:0:0:0:
404,260,140883,2,0,P|398:310|316:356,1,125,10|0,0:0|0:0,0:0:0:0:
217,278,141133,5,2,0:0:0:0:
149,241,141258,2,0,B|259:220|211:299|347:280,1,187.500007152558,14|0,0:0|0:0,0:0:0:0:
