osu file format v14

[General]
AudioFilename: audio.mp3
AudioLeadIn: 0
PreviewTime: 15273
Countdown: 0
SampleSet: Drum
StackLeniency: 0.7
Mode: 3
LetterboxInBreaks: 0
SpecialStyle: 0
WidescreenStoryboard: 1

[Editor]
Bookmarks: 444,13620,15505,23034,30563,38093
DistanceSpacing: 1.1
BeatDivisor: 2
GridSize: 32
TimelineZoom: 2.45

[Metadata]
Title:Flower Melt Umbrella (Extended Edit)
TitleUnicode:フラワーメルト・アンブレラ (Extended Edit)
Artist:Shikiura.
ArtistUnicode:式浦。
Creator:Zembonics
Version:aaa's Hard
Source:
Tags:aaa_321 zyletinee Furawaa Meruto Anburera japanese pop jpop j-pop electronic dance music edm glitch 式浦躁吾 shikiura sougo ボーカロイド v-roid vocaloid3 歌愛ユキ kaai yuki 清楚mol seiso mol LN long note jack
BeatmapID:4433129
BeatmapSetID:2111596

[Difficulty]
HPDrainRate:7.2
CircleSize:4
OverallDifficulty:7.2
ApproachRate:5
SliderMultiplier:1.4
SliderTickRate:1

[Events]
//Background and Video events
0,0,"maxresdefault.jpg",0,0
//Break Periods
//Storyboard Layer 0 (Background)
//Storyboard Layer 1 (Fail)
//Storyboard Layer 2 (Pass)
//Storyboard Layer 3 (Foreground)
//Storyboard Layer 4 (Overlay)
//Storyboard Sound Samples
Sample,15513,0,"C6H_s.wav",35
Sample,15748,0,"B5H_s.wav",35
Sample,15865,0,"G5H_s.wav",35
Sample,16689,0,"F5H_s.wav",35
Sample,16807,0,"E5H_s.wav",35
Sample,17160,0,"F5H_s.wav",35
Sample,18336,0,"E5H_s.wav",35
Sample,19042,0,"C5H_s.wav",35
Sample,20454,0,"D5H_s.wav",35
Sample,20571,0,"C5H_s.wav",35
Sample,20924,0,"C5H_s.wav",35
Sample,21865,0,"C6H_s.wav",35
Sample,23042,0,"C6H_s.wav",35
Sample,23277,0,"B5H_s.wav",35
Sample,23395,0,"G5H_s.wav",35
Sample,24218,0,"F5H_s.wav",35
Sample,24336,0,"E5H_s.wav",35
Sample,24689,0,"F5H_s.wav",35
Sample,25865,0,"E5H_s.wav",35
Sample,26571,0,"C5H_s.wav",35
Sample,27983,0,"D5H_s.wav",35
Sample,28101,0,"C5H_s.wav",35
Sample,28454,0,"F5H_s.wav",35
Sample,30336,0,"G5H_s.wav",35

[TimingPoints]
450,235.294117647059,4,3,1,50,1,0
15513,235.294117647059,4,3,1,50,1,0
30571,-100,4,3,1,50,0,1
38101,-100,4,3,1,50,0,0

[HitObjects]
64,192,450,5,0,0:0:0:50:W.wav
448,192,450,1,0,0:0:0:40:crash.wav
320,192,685,1,0,0:0:0:30:C.wav
320,192,802,1,0,0:0:0:50:W.wav
64,192,920,128,0,1038:0:0:0:0:
192,192,1038,128,0,1155:0:0:0:0:
448,192,1155,128,0,1273:0:0:0:30:C.wav
320,192,1273,128,0,1391:0:0:0:0:
64,192,1391,1,0,0:0:0:50:W.wav
448,192,1391,1,0,0:0:0:0:
192,192,1626,1,0,0:0:0:30:C.wav
192,192,1744,1,0,0:0:0:50:W.wav
448,192,1861,1,0,0:0:0:0:
320,192,1979,1,0,0:0:0:0:
192,192,2097,1,0,0:0:0:30:C.wav
64,192,2175,1,0,0:0:0:0:
320,192,2253,1,0,0:0:0:0:
64,192,2332,1,0,0:0:0:50:W.wav
448,192,2332,1,0,0:0:0:0:
448,192,2567,1,0,0:0:0:30:C.wav
448,192,2685,1,0,0:0:0:50:W.wav
192,192,2802,128,0,2920:0:0:0:0:
64,192,2920,128,0,3038:0:0:0:0:
448,192,3038,128,0,3155:0:0:0:30:C.wav
320,192,3155,128,0,3273:0:0:0:0:
64,192,3273,128,0,3744:0:0:0:50:W.wav
320,192,3508,1,0,0:0:0:30:C.wav
320,192,3626,1,0,0:0:0:50:W.wav
192,192,3744,128,0,3979:0:0:0:0:
64,192,3979,128,0,4214:0:0:0:30:C.wav
320,192,4214,1,0,0:0:0:50:W.wav
448,192,4214,1,0,0:0:0:0:
192,192,4450,1,0,0:0:0:30:C.wav
192,192,4567,1,0,0:0:0:50:W.wav
64,192,4685,128,0,4802:0:0:0:0:
320,192,4802,128,0,4920:0:0:0:0:
448,192,4920,128,0,5038:0:0:0:30:C.wav
192,192,5038,128,0,5155:0:0:0:0:
64,192,5155,1,0,0:0:0:50:W.wav
448,192,5155,1,0,0:0:0:0:
320,192,5391,1,0,0:0:0:30:C.wav
320,192,5508,1,0,0:0:0:50:W.wav
64,192,5626,1,0,0:0:0:0:
192,192,5744,1,0,0:0:0:0:
448,192,5861,1,0,0:0:0:30:C.wav
320,192,5940,1,0,0:0:0:0:
192,192,6018,1,0,0:0:0:0:
64,192,6097,1,0,0:0:0:50:W.wav
448,192,6097,1,0,0:0:0:0:
64,192,6332,1,0,0:0:0:30:C.wav
64,192,6450,1,0,0:0:0:50:W.wav
320,192,6567,128,0,6685:0:0:0:0:
192,192,6685,128,0,6802:0:0:0:0:
320,192,6802,128,0,6920:0:0:0:30:C.wav
192,192,6920,128,0,7038:0:0:0:0:
64,192,7038,1,0,0:0:0:30:C.wav
448,192,7038,1,0,0:0:0:0:
192,192,7273,1,0,0:0:0:30:C.wav
320,192,7273,1,0,0:0:0:0:
320,192,7508,1,0,0:0:0:30:C.wav
448,192,7508,1,0,0:0:0:0:
64,192,7626,1,0,0:0:0:30:C.wav
192,192,7744,1,0,0:0:0:30:C.wav
320,192,7744,1,0,0:0:0:0:
448,192,7861,1,0,0:0:0:30:C.wav
64,192,7979,1,0,0:0:0:50:W.wav
192,192,7979,1,0,0:0:0:40:crash.wav
320,192,8214,1,0,0:0:0:30:C.wav
320,192,8332,1,0,0:0:0:50:W.wav
64,192,8450,128,0,8567:0:0:0:0:
192,192,8567,128,0,8685:0:0:0:0:
448,192,8685,128,0,8802:0:0:0:30:C.wav
320,192,8802,128,0,8920:0:0:0:0:
64,192,8920,1,0,0:0:0:50:W.wav
448,192,8920,1,0,0:0:0:0:
192,192,9155,1,0,0:0:0:30:C.wav
192,192,9273,1,0,0:0:0:50:W.wav
448,192,9391,1,0,0:0:0:0:
320,192,9508,1,0,0:0:0:0:
192,192,9626,1,0,0:0:0:30:C.wav
64,192,9704,1,0,0:0:0:0:
320,192,9783,1,0,0:0:0:0:
64,192,9861,1,0,0:0:0:50:W.wav
448,192,9861,1,0,0:0:0:0:
448,192,10097,1,0,0:0:0:30:C.wav
448,192,10214,1,0,0:0:0:50:W.wav
64,192,10332,128,0,10450:0:0:0:0:
192,192,10450,128,0,10567:0:0:0:0:
320,192,10567,128,0,10685:0:0:0:30:C.wav
448,192,10685,128,0,10802:0:0:0:0:
64,192,10802,128,0,11273:0:0:0:50:W.wav
320,192,11038,1,0,0:0:0:30:C.wav
320,192,11155,1,0,0:0:0:50:W.wav
448,192,11273,128,0,11508:0:0:0:0:
192,192,11508,128,0,11744:0:0:0:30:C.wav
64,192,11744,1,0,0:0:0:50:W.wav
448,192,11744,1,0,0:0:0:0:
192,192,11979,1,0,0:0:0:30:C.wav
192,192,12097,1,0,0:0:0:50:W.wav
64,192,12214,128,0,12332:0:0:0:0:
320,192,12332,128,0,12450:0:0:0:0:
448,192,12450,128,0,12567:0:0:0:30:C.wav
192,192,12567,128,0,12685:0:0:0:0:
64,192,12685,1,0,0:0:0:50:W.wav
448,192,12685,1,0,0:0:0:0:
320,192,12920,1,0,0:0:0:30:C.wav
320,192,13038,1,0,0:0:0:50:W.wav
64,192,13155,1,0,0:0:0:0:
192,192,13273,1,0,0:0:0:0:
448,192,13391,1,0,0:0:0:30:C.wav
320,192,13469,1,0,0:0:0:0:
192,192,13548,1,0,0:0:0:0:
64,192,13626,1,0,0:0:0:50:W.wav
448,192,13626,1,0,0:0:0:0:
64,192,13861,1,0,0:0:0:50:W.wav
448,192,13861,1,0,0:0:0:0:
64,192,14097,1,0,0:0:0:50:W.wav
448,192,14097,1,0,0:0:0:0:
64,192,14332,1,0,0:0:0:50:W.wav
448,192,14332,1,0,0:0:0:0:
192,192,14567,1,0,0:0:0:50:W.wav
320,192,14567,1,0,0:0:0:0:
192,192,14802,1,0,0:0:0:50:W.wav
320,192,14802,1,0,0:0:0:0:
64,192,15038,1,0,0:0:0:50:W.wav
448,192,15038,1,0,0:0:0:0:
64,192,15273,1,0,0:0:0:50:W.wav
320,192,15273,1,0,0:0:0:35:C5H_s.wav
192,192,15513,1,0,0:0:0:50:W.wav
448,192,15513,1,0,0:0:0:40:crash.wav
320,192,15748,1,0,0:0:0:30:C.wav
320,192,15865,128,0,16218:0:0:0:50:W.wav
64,192,16218,1,0,0:0:0:30:C.wav
448,192,16218,1,0,0:0:0:35:G5H_s.wav
64,192,16454,1,0,0:0:0:50:W.wav
448,192,16454,1,0,0:0:0:35:G5H_s.wav
192,192,16689,1,0,0:0:0:30:C.wav
192,192,16807,128,0,17160:0:0:0:50:W.wav
448,192,16924,1,0,0:0:0:0:
320,192,17160,1,0,0:0:0:30:C.wav
448,192,17238,1,0,0:0:0:0:
192,192,17316,1,0,0:0:0:0:
64,192,17395,1,0,0:0:0:50:W.wav
448,192,17395,1,0,0:0:0:35:G5H_s.wav
192,192,17630,1,0,0:0:0:30:C.wav
320,192,17630,1,0,0:0:0:35:C5H_s.wav
192,192,17748,1,0,0:0:0:50:W.wav
448,192,17865,128,0,18101:0:0:0:35:F5H_s.wav
64,192,18101,1,0,0:0:0:30:C.wav
320,192,18101,1,0,0:0:0:0:
192,192,18336,128,0,18454:0:0:0:50:W.wav
320,192,18571,1,0,0:0:0:30:C.wav
448,192,18571,1,0,0:0:0:0:
320,192,18689,1,0,0:0:0:50:W.wav
192,192,18807,1,0,0:0:0:0:
320,192,19042,1,0,0:0:0:30:C.wav
64,192,19160,1,0,0:0:0:35:D5H_s.wav
192,192,19277,1,0,0:0:0:50:W.wav
448,192,19277,1,0,0:0:0:35:E5H_s.wav
64,192,19513,1,0,0:0:0:30:C.wav
448,192,19513,1,0,0:0:0:35:F5H_s.wav
64,192,19630,1,0,0:0:0:50:W.wav
192,192,19748,1,0,0:0:0:35:F5H_s.wav
64,192,19983,1,0,0:0:0:30:C.wav
320,192,19983,1,0,0:0:0:35:F5H_s.wav
192,192,20218,1,0,0:0:0:50:W.wav
448,192,20218,1,0,0:0:0:35:E5H_s.wav
320,192,20454,1,0,0:0:0:30:C.wav
320,192,20571,1,0,0:0:0:50:W.wav
64,192,20689,1,0,0:0:0:0:
192,192,20807,1,0,0:0:0:0:
448,192,20924,1,0,0:0:0:30:C.wav
320,192,21003,1,0,0:0:0:0:
192,192,21081,1,0,0:0:0:0:
64,192,21160,1,0,0:0:0:50:W.wav
448,192,21160,1,0,0:0:0:35:E5H_s.wav
192,192,21395,1,0,0:0:0:30:C.wav
448,192,21395,1,0,0:0:0:35:F5H_s.wav
192,192,21513,1,0,0:0:0:50:W.wav
320,192,21630,1,0,0:0:0:35:E5H_s.wav
448,192,21865,1,0,0:0:0:30:C.wav
64,192,21983,1,0,0:0:0:0:
320,192,22101,1,0,0:0:0:30:C.wav
448,192,22101,1,0,0:0:0:0:
64,192,22336,1,0,0:0:0:30:C.wav
192,192,22336,1,0,0:0:0:35:B5H_s.wav
320,192,22571,1,0,0:0:0:30:C.wav
448,192,22571,1,0,0:0:0:35:G5H_s.wav
64,192,22689,1,0,0:0:0:30:C.wav
192,192,22689,1,0,0:0:0:0:
320,192,22807,1,0,0:0:0:30:C.wav
448,192,22807,1,0,0:0:0:35:C5H_s.wav
192,192,22924,1,0,0:0:0:30:C.wav
64,192,23042,1,0,0:0:0:50:W.wav
448,192,23042,1,0,0:0:0:50:crash.wav
192,192,23277,1,0,0:0:0:30:C.wav
192,192,23395,128,0,23748:0:0:0:50:W.wav
64,192,23748,1,0,0:0:0:30:C.wav
448,192,23748,1,0,0:0:0:35:G5H_s.wav
64,192,23983,1,0,0:0:0:50:W.wav
448,192,23983,1,0,0:0:0:35:G5H_s.wav
320,192,24218,1,0,0:0:0:30:C.wav
320,192,24336,128,0,24689:0:0:0:50:W.wav
64,192,24454,1,0,0:0:0:0:
448,192,24689,1,0,0:0:0:30:C.wav
192,192,24767,1,0,0:0:0:0:
64,192,24846,1,0,0:0:0:0:
320,192,24924,1,0,0:0:0:50:W.wav
448,192,24924,1,0,0:0:0:35:G5H_s.wav
192,192,25160,1,0,0:0:0:30:C.wav
320,192,25160,1,0,0:0:0:35:C5H_s.wav
320,192,25277,1,0,0:0:0:50:W.wav
64,192,25395,1,0,0:0:0:35:F5H_s.wav
192,192,25630,1,0,0:0:0:30:C.wav
320,192,25630,1,0,0:0:0:0:
448,192,25748,1,0,0:0:0:35:F5H_s.wav
448,192,25865,128,0,25983:0:0:0:50:W.wav
64,192,26101,1,0,0:0:0:30:C.wav
64,192,26218,1,0,0:0:0:50:W.wav
320,192,26336,1,0,0:0:0:0:
320,192,26571,1,0,0:0:0:30:C.wav
64,192,26689,1,0,0:0:0:35:D5H_s.wav
192,192,26807,1,0,0:0:0:50:W.wav
448,192,26807,1,0,0:0:0:35:E5H_s.wav
64,192,27042,1,0,0:0:0:30:C.wav
448,192,27042,1,0,0:0:0:35:F5H_s.wav
64,192,27160,1,0,0:0:0:50:W.wav
192,192,27277,1,0,0:0:0:35:E5H_s.wav
64,192,27513,1,0,0:0:0:30:C.wav
320,192,27513,1,0,0:0:0:35:F5H_s.wav
192,192,27748,1,0,0:0:0:50:W.wav
448,192,27748,1,0,0:0:0:35:E5H_s.wav
192,192,27983,1,0,0:0:0:30:C.wav
192,192,28101,1,0,0:0:0:50:W.wav
320,192,28218,1,0,0:0:0:0:
64,192,28336,1,0,0:0:0:0:
448,192,28454,1,0,0:0:0:30:C.wav
320,192,28532,1,0,0:0:0:0:
192,192,28611,1,0,0:0:0:0:
64,192,28689,1,0,0:0:0:50:W.wav
448,192,28689,1,0,0:0:0:0:
192,192,28924,1,0,0:0:0:50:W.wav
448,192,28924,1,0,0:0:0:35:E5H_s.wav
64,192,29160,1,0,0:0:0:50:W.wav
320,192,29160,1,0,0:0:0:0:
192,192,29395,1,0,0:0:0:50:W.wav
448,192,29395,128,0,29630:0:0:0:35:C6H_s.wav
64,192,29630,1,0,0:0:0:50:W.wav
192,192,29865,1,0,0:0:0:50:W.wav
320,192,29865,1,0,0:0:0:35:C6H_s.wav
64,192,30101,1,0,0:0:0:50:W.wav
448,192,30101,1,0,0:0:0:35:B5H_s.wav
320,192,30336,1,0,0:0:0:50:W.wav
64,192,30571,1,0,0:0:0:50:W.wav
448,192,30571,1,0,0:0:0:40:crash.wav
192,192,30689,1,0,0:0:0:0:
448,192,30807,1,0,0:0:0:30:C.wav
320,192,30924,1,0,0:0:0:50:W.wav
192,192,31042,1,0,0:0:0:0:
64,192,31160,1,0,0:0:0:0:
448,192,31277,1,0,0:0:0:30:C.wav
320,192,31356,1,0,0:0:0:0:
192,192,31434,1,0,0:0:0:0:
64,192,31513,1,0,0:0:0:50:W.wav
64,192,31630,1,0,0:0:0:0:
320,192,31748,1,0,0:0:0:30:C.wav
320,192,31865,1,0,0:0:0:50:W.wav
448,192,31983,1,0,0:0:0:0:
64,192,32101,1,0,0:0:0:0:
320,192,32218,1,0,0:0:0:30:C.wav
64,192,32297,1,0,0:0:0:0:
448,192,32375,1,0,0:0:0:0:
192,192,32454,1,0,0:0:0:50:W.wav
320,192,32454,1,0,0:0:0:0:
64,192,32689,1,0,0:0:0:30:C.wav
320,192,32807,1,0,0:0:0:50:W.wav
192,192,32924,1,0,0:0:0:0:
448,192,33042,1,0,0:0:0:0:
64,192,33160,1,0,0:0:0:30:C.wav
320,192,33238,1,0,0:0:0:0:
192,192,33316,1,0,0:0:0:0:
448,192,33395,1,0,0:0:0:50:W.wav
448,192,33513,1,0,0:0:0:0:
64,192,33630,1,0,0:0:0:30:C.wav
64,192,33748,1,0,0:0:0:50:W.wav
448,192,33865,1,0,0:0:0:0:
448,192,33983,1,0,0:0:0:0:
192,192,34101,1,0,0:0:0:30:C.wav
192,192,34218,1,0,0:0:0:0:
320,192,34336,1,0,0:0:0:50:W.wav
448,192,34336,1,0,0:0:0:0:
64,192,34571,1,0,0:0:0:30:C.wav
64,192,34689,1,0,0:0:0:50:W.wav
448,192,34807,1,0,0:0:0:0:
320,192,34885,1,0,0:0:0:0:
192,192,34963,1,0,0:0:0:0:
448,192,35042,1,0,0:0:0:30:C.wav
320,192,35120,1,0,0:0:0:0:
192,192,35199,1,0,0:0:0:0:
64,192,35277,1,0,0:0:0:50:W.wav
448,192,35277,1,0,0:0:0:0:
192,192,35513,1,0,0:0:0:30:C.wav
192,192,35630,1,0,0:0:0:50:W.wav
64,192,35748,1,0,0:0:0:0:
448,192,35865,1,0,0:0:0:0:
64,192,35983,1,0,0:0:0:30:C.wav
320,192,36062,1,0,0:0:0:0:
448,192,36140,1,0,0:0:0:0:
64,192,36218,1,0,0:0:0:50:W.wav
192,192,36218,1,0,0:0:0:0:
448,192,36454,1,0,0:0:0:30:C.wav
448,192,36571,1,0,0:0:0:50:W.wav
192,192,36689,1,0,0:0:0:0:
64,192,36807,1,0,0:0:0:0:
448,192,36924,1,0,0:0:0:30:C.wav
64,192,37042,1,0,0:0:0:0:
320,192,37160,1,0,0:0:0:30:C.wav
448,192,37160,1,0,0:0:0:0:
64,192,37395,1,0,0:0:0:30:C.wav
192,192,37395,1,0,0:0:0:0:
320,192,37513,1,0,0:0:0:0:
192,192,37630,1,0,0:0:0:30:C.wav
448,192,37630,1,0,0:0:0:0:
320,192,37748,1,0,0:0:0:0:
64,192,37865,1,0,0:0:0:30:C.wav
448,192,37865,1,0,0:0:0:0:
192,192,37983,1,0,0:0:0:0:
320,192,38101,1,0,0:0:0:0:
