osu file format v14

[General]
AudioFilename: audio.mp3
AudioLeadIn: 0
PreviewTime: 15273
Countdown: 0
SampleSet: Drum
StackLeniency: 0.7
Mode: 3
LetterboxInBreaks: 0
SpecialStyle: 0
WidescreenStoryboard: 1

[Editor]
Bookmarks: 444,13620,15505,23034,30563,38093
DistanceSpacing: 1.1
BeatDivisor: 2
GridSize: 32
TimelineZoom: 2.25

[Metadata]
Title:Flower Melt Umbrella (Extended Edit)
TitleUnicode:フラワーメルト・アンブレラ (Extended Edit)
Artist:Shikiura.
ArtistUnicode:式浦。
Creator:Zembonics
Version:Zyle's Hyper
Source:
Tags:aaa_321 zyletinee Furawaa Meruto Anburera japanese pop jpop j-pop electronic dance music edm glitch 式浦躁吾 shikiura sougo ボーカロイド v-roid vocaloid3 歌愛ユキ kaai yuki 清楚mol seiso mol LN long note jack
BeatmapID:4432768
BeatmapSetID:2111596

[Difficulty]
HPDrainRate:7.5
CircleSize:4
OverallDifficulty:7.5
ApproachRate:5
SliderMultiplier:1.4
SliderTickRate:1

[Events]
//Background and Video events
0,0,"maxresdefault.jpg",0,0
//Break Periods
//Storyboard Layer 0 (Background)
//Storyboard Layer 1 (Fail)
//Storyboard Layer 2 (Pass)
//Storyboard Layer 3 (Foreground)
//Storyboard Layer 4 (Overlay)
//Storyboard Sound Samples
Sample,15513,0,"C6H_s.wav",35
Sample,18336,0,"E5H_s.wav",35
Sample,21160,0,"E5H_s.wav",35
Sample,28101,0,"C5H_s.wav",35
Sample,28924,0,"E5H_s.wav",35

[TimingPoints]
450,235.294117647059,4,3,1,50,1,0
15513,235.294117647059,4,3,1,50,1,0
30571,-100,4,3,1,50,0,1
38101,-100,4,3,1,50,0,0

[HitObjects]
64,192,450,5,0,0:0:0:50:W.wav
320,192,450,128,0,567:0:0:0:40:crash.wav
448,192,450,128,0,567:0:0:0:0:
192,192,685,1,0,0:0:0:30:C.wav
320,192,685,1,0,0:0:0:0:
192,192,802,128,0,920:0:0:0:50:W.wav
320,192,802,128,0,920:0:0:0:0:
448,192,920,128,0,1155:0:0:0:0:
64,192,1038,128,0,1273:0:0:0:0:
192,192,1155,128,0,1391:0:0:0:30:C.wav
320,192,1155,1,0,0:0:0:0:
448,192,1273,128,0,1391:0:0:0:0:
64,192,1391,128,0,1508:0:0:0:50:W.wav
320,192,1391,128,0,1508:0:0:0:0:
192,192,1626,1,0,0:0:0:30:C.wav
320,192,1626,1,0,0:0:0:0:
64,192,1744,1,0,0:0:0:50:W.wav
320,192,1744,1,0,0:0:0:0:
448,192,1861,1,0,0:0:0:0:
192,192,1940,1,0,0:0:0:0:
64,192,2018,1,0,0:0:0:0:
320,192,2097,1,0,0:0:0:30:C.wav
448,192,2097,1,0,0:0:0:0:
192,192,2175,1,0,0:0:0:0:
320,192,2253,1,0,0:0:0:0:
64,192,2332,128,0,2450:0:0:0:50:W.wav
192,192,2332,1,0,0:0:0:0:
192,192,2567,1,0,0:0:0:30:C.wav
448,192,2567,1,0,0:0:0:0:
64,192,2685,128,0,2802:0:0:0:50:W.wav
448,192,2685,1,0,0:0:0:0:
320,192,2802,128,0,3038:0:0:0:0:
64,192,2920,128,0,3155:0:0:0:0:
192,192,3038,1,0,0:0:0:30:C.wav
448,192,3038,128,0,3273:0:0:0:0:
320,192,3155,128,0,3273:0:0:0:0:
64,192,3273,128,0,3391:0:0:0:50:W.wav
192,192,3273,128,0,3391:0:0:0:0:
320,192,3508,1,0,0:0:0:30:C.wav
448,192,3508,1,0,0:0:0:0:
64,192,3626,1,0,0:0:0:50:W.wav
320,192,3626,1,0,0:0:0:0:
192,192,3744,1,0,0:0:0:0:
448,192,3744,128,0,3979:0:0:0:0:
64,192,3861,1,0,0:0:0:0:
192,192,3979,128,0,4214:0:0:0:30:C.wav
320,192,3979,1,0,0:0:0:0:
64,192,4214,128,0,4332:0:0:0:50:W.wav
320,192,4214,128,0,4332:0:0:0:0:
320,192,4450,1,0,0:0:0:30:C.wav
448,192,4450,1,0,0:0:0:0:
320,192,4567,128,0,4685:0:0:0:50:W.wav
448,192,4567,128,0,4685:0:0:0:0:
64,192,4685,128,0,4920:0:0:0:0:
448,192,4802,128,0,5038:0:0:0:0:
192,192,4920,128,0,5155:0:0:0:30:C.wav
320,192,4920,1,0,0:0:0:0:
64,192,5038,128,0,5155:0:0:0:0:
320,192,5155,128,0,5273:0:0:0:50:W.wav
448,192,5155,128,0,5273:0:0:0:0:
64,192,5391,1,0,0:0:0:30:C.wav
320,192,5391,1,0,0:0:0:0:
320,192,5508,1,0,0:0:0:50:W.wav
448,192,5508,1,0,0:0:0:0:
64,192,5626,1,0,0:0:0:0:
192,192,5704,1,0,0:0:0:0:
448,192,5783,1,0,0:0:0:0:
192,192,5861,1,0,0:0:0:30:C.wav
320,192,5861,1,0,0:0:0:0:
64,192,5940,1,0,0:0:0:0:
320,192,6018,1,0,0:0:0:0:
192,192,6097,128,0,6214:0:0:0:50:W.wav
448,192,6097,1,0,0:0:0:0:
64,192,6332,1,0,0:0:0:30:C.wav
320,192,6332,1,0,0:0:0:0:
192,192,6450,1,0,0:0:0:50:W.wav
320,192,6450,1,0,0:0:0:0:
448,192,6567,1,0,0:0:0:0:
64,192,6685,1,0,0:0:0:0:
320,192,6802,1,0,0:0:0:30:C.wav
448,192,6802,1,0,0:0:0:0:
64,192,6920,1,0,0:0:0:0:
192,192,7038,1,0,0:0:0:30:C.wav
448,192,7038,1,0,0:0:0:0:
192,192,7273,1,0,0:0:0:30:C.wav
320,192,7273,1,0,0:0:0:0:
320,192,7391,1,0,0:0:0:0:
64,192,7508,1,0,0:0:0:30:C.wav
448,192,7508,1,0,0:0:0:0:
64,192,7626,1,0,0:0:0:30:C.wav
192,192,7626,1,0,0:0:0:0:
320,192,7744,1,0,0:0:0:30:C.wav
448,192,7744,1,0,0:0:0:0:
192,192,7861,1,0,0:0:0:30:C.wav
448,192,7861,1,0,0:0:0:0:
64,192,7979,1,0,0:0:0:50:W.wav
192,192,7979,128,0,8097:0:0:0:40:crash.wav
320,192,7979,128,0,8097:0:0:0:0:
64,192,8214,1,0,0:0:0:30:C.wav
320,192,8214,1,0,0:0:0:0:
64,192,8332,128,0,8450:0:0:0:50:W.wav
320,192,8332,128,0,8450:0:0:0:0:
448,192,8450,128,0,8685:0:0:0:0:
192,192,8567,128,0,8802:0:0:0:0:
64,192,8685,128,0,8920:0:0:0:30:C.wav
320,192,8685,1,0,0:0:0:0:
448,192,8802,128,0,8920:0:0:0:0:
192,192,8920,128,0,9038:0:0:0:50:W.wav
320,192,8920,128,0,9038:0:0:0:0:
64,192,9155,1,0,0:0:0:30:C.wav
448,192,9155,1,0,0:0:0:0:
64,192,9273,1,0,0:0:0:50:W.wav
320,192,9273,1,0,0:0:0:0:
192,192,9391,1,0,0:0:0:0:
320,192,9469,1,0,0:0:0:0:
448,192,9548,1,0,0:0:0:0:
64,192,9626,1,0,0:0:0:30:C.wav
192,192,9626,1,0,0:0:0:0:
320,192,9704,1,0,0:0:0:0:
192,192,9783,1,0,0:0:0:0:
320,192,9861,1,0,0:0:0:50:W.wav
448,192,9861,128,0,9979:0:0:0:0:
64,192,10097,1,0,0:0:0:30:C.wav
192,192,10097,1,0,0:0:0:0:
448,192,10214,128,0,10332:0:0:0:50:W.wav
64,192,10332,128,0,10567:0:0:0:0:
192,192,10450,128,0,10685:0:0:0:0:
320,192,10567,1,0,0:0:0:30:C.wav
448,192,10567,128,0,10802:0:0:0:0:
64,192,10685,128,0,10802:0:0:0:0:
192,192,10802,128,0,10920:0:0:0:50:W.wav
320,192,10802,128,0,10920:0:0:0:0:
64,192,11038,1,0,0:0:0:30:C.wav
448,192,11038,1,0,0:0:0:0:
192,192,11155,1,0,0:0:0:50:W.wav
448,192,11155,1,0,0:0:0:0:
64,192,11273,128,0,11508:0:0:0:0:
320,192,11273,1,0,0:0:0:0:
192,192,11391,1,0,0:0:0:0:
320,192,11508,128,0,11744:0:0:0:30:C.wav
448,192,11508,1,0,0:0:0:0:
64,192,11744,128,0,11861:0:0:0:50:W.wav
192,192,11744,128,0,11861:0:0:0:0:
320,192,11979,1,0,0:0:0:30:C.wav
448,192,11979,1,0,0:0:0:0:
320,192,12097,128,0,12214:0:0:0:50:W.wav
448,192,12097,128,0,12214:0:0:0:0:
64,192,12214,128,0,12450:0:0:0:0:
192,192,12332,128,0,12567:0:0:0:0:
320,192,12450,1,0,0:0:0:30:C.wav
448,192,12450,128,0,12685:0:0:0:0:
64,192,12567,128,0,12685:0:0:0:0:
192,192,12685,128,0,12802:0:0:0:50:W.wav
320,192,12685,128,0,12802:0:0:0:0:
192,192,12920,1,0,0:0:0:30:C.wav
320,192,12920,1,0,0:0:0:0:
64,192,13038,1,0,0:0:0:50:W.wav
320,192,13038,1,0,0:0:0:0:
448,192,13155,1,0,0:0:0:0:
320,192,13234,1,0,0:0:0:0:
192,192,13312,1,0,0:0:0:0:
64,192,13391,1,0,0:0:0:30:C.wav
448,192,13391,1,0,0:0:0:0:
320,192,13469,1,0,0:0:0:0:
448,192,13548,1,0,0:0:0:0:
64,192,13626,128,0,13744:0:0:0:50:W.wav
192,192,13626,128,0,13744:0:0:0:0:
64,192,13861,128,0,13979:0:0:0:50:W.wav
192,192,13861,128,0,13979:0:0:0:0:
64,192,14097,128,0,14214:0:0:0:50:W.wav
192,192,14097,128,0,14214:0:0:0:0:
64,192,14332,128,0,14450:0:0:0:50:W.wav
192,192,14332,128,0,14450:0:0:0:0:
320,192,14567,128,0,14685:0:0:0:50:W.wav
448,192,14567,128,0,14685:0:0:0:0:
320,192,14802,128,0,15038:0:0:0:50:W.wav
448,192,14802,128,0,15273:0:0:0:0:
64,192,15038,1,0,0:0:0:50:W.wav
192,192,15038,128,0,15513:0:0:0:0:
64,192,15273,128,0,15513:0:0:0:50:W.wav
320,192,15273,1,0,0:0:0:35:C5H_s.wav
320,192,15513,1,0,0:0:0:50:W.wav
448,192,15513,128,0,15748:0:0:0:40:crash.wav
192,192,15748,1,0,0:0:0:30:C.wav
320,192,15748,128,0,16101:0:0:0:35:B5H_s.wav
64,192,15865,1,0,0:0:0:50:W.wav
192,192,15865,128,0,16101:0:0:0:35:G5H_s.wav
448,192,16101,1,0,0:0:0:0:
64,192,16218,128,0,16336:0:0:0:30:C.wav
192,192,16218,1,0,0:0:0:35:G5H_s.wav
448,192,16336,1,0,0:0:0:0:
192,192,16454,1,0,0:0:0:50:W.wav
320,192,16454,128,0,16689:0:0:0:35:G5H_s.wav
192,192,16689,1,0,0:0:0:30:C.wav
448,192,16689,128,0,17042:0:0:0:35:F5H_s.wav
64,192,16807,128,0,17042:0:0:0:50:W.wav
192,192,16807,1,0,0:0:0:35:E5H_s.wav
320,192,17042,1,0,0:0:0:0:
192,192,17160,128,0,17395:0:0:0:30:C.wav
448,192,17160,1,0,0:0:0:35:F5H_s.wav
64,192,17395,1,0,0:0:0:50:W.wav
448,192,17395,128,0,17630:0:0:0:35:G5H_s.wav
64,192,17630,128,0,17865:0:0:0:30:C.wav
320,192,17630,1,0,0:0:0:35:C5H_s.wav
320,192,17748,1,0,0:0:0:50:W.wav
448,192,17748,1,0,0:0:0:0:
192,192,17865,128,0,18454:0:0:0:35:F5H_s.wav
448,192,17983,1,0,0:0:0:0:
64,192,18101,1,0,0:0:0:30:C.wav
320,192,18101,1,0,0:0:0:0:
448,192,18218,1,0,0:0:0:0:
64,192,18336,128,0,18454:0:0:0:50:W.wav
320,192,18571,1,0,0:0:0:30:C.wav
448,192,18571,1,0,0:0:0:0:
192,192,18689,1,0,0:0:0:50:W.wav
448,192,18689,1,0,0:0:0:0:
320,192,18807,128,0,19042:0:0:0:0:
64,192,18924,1,0,0:0:0:0:
192,192,19042,128,0,19160:0:0:0:30:C.wav
448,192,19042,128,0,19277:0:0:0:35:C5H_s.wav
64,192,19160,128,0,19277:0:0:0:35:D5H_s.wav
192,192,19277,128,0,19513:0:0:0:50:W.wav
320,192,19277,1,0,0:0:0:35:E5H_s.wav
64,192,19513,1,0,0:0:0:30:C.wav
448,192,19513,128,0,19748:0:0:0:35:F5H_s.wav
64,192,19630,1,0,0:0:0:50:W.wav
192,192,19630,1,0,0:0:0:0:
320,192,19748,128,0,19983:0:0:0:35:F5H_s.wav
192,192,19865,1,0,0:0:0:0:
64,192,19983,128,0,20218:0:0:0:30:C.wav
448,192,19983,1,0,0:0:0:35:F5H_s.wav
192,192,20218,128,0,20454:0:0:0:50:W.wav
320,192,20218,1,0,0:0:0:35:E5H_s.wav
320,192,20454,1,0,0:0:0:30:C.wav
448,192,20454,128,0,20689:0:0:0:35:D5H_s.wav
64,192,20571,128,0,20689:0:0:0:50:W.wav
320,192,20571,1,0,0:0:0:35:C5H_s.wav
192,192,20807,1,0,0:0:0:0:
64,192,20924,128,0,21042:0:0:0:30:C.wav
448,192,20924,1,0,0:0:0:35:C5H_s.wav
192,192,21042,128,0,21160:0:0:0:35:D5H_s.wav
320,192,21160,128,0,21395:0:0:0:50:W.wav
64,192,21395,128,0,21630:0:0:0:30:C.wav
448,192,21395,1,0,0:0:0:35:F5H_s.wav
192,192,21513,1,0,0:0:0:50:W.wav
448,192,21513,1,0,0:0:0:0:
320,192,21630,128,0,21748:0:0:0:35:E5H_s.wav
448,192,21748,128,0,22101:0:0:0:0:
64,192,21865,1,0,0:0:0:30:C.wav
192,192,21865,1,0,0:0:0:35:C6H_s.wav
320,192,21983,1,0,0:0:0:0:
64,192,22101,1,0,0:0:0:30:C.wav
192,192,22101,1,0,0:0:0:0:
320,192,22336,1,0,0:0:0:30:C.wav
448,192,22336,1,0,0:0:0:35:B5H_s.wav
64,192,22571,1,0,0:0:0:30:C.wav
448,192,22571,1,0,0:0:0:35:G5H_s.wav
64,192,22689,1,0,0:0:0:30:C.wav
192,192,22689,1,0,0:0:0:0:
320,192,22807,1,0,0:0:0:30:C.wav
448,192,22807,1,0,0:0:0:35:C5H_s.wav
192,192,22924,1,0,0:0:0:30:C.wav
320,192,22924,1,0,0:0:0:0:
64,192,23042,1,0,0:0:0:50:W.wav
192,192,23042,1,0,0:0:0:50:crash.wav
448,192,23042,128,0,23277:0:0:0:35:C6H_s.wav
192,192,23277,128,0,23630:0:0:0:30:C.wav
320,192,23277,1,0,0:0:0:35:B5H_s.wav
64,192,23395,128,0,23630:0:0:0:50:W.wav
320,192,23395,1,0,0:0:0:35:G5H_s.wav
448,192,23630,1,0,0:0:0:0:
192,192,23748,1,0,0:0:0:30:C.wav
320,192,23748,128,0,23865:0:0:0:35:G5H_s.wav
64,192,23983,1,0,0:0:0:50:W.wav
448,192,23983,128,0,24336:0:0:0:35:G5H_s.wav
192,192,24218,1,0,0:0:0:30:C.wav
320,192,24218,128,0,24571:0:0:0:35:F5H_s.wav
64,192,24336,128,0,24571:0:0:0:50:W.wav
192,192,24336,1,0,0:0:0:35:E5H_s.wav
448,192,24571,1,0,0:0:0:0:
192,192,24689,128,0,24924:0:0:0:30:C.wav
320,192,24689,1,0,0:0:0:35:F5H_s.wav
64,192,24924,1,0,0:0:0:50:W.wav
448,192,24924,128,0,25160:0:0:0:35:G5H_s.wav
192,192,25160,1,0,0:0:0:30:C.wav
320,192,25160,128,0,25395:0:0:0:35:C5H_s.wav
64,192,25277,1,0,0:0:0:50:W.wav
192,192,25277,1,0,0:0:0:0:
64,192,25395,128,0,25513:0:0:0:35:F5H_s.wav
320,192,25513,1,0,0:0:0:0:
192,192,25630,1,0,0:0:0:30:C.wav
448,192,25630,1,0,0:0:0:0:
320,192,25748,128,0,25983:0:0:0:35:F5H_s.wav
192,192,25865,1,0,0:0:0:50:W.wav
448,192,25865,128,0,25983:0:0:0:35:E5H_s.wav
64,192,26101,1,0,0:0:0:30:C.wav
320,192,26101,1,0,0:0:0:0:
64,192,26218,1,0,0:0:0:50:W.wav
192,192,26218,1,0,0:0:0:0:
320,192,26336,128,0,26571:0:0:0:0:
64,192,26571,128,0,26807:0:0:0:30:C.wav
448,192,26571,128,0,26689:0:0:0:35:C5H_s.wav
192,192,26689,128,0,26807:0:0:0:35:D5H_s.wav
320,192,26807,128,0,26924:0:0:0:50:W.wav
448,192,26807,1,0,0:0:0:35:E5H_s.wav
64,192,27042,128,0,27277:0:0:0:30:C.wav
448,192,27042,1,0,0:0:0:35:F5H_s.wav
192,192,27160,1,0,0:0:0:50:W.wav
448,192,27160,1,0,0:0:0:0:
320,192,27277,128,0,27513:0:0:0:35:E5H_s.wav
192,192,27513,128,0,27748:0:0:0:30:C.wav
448,192,27513,1,0,0:0:0:35:F5H_s.wav
64,192,27748,1,0,0:0:0:50:W.wav
448,192,27748,128,0,27865:0:0:0:35:E5H_s.wav
192,192,27983,1,0,0:0:0:30:C.wav
320,192,27983,128,0,28218:0:0:0:35:D5H_s.wav
64,192,28101,128,0,28218:0:0:0:50:W.wav
192,192,28336,1,0,0:0:0:0:
320,192,28454,128,0,28689:0:0:0:30:C.wav
448,192,28454,1,0,0:0:0:35:F5H_s.wav
64,192,28689,128,0,29042:0:0:0:50:W.wav
192,192,28689,128,0,28807:0:0:0:0:
448,192,28807,1,0,0:0:0:35:F5H_s.wav
192,192,28924,128,0,29042:0:0:0:50:W.wav
64,192,29160,128,0,29277:0:0:0:50:W.wav
192,192,29160,128,0,29277:0:0:0:0:
64,192,29395,128,0,29513:0:0:0:50:W.wav
192,192,29395,128,0,29513:0:0:0:35:C6H_s.wav
320,192,29630,128,0,29748:0:0:0:50:W.wav
448,192,29630,128,0,29748:0:0:0:0:
320,192,29865,128,0,30336:0:0:0:50:W.wav
448,192,29865,128,0,30101:0:0:0:35:C6H_s.wav
64,192,30101,128,0,30571:0:0:0:50:W.wav
192,192,30101,1,0,0:0:0:35:B5H_s.wav
192,192,30336,128,0,30571:0:0:0:50:W.wav
448,192,30336,1,0,0:0:0:35:G5H_s.wav
320,192,30571,128,0,30807:0:0:0:50:W.wav
448,192,30571,1,0,0:0:0:40:crash.wav
64,192,30689,128,0,30924:0:0:0:0:
192,192,30807,128,0,30924:0:0:0:30:C.wav
448,192,30807,1,0,0:0:0:0:
320,192,30924,128,0,31042:0:0:0:50:W.wav
448,192,30924,1,0,0:0:0:0:
192,192,31042,1,0,0:0:0:0:
448,192,31120,1,0,0:0:0:0:
192,192,31199,1,0,0:0:0:0:
64,192,31277,1,0,0:0:0:30:C.wav
448,192,31277,1,0,0:0:0:0:
320,192,31356,1,0,0:0:0:0:
192,192,31434,1,0,0:0:0:0:
64,192,31513,1,0,0:0:0:50:W.wav
448,192,31513,1,0,0:0:0:0:
64,192,31630,1,0,0:0:0:0:
320,192,31748,1,0,0:0:0:30:C.wav
448,192,31748,1,0,0:0:0:0:
192,192,31865,1,0,0:0:0:50:W.wav
320,192,31865,1,0,0:0:0:0:
64,192,31983,1,0,0:0:0:0:
448,192,31983,1,0,0:0:0:0:
320,192,32062,1,0,0:0:0:0:
192,192,32140,1,0,0:0:0:0:
320,192,32218,1,0,0:0:0:30:C.wav
448,192,32218,1,0,0:0:0:0:
64,192,32297,1,0,0:0:0:0:
192,192,32375,1,0,0:0:0:0:
320,192,32454,1,0,0:0:0:50:W.wav
448,192,32454,128,0,32571:0:0:0:0:
64,192,32689,1,0,0:0:0:30:C.wav
320,192,32689,1,0,0:0:0:0:
64,192,32807,1,0,0:0:0:50:W.wav
448,192,32807,128,0,32924:0:0:0:0:
320,192,32924,1,0,0:0:0:0:
192,192,33003,1,0,0:0:0:0:
64,192,33081,1,0,0:0:0:0:
320,192,33160,1,0,0:0:0:30:C.wav
448,192,33160,1,0,0:0:0:0:
192,192,33238,1,0,0:0:0:0:
320,192,33316,1,0,0:0:0:0:
64,192,33395,1,0,0:0:0:50:W.wav
448,192,33395,1,0,0:0:0:0:
448,192,33513,1,0,0:0:0:0:
64,192,33630,1,0,0:0:0:30:C.wav
320,192,33630,1,0,0:0:0:0:
320,192,33748,1,0,0:0:0:50:W.wav
192,192,33865,1,0,0:0:0:0:
192,192,33983,1,0,0:0:0:0:
64,192,34101,1,0,0:0:0:30:C.wav
448,192,34101,1,0,0:0:0:0:
64,192,34218,1,0,0:0:0:0:
192,192,34336,128,0,34454:0:0:0:50:W.wav
320,192,34336,128,0,34454:0:0:0:0:
64,192,34571,1,0,0:0:0:30:C.wav
448,192,34571,1,0,0:0:0:0:
320,192,34689,1,0,0:0:0:50:W.wav
448,192,34689,1,0,0:0:0:0:
192,192,34807,1,0,0:0:0:0:
320,192,34885,1,0,0:0:0:0:
192,192,34963,1,0,0:0:0:0:
320,192,35042,1,0,0:0:0:30:C.wav
448,192,35042,1,0,0:0:0:0:
64,192,35120,1,0,0:0:0:0:
448,192,35199,1,0,0:0:0:0:
64,192,35277,128,0,35395:0:0:0:50:W.wav
192,192,35277,128,0,35395:0:0:0:0:
192,192,35513,1,0,0:0:0:30:C.wav
320,192,35513,1,0,0:0:0:0:
192,192,35630,1,0,0:0:0:50:W.wav
448,192,35748,1,0,0:0:0:0:
320,192,35826,1,0,0:0:0:0:
64,192,35905,1,0,0:0:0:0:
192,192,35983,1,0,0:0:0:30:C.wav
448,192,35983,1,0,0:0:0:0:
320,192,36062,1,0,0:0:0:0:
64,192,36140,1,0,0:0:0:0:
192,192,36218,1,0,0:0:0:50:W.wav
320,192,36218,1,0,0:0:0:0:
192,192,36454,1,0,0:0:0:30:C.wav
448,192,36454,1,0,0:0:0:0:
192,192,36571,1,0,0:0:0:50:W.wav
448,192,36689,1,0,0:0:0:0:
64,192,36807,1,0,0:0:0:0:
320,192,36924,1,0,0:0:0:30:C.wav
448,192,36924,1,0,0:0:0:0:
64,192,37042,1,0,0:0:0:0:
192,192,37160,1,0,0:0:0:30:C.wav
320,192,37160,1,0,0:0:0:0:
64,192,37395,1,0,0:0:0:30:C.wav
448,192,37395,1,0,0:0:0:0:
448,192,37513,1,0,0:0:0:0:
192,192,37630,1,0,0:0:0:30:C.wav
320,192,37630,1,0,0:0:0:0:
192,192,37748,1,0,0:0:0:0:
64,192,37865,1,0,0:0:0:30:C.wav
448,192,37865,1,0,0:0:0:0:
64,192,37983,1,0,0:0:0:0:
320,192,38101,1,0,0:0:0:0:
192,192,38160,1,0,0:0:0:0:
