osu file format v14

[General]
AudioFilename: audio.mp3
AudioLeadIn: 0
PreviewTime: 15273
Countdown: 0
SampleSet: Drum
StackLeniency: 0.7
Mode: 3
LetterboxInBreaks: 0
SpecialStyle: 0
WidescreenStoryboard: 1

[Editor]
Bookmarks: 444,13620,15505,23034,30563,38093
DistanceSpacing: 1.1
BeatDivisor: 2
GridSize: 32
TimelineZoom: 2.45

[Metadata]
Title:Flower Melt Umbrella (Extended Edit)
TitleUnicode:フラワーメルト・アンブレラ (Extended Edit)
Artist:Shikiura.
ArtistUnicode:式浦。
Creator:Zembonics
Version:Easy
Source:
Tags:aaa_321 zyletinee Furawaa Meruto Anburera japanese pop jpop j-pop electronic dance music edm glitch 式浦躁吾 shikiura sougo ボーカロイド v-roid vocaloid3 歌愛ユキ kaai yuki 清楚mol seiso mol LN long note jack
BeatmapID:4432767
BeatmapSetID:2111596

[Difficulty]
HPDrainRate:6.5
CircleSize:4
OverallDifficulty:6.5
ApproachRate:5
SliderMultiplier:1.4
SliderTickRate:1

[Events]
//Background and Video events
0,0,"maxresdefault.jpg",0,0
//Break Periods
//Storyboard Layer 0 (Background)
//Storyboard Layer 1 (Fail)
//Storyboard Layer 2 (Pass)
//Storyboard Layer 3 (Foreground)
//Storyboard Layer 4 (Overlay)
//Storyboard Sound Samples
Sample,450,0,"crash.wav",40
Sample,7979,0,"crash.wav",40
Sample,15273,0,"C5H_s.wav",35
Sample,15513,0,"crash.wav",40
Sample,15513,0,"C6H_s.wav",35
Sample,15865,0,"G5H_s.wav",35
Sample,16218,0,"G5H_s.wav",35
Sample,16454,0,"G5H_s.wav",35
Sample,16807,0,"E5H_s.wav",35
Sample,17160,0,"F5H_s.wav",35
Sample,17395,0,"G5H_s.wav",35
Sample,18336,0,"E5H_s.wav",35
Sample,19042,0,"C5H_s.wav",35
Sample,19277,0,"E5H_s.wav",35
Sample,20218,0,"E5H_s.wav",35
Sample,20571,0,"C5H_s.wav",35
Sample,20924,0,"C5H_s.wav",35
Sample,21160,0,"E5H_s.wav",35
Sample,21865,0,"C6H_s.wav",35
Sample,22336,0,"B5H_s.wav",35
Sample,22571,0,"G5H_s.wav",35
Sample,22807,0,"C5H_s.wav",35
Sample,23042,0,"crash.wav",50
Sample,23042,0,"C6H_s.wav",35
Sample,23395,0,"G5H_s.wav",35
Sample,23748,0,"G5H_s.wav",35
Sample,23983,0,"G5H_s.wav",35
Sample,24336,0,"E5H_s.wav",35
Sample,24689,0,"F5H_s.wav",35
Sample,24924,0,"G5H_s.wav",35
Sample,25865,0,"E5H_s.wav",35
Sample,26571,0,"C5H_s.wav",35
Sample,26807,0,"E5H_s.wav",35
Sample,27748,0,"E5H_s.wav",35
Sample,28101,0,"C5H_s.wav",35
Sample,28454,0,"F5H_s.wav",35
Sample,28924,0,"E5H_s.wav",35
Sample,29395,0,"C6H_s.wav",35
Sample,29865,0,"C6H_s.wav",35
Sample,30101,0,"B5H_s.wav",35
Sample,30336,0,"G5H_s.wav",35
Sample,30571,0,"crash.wav",40

[TimingPoints]
450,235.294117647059,4,3,1,50,1,0
15513,235.294117647059,4,3,1,50,1,0
30571,-100.0,4,3,1,50,0,1
38101,-100.0,4,3,1,50,0,0

[HitObjects]
64,192,450,1,0,0:0:0:50:W.wav
320,192,920,1,0,0:0:0:0:
64,192,1391,128,0,1861:0:0:0:50:W.wav
448,192,1861,128,0,2332:0:0:0:0:
192,192,2332,1,0,0:0:0:50:W.wav
320,192,2802,128,0,3273:0:0:0:0:
192,192,3273,1,0,0:0:0:50:W.wav
448,192,3508,1,0,0:0:0:30:C.wav
64,192,3744,128,0,4214:0:0:0:0:
320,192,4214,1,0,0:0:0:50:W.wav
192,192,4685,1,0,0:0:0:0:
448,192,5155,128,0,5626:0:0:0:50:W.wav
64,192,5626,128,0,6097:0:0:0:0:
320,192,6097,1,0,0:0:0:50:W.wav
192,192,6567,1,0,0:0:0:0:
448,192,7038,1,0,0:0:0:30:C.wav
320,192,7273,1,0,0:0:0:30:C.wav
192,192,7508,1,0,0:0:0:30:C.wav
64,192,7744,1,0,0:0:0:30:C.wav
448,192,7979,1,0,0:0:0:50:W.wav
320,192,8450,1,0,0:0:0:0:
64,192,8920,128,0,9391:0:0:0:50:W.wav
448,192,9391,128,0,9861:0:0:0:0:
192,192,9861,1,0,0:0:0:50:W.wav
320,192,10332,128,0,10802:0:0:0:0:
192,192,10802,1,0,0:0:0:50:W.wav
448,192,11038,1,0,0:0:0:30:C.wav
64,192,11273,128,0,11744:0:0:0:0:
192,192,11744,1,0,0:0:0:50:W.wav
320,192,12214,1,0,0:0:0:0:
448,192,12685,128,0,13155:0:0:0:50:W.wav
64,192,13155,128,0,13626:0:0:0:0:
192,192,13626,1,0,0:0:0:50:W.wav
448,192,13861,1,0,0:0:0:50:W.wav
192,192,14097,1,0,0:0:0:50:W.wav
448,192,14332,1,0,0:0:0:50:W.wav
64,192,14567,1,0,0:0:0:50:W.wav
320,192,14802,1,0,0:0:0:50:W.wav
64,192,15038,1,0,0:0:0:50:W.wav
192,192,15273,1,0,0:0:0:50:W.wav
448,192,15513,1,0,0:0:0:50:W.wav
320,192,15865,1,0,0:0:0:50:W.wav
64,192,16218,1,0,0:0:0:30:C.wav
320,192,16454,1,0,0:0:0:50:W.wav
64,192,16807,1,0,0:0:0:50:W.wav
192,192,17160,1,0,0:0:0:30:C.wav
448,192,17395,128,0,17865:0:0:0:50:W.wav
320,192,17865,128,0,18336:0:0:0:35:F5H_s.wav
192,192,18336,1,0,0:0:0:50:W.wav
448,192,18689,1,0,0:0:0:50:W.wav
64,192,19042,1,0,0:0:0:30:C.wav
320,192,19277,1,0,0:0:0:50:W.wav
448,192,19748,1,0,0:0:0:35:F5H_s.wav
64,192,20218,1,0,0:0:0:50:W.wav
320,192,20571,1,0,0:0:0:50:W.wav
448,192,20924,1,0,0:0:0:30:C.wav
192,192,21160,1,0,0:0:0:50:W.wav
320,192,21630,1,0,0:0:0:35:E5H_s.wav
64,192,21865,1,0,0:0:0:30:C.wav
448,192,22101,1,0,0:0:0:30:C.wav
320,192,22336,1,0,0:0:0:30:C.wav
192,192,22571,1,0,0:0:0:30:C.wav
64,192,22807,1,0,0:0:0:30:C.wav
448,192,23042,1,0,0:0:0:50:W.wav
192,192,23395,1,0,0:0:0:50:W.wav
320,192,23748,1,0,0:0:0:30:C.wav
448,192,23983,1,0,0:0:0:50:W.wav
64,192,24336,1,0,0:0:0:50:W.wav
448,192,24689,1,0,0:0:0:30:C.wav
192,192,24924,128,0,25395:0:0:0:50:W.wav
320,192,25395,128,0,25865:0:0:0:35:F5H_s.wav
64,192,25865,1,0,0:0:0:50:W.wav
192,192,26218,1,0,0:0:0:50:W.wav
320,192,26571,1,0,0:0:0:30:C.wav
448,192,26807,1,0,0:0:0:50:W.wav
320,192,27277,1,0,0:0:0:35:E5H_s.wav
64,192,27748,1,0,0:0:0:50:W.wav
448,192,28101,1,0,0:0:0:50:W.wav
192,192,28454,1,0,0:0:0:30:C.wav
448,192,28924,1,0,0:0:0:50:W.wav
320,192,29395,1,0,0:0:0:50:W.wav
64,192,29865,1,0,0:0:0:50:W.wav
192,192,30101,1,0,0:0:0:50:W.wav
448,192,30336,1,0,0:0:0:50:W.wav
320,192,30571,1,0,0:0:0:50:W.wav
64,192,31042,128,0,31513:0:0:0:0:
192,192,31513,1,0,0:0:0:50:W.wav
320,192,31983,128,0,32454:0:0:0:0:
64,192,32454,1,0,0:0:0:50:W.wav
448,192,32924,128,0,33395:0:0:0:0:
320,192,33395,1,0,0:0:0:50:W.wav
320,192,33630,1,0,0:0:0:30:C.wav
192,192,33865,1,0,0:0:0:0:
64,192,34101,1,0,0:0:0:30:C.wav
448,192,34336,1,0,0:0:0:50:W.wav
320,192,34807,128,0,35277:0:0:0:0:
192,192,35277,1,0,0:0:0:50:W.wav
64,192,35748,128,0,36218:0:0:0:0:
448,192,36218,1,0,0:0:0:50:W.wav
192,192,36689,1,0,0:0:0:0:
64,192,37160,1,0,0:0:0:30:C.wav
192,192,37395,1,0,0:0:0:30:C.wav
320,192,37630,1,0,0:0:0:30:C.wav
448,192,37865,1,0,0:0:0:30:C.wav
