osu file format v14

[General]
AudioFilename: audio.mp3
AudioLeadIn: 0
PreviewTime: 15273
Countdown: 0
SampleSet: Drum
StackLeniency: 0.7
Mode: 3
LetterboxInBreaks: 0
SpecialStyle: 0
WidescreenStoryboard: 0

[Editor]
Bookmarks: 444,13620,15505,23034,30563,38093
DistanceSpacing: 1.1
BeatDivisor: 4
GridSize: 32
TimelineZoom: 2.15

[Metadata]
Title:Flower Melt Umbrella (Extended Edit)
TitleUnicode:フラワーメルト・アンブレラ (Extended Edit)
Artist:Shikiura.
ArtistUnicode:式浦。
Creator:Zembonics
Version:Drenched
Source:
Tags:aaa_321 zyletinee Furawaa Meruto Anburera japanese pop jpop j-pop electronic dance music edm glitch 式浦躁吾 shikiura sougo ボーカロイド v-roid vocaloid3 歌愛ユキ kaai yuki 清楚mol seiso mol LN long note jack
BeatmapID:4432766
BeatmapSetID:2111596

[Difficulty]
HPDrainRate:8
CircleSize:4
OverallDifficulty:7.5
ApproachRate:5
SliderMultiplier:1.4
SliderTickRate:1

[Events]
//Background and Video events
0,0,"maxresdefault.jpg",0,0
//Break Periods
//Storyboard Layer 0 (Background)
//Storyboard Layer 1 (Fail)
//Storyboard Layer 2 (Pass)
//Storyboard Layer 3 (Foreground)
//Storyboard Layer 4 (Overlay)
//Storyboard Sound Samples

[TimingPoints]
450,235.294117647059,4,3,1,50,1,0
15513,235.294117647059,4,3,1,50,1,0
30571,-100,4,3,1,50,0,1
38101,-100,4,3,1,50,0,0

[HitObjects]
64,192,450,5,0,0:0:0:50:W.wav
320,192,450,128,0,626:0:0:0:40:crash.wav
448,192,450,128,0,626:0:0:0:0:
192,192,685,1,0,0:0:0:30:C.wav
320,192,685,128,0,802:0:0:0:0:
448,192,685,128,0,920:0:0:0:0:
64,192,802,1,0,0:0:0:50:W.wav
192,192,802,1,0,0:0:0:0:
64,192,920,128,0,1155:0:0:0:0:
192,192,1038,128,0,1273:0:0:0:0:
320,192,1155,128,0,1391:0:0:0:30:C.wav
448,192,1155,1,0,0:0:0:0:
448,192,1273,128,0,1391:0:0:0:0:
64,192,1391,128,0,1567:0:0:0:50:W.wav
192,192,1391,128,0,1567:0:0:0:0:
64,192,1626,128,0,1685:0:0:0:30:C.wav
192,192,1626,128,0,1685:0:0:0:0:
448,192,1626,1,0,0:0:0:0:
64,192,1744,128,0,1802:0:0:0:50:W.wav
192,192,1744,128,0,1802:0:0:0:0:
64,192,1861,128,0,1940:0:0:0:0:
192,192,1861,128,0,1940:0:0:0:0:
320,192,1940,128,0,2018:0:0:0:0:
64,192,2018,128,0,2097:0:0:0:0:
192,192,2097,1,0,0:0:0:30:C.wav
448,192,2097,128,0,2175:0:0:0:0:
64,192,2175,1,0,0:0:0:0:
320,192,2175,128,0,2253:0:0:0:0:
64,192,2253,1,0,0:0:0:0:
192,192,2253,128,0,2332:0:0:0:0:
320,192,2332,128,0,2450:0:0:0:50:W.wav
448,192,2332,128,0,2450:0:0:0:0:
192,192,2567,128,0,2626:0:0:0:30:C.wav
320,192,2567,1,0,0:0:0:0:
448,192,2567,128,0,2626:0:0:0:0:
192,192,2685,128,0,2744:0:0:0:50:W.wav
448,192,2685,128,0,2744:0:0:0:0:
192,192,2802,128,0,3038:0:0:0:0:
64,192,2920,128,0,3155:0:0:0:0:
320,192,3038,128,0,3273:0:0:0:30:C.wav
448,192,3038,1,0,0:0:0:0:
192,192,3155,128,0,3273:0:0:0:0:
64,192,3273,128,0,3391:0:0:0:50:W.wav
448,192,3273,128,0,3744:0:0:0:0:
192,192,3391,128,0,3508:0:0:0:0:
64,192,3508,1,0,0:0:0:30:C.wav
320,192,3508,128,0,3626:0:0:0:0:
64,192,3626,128,0,3744:0:0:0:50:W.wav
192,192,3626,1,0,0:0:0:0:
320,192,3744,128,0,3979:0:0:0:0:
192,192,3861,128,0,3979:0:0:0:0:
64,192,3979,128,0,4214:0:0:0:30:C.wav
448,192,3979,1,0,0:0:0:0:
192,192,4097,128,0,4214:0:0:0:0:
320,192,4214,128,0,4391:0:0:0:50:W.wav
448,192,4214,128,0,4391:0:0:0:0:
192,192,4450,1,0,0:0:0:30:C.wav
320,192,4450,128,0,4567:0:0:0:0:
448,192,4450,128,0,4685:0:0:0:0:
64,192,4567,1,0,0:0:0:50:W.wav
192,192,4567,1,0,0:0:0:0:
64,192,4685,128,0,4920:0:0:0:0:
192,192,4802,128,0,5038:0:0:0:0:
320,192,4920,128,0,5155:0:0:0:30:C.wav
448,192,4920,1,0,0:0:0:0:
448,192,5038,128,0,5155:0:0:0:0:
64,192,5155,128,0,5332:0:0:0:50:W.wav
192,192,5155,128,0,5332:0:0:0:0:
64,192,5391,128,0,5450:0:0:0:30:C.wav
192,192,5391,128,0,5450:0:0:0:0:
448,192,5391,1,0,0:0:0:0:
64,192,5508,128,0,5567:0:0:0:50:W.wav
192,192,5508,128,0,5567:0:0:0:0:
64,192,5626,1,0,0:0:0:0:
448,192,5626,1,0,0:0:0:0:
192,192,5704,1,0,0:0:0:0:
448,192,5704,1,0,0:0:0:0:
320,192,5783,1,0,0:0:0:0:
64,192,5861,1,0,0:0:0:30:C.wav
192,192,5861,1,0,0:0:0:0:
64,192,5940,1,0,0:0:0:0:
320,192,5940,1,0,0:0:0:0:
448,192,6018,1,0,0:0:0:0:
64,192,6097,128,0,6214:0:0:0:50:W.wav
192,192,6097,128,0,6214:0:0:0:0:
64,192,6332,128,0,6391:0:0:0:30:C.wav
320,192,6332,1,0,0:0:0:0:
448,192,6332,128,0,6391:0:0:0:0:
64,192,6450,128,0,6508:0:0:0:50:W.wav
448,192,6450,128,0,6508:0:0:0:0:
320,192,6567,128,0,6744:0:0:0:0:
192,192,6685,128,0,6861:0:0:0:0:
448,192,6685,128,0,6744:0:0:0:0:
64,192,6802,128,0,6861:0:0:0:30:C.wav
320,192,6802,128,0,6920:0:0:0:0:
192,192,6920,128,0,7038:0:0:0:0:
448,192,6920,128,0,6979:0:0:0:0:
64,192,7038,1,0,0:0:0:30:C.wav
320,192,7038,1,0,0:0:0:0:
448,192,7038,128,0,7450:0:0:0:0:
192,192,7155,1,0,0:0:0:0:
64,192,7273,1,0,0:0:0:30:C.wav
192,192,7273,128,0,7332:0:0:0:0:
320,192,7273,1,0,0:0:0:0:
320,192,7391,128,0,7450:0:0:0:0:
64,192,7508,128,0,7685:0:0:0:30:C.wav
448,192,7508,1,0,0:0:0:0:
192,192,7626,128,0,7685:0:0:0:30:C.wav
448,192,7626,1,0,0:0:0:0:
64,192,7744,128,0,7920:0:0:0:30:C.wav
448,192,7744,1,0,0:0:0:0:
192,192,7861,128,0,7920:0:0:0:30:C.wav
448,192,7861,1,0,0:0:0:0:
64,192,7979,1,0,0:0:0:50:W.wav
320,192,7979,128,0,8155:0:0:0:40:crash.wav
448,192,7979,128,0,8155:0:0:0:0:
192,192,8214,1,0,0:0:0:30:C.wav
320,192,8214,128,0,8332:0:0:0:0:
448,192,8214,128,0,8450:0:0:0:0:
64,192,8332,1,0,0:0:0:50:W.wav
192,192,8332,1,0,0:0:0:0:
64,192,8450,128,0,8685:0:0:0:0:
192,192,8567,128,0,8802:0:0:0:0:
320,192,8685,128,0,8920:0:0:0:30:C.wav
448,192,8685,1,0,0:0:0:0:
448,192,8802,128,0,8920:0:0:0:0:
64,192,8920,128,0,9097:0:0:0:50:W.wav
192,192,8920,128,0,9097:0:0:0:0:
64,192,9155,128,0,9214:0:0:0:30:C.wav
192,192,9155,128,0,9214:0:0:0:0:
448,192,9155,1,0,0:0:0:0:
64,192,9273,128,0,9332:0:0:0:50:W.wav
192,192,9273,128,0,9332:0:0:0:0:
64,192,9391,128,0,9469:0:0:0:0:
192,192,9391,128,0,9469:0:0:0:0:
320,192,9469,128,0,9548:0:0:0:0:
64,192,9548,128,0,9626:0:0:0:0:
192,192,9626,1,0,0:0:0:30:C.wav
448,192,9626,128,0,9704:0:0:0:0:
64,192,9704,1,0,0:0:0:0:
320,192,9704,128,0,9783:0:0:0:0:
64,192,9783,1,0,0:0:0:0:
192,192,9783,128,0,9861:0:0:0:0:
320,192,9861,128,0,9979:0:0:0:50:W.wav
448,192,9861,128,0,9979:0:0:0:0:
192,192,10097,128,0,10155:0:0:0:30:C.wav
320,192,10097,1,0,0:0:0:0:
448,192,10097,128,0,10155:0:0:0:0:
192,192,10214,128,0,10273:0:0:0:50:W.wav
448,192,10214,128,0,10273:0:0:0:0:
192,192,10332,128,0,10567:0:0:0:0:
64,192,10450,128,0,10685:0:0:0:0:
320,192,10567,128,0,10802:0:0:0:30:C.wav
448,192,10567,1,0,0:0:0:0:
192,192,10685,128,0,10802:0:0:0:0:
64,192,10802,128,0,10920:0:0:0:50:W.wav
448,192,10802,128,0,11273:0:0:0:0:
192,192,10920,128,0,11038:0:0:0:0:
64,192,11038,1,0,0:0:0:30:C.wav
320,192,11038,128,0,11155:0:0:0:0:
64,192,11155,128,0,11273:0:0:0:50:W.wav
192,192,11155,1,0,0:0:0:0:
320,192,11273,128,0,11508:0:0:0:0:
192,192,11391,128,0,11508:0:0:0:0:
64,192,11508,128,0,11744:0:0:0:30:C.wav
448,192,11508,1,0,0:0:0:0:
192,192,11626,128,0,11744:0:0:0:0:
320,192,11744,128,0,11920:0:0:0:50:W.wav
448,192,11744,128,0,11920:0:0:0:0:
192,192,11979,1,0,0:0:0:30:C.wav
320,192,11979,128,0,12097:0:0:0:0:
448,192,11979,128,0,12214:0:0:0:0:
64,192,12097,1,0,0:0:0:50:W.wav
192,192,12097,1,0,0:0:0:0:
64,192,12214,128,0,12450:0:0:0:0:
192,192,12332,128,0,12567:0:0:0:0:
320,192,12450,128,0,12685:0:0:0:30:C.wav
448,192,12450,1,0,0:0:0:0:
448,192,12567,128,0,12685:0:0:0:0:
64,192,12685,128,0,12861:0:0:0:50:W.wav
192,192,12685,128,0,12861:0:0:0:0:
64,192,12920,128,0,12979:0:0:0:30:C.wav
192,192,12920,128,0,12979:0:0:0:0:
448,192,12920,1,0,0:0:0:0:
64,192,13038,128,0,13097:0:0:0:50:W.wav
192,192,13038,128,0,13097:0:0:0:0:
64,192,13155,1,0,0:0:0:0:
448,192,13155,1,0,0:0:0:0:
192,192,13234,1,0,0:0:0:0:
448,192,13234,1,0,0:0:0:0:
320,192,13312,1,0,0:0:0:0:
64,192,13391,1,0,0:0:0:30:C.wav
192,192,13391,1,0,0:0:0:0:
64,192,13469,1,0,0:0:0:0:
320,192,13469,1,0,0:0:0:0:
448,192,13548,1,0,0:0:0:0:
64,192,13626,128,0,13802:0:0:0:50:W.wav
192,192,13626,128,0,13802:0:0:0:0:
320,192,13626,128,0,13744:0:0:0:0:
64,192,13861,128,0,14038:0:0:0:50:W.wav
192,192,13861,128,0,14038:0:0:0:0:
320,192,13861,128,0,13964:0:0:0:0:
64,192,14097,128,0,14273:0:0:0:50:W.wav
192,192,14097,128,0,14273:0:0:0:0:
320,192,14097,128,0,14185:0:0:0:0:
64,192,14332,128,0,14508:0:0:0:50:W.wav
192,192,14332,128,0,14508:0:0:0:0:
320,192,14332,128,0,14391:0:0:0:0:
320,192,14567,128,0,14685:0:0:0:50:W.wav
448,192,14567,128,0,14685:0:0:0:0:
192,192,14626,128,0,14685:0:0:0:0:
320,192,14802,128,0,14979:0:0:0:50:W.wav
448,192,14802,128,0,14979:0:0:0:0:
192,192,14861,128,0,14950:0:0:0:0:
320,192,15038,128,0,15214:0:0:0:50:W.wav
448,192,15038,128,0,15214:0:0:0:0:
192,192,15097,128,0,15214:0:0:0:0:
64,192,15273,128,0,15513:0:0:0:50:W.wav
320,192,15273,128,0,15450:0:0:0:35:C5H_s.wav
192,192,15332,128,0,15450:0:0:0:0:
192,192,15513,1,0,0:0:0:50:W.wav
320,192,15513,128,0,15630:0:0:0:40:crash.wav
448,192,15513,128,0,15689:0:0:0:35:C6H_s.wav
64,192,15748,128,0,15807:0:0:0:30:C.wav
192,192,15748,1,0,0:0:0:35:B5H_s.wav
448,192,15748,128,0,15924:0:0:0:0:
64,192,15865,128,0,16101:0:0:0:50:W.wav
192,192,15865,128,0,15983:0:0:0:35:G5H_s.wav
320,192,15983,128,0,16101:0:0:0:0:
192,192,16101,128,0,16218:0:0:0:0:
64,192,16218,1,0,0:0:0:30:C.wav
320,192,16218,128,0,16454:0:0:0:35:G5H_s.wav
448,192,16218,128,0,16336:0:0:0:0:
64,192,16336,128,0,16630:0:0:0:0:
192,192,16454,128,0,16630:0:0:0:50:W.wav
448,192,16454,128,0,16689:0:0:0:35:G5H_s.wav
64,192,16689,1,0,0:0:0:30:C.wav
192,192,16689,128,0,16748:0:0:0:35:F5H_s.wav
320,192,16689,128,0,16924:0:0:0:0:
192,192,16807,128,0,17003:0:0:0:50:W.wav
448,192,16807,128,0,16865:0:0:0:35:E5H_s.wav
64,192,16924,128,0,17003:0:0:0:0:
448,192,16924,128,0,17003:0:0:0:0:
320,192,17003,128,0,17081:0:0:0:0:
192,192,17081,128,0,17160:0:0:0:0:
64,192,17160,128,0,17238:0:0:0:30:C.wav
320,192,17160,1,0,0:0:0:35:F5H_s.wav
448,192,17160,128,0,17395:0:0:0:0:
192,192,17238,128,0,17316:0:0:0:0:
320,192,17316,128,0,17395:0:0:0:0:
64,192,17395,128,0,17630:0:0:0:50:W.wav
192,192,17395,128,0,17513:0:0:0:35:G5H_s.wav
192,192,17630,1,0,0:0:0:30:C.wav
320,192,17630,128,0,17689:0:0:0:35:C5H_s.wav
448,192,17630,128,0,17865:0:0:0:0:
192,192,17748,1,0,0:0:0:50:W.wav
320,192,17748,128,0,17807:0:0:0:0:
64,192,17865,128,0,18277:0:0:0:35:F5H_s.wav
320,192,17865,128,0,18042:0:0:0:0:
448,192,17983,128,0,18160:0:0:0:0:
192,192,18101,1,0,0:0:0:30:C.wav
320,192,18101,128,0,18336:0:0:0:0:
448,192,18218,128,0,18336:0:0:0:0:
64,192,18336,128,0,18571:0:0:0:50:W.wav
192,192,18336,128,0,18513:0:0:0:35:E5H_s.wav
320,192,18454,128,0,18571:0:0:0:0:
192,192,18571,128,0,18689:0:0:0:30:C.wav
448,192,18571,1,0,0:0:0:0:
320,192,18689,128,0,18807:0:0:0:50:W.wav
448,192,18689,1,0,0:0:0:0:
64,192,18807,128,0,18983:0:0:0:0:
192,192,18924,128,0,19042:0:0:0:0:
64,192,19042,1,0,0:0:0:30:C.wav
320,192,19042,128,0,19218:0:0:0:35:C5H_s.wav
448,192,19042,128,0,19160:0:0:0:0:
192,192,19160,128,0,19277:0:0:0:35:D5H_s.wav
64,192,19277,128,0,19513:0:0:0:50:W.wav
448,192,19277,128,0,19454:0:0:0:35:E5H_s.wav
192,192,19513,128,0,19748:0:0:0:30:C.wav
320,192,19513,1,0,0:0:0:35:F5H_s.wav
448,192,19513,128,0,19689:0:0:0:0:
64,192,19630,128,0,19748:0:0:0:50:W.wav
320,192,19630,1,0,0:0:0:0:
448,192,19748,128,0,19983:0:0:0:35:F5H_s.wav
64,192,19865,128,0,19983:0:0:0:0:
192,192,19983,128,0,20101:0:0:0:30:C.wav
320,192,19983,128,0,20160:0:0:0:35:F5H_s.wav
64,192,20101,128,0,20395:0:0:0:0:
192,192,20218,128,0,20395:0:0:0:50:W.wav
320,192,20218,128,0,20454:0:0:0:35:E5H_s.wav
64,192,20454,1,0,0:0:0:30:C.wav
192,192,20454,128,0,20513:0:0:0:35:D5H_s.wav
448,192,20454,128,0,20689:0:0:0:0:
192,192,20571,128,0,20689:0:0:0:50:W.wav
320,192,20571,128,0,20630:0:0:0:35:C5H_s.wav
64,192,20689,128,0,20767:0:0:0:0:
320,192,20689,128,0,20767:0:0:0:0:
448,192,20767,128,0,20846:0:0:0:0:
64,192,20846,128,0,20924:0:0:0:0:
192,192,20924,128,0,21003:0:0:0:30:C.wav
448,192,20924,128,0,21081:0:0:0:35:C5H_s.wav
320,192,21003,128,0,21160:0:0:0:0:
192,192,21081,128,0,21160:0:0:0:0:
64,192,21160,128,0,21395:0:0:0:50:W.wav
448,192,21160,128,0,21277:0:0:0:35:E5H_s.wav
192,192,21395,1,0,0:0:0:30:C.wav
320,192,21395,128,0,21630:0:0:0:35:F5H_s.wav
448,192,21395,128,0,21454:0:0:0:0:
64,192,21513,1,0,0:0:0:50:W.wav
448,192,21513,128,0,21571:0:0:0:0:
192,192,21630,128,0,21865:0:0:0:35:E5H_s.wav
320,192,21748,128,0,21807:0:0:0:0:
64,192,21865,128,0,21924:0:0:0:30:C.wav
320,192,21865,1,0,0:0:0:35:C6H_s.wav
448,192,21865,128,0,22218:0:0:0:0:
192,192,21983,128,0,22042:0:0:0:0:
64,192,22101,1,0,0:0:0:30:C.wav
320,192,22101,128,0,22218:0:0:0:0:
192,192,22101,1,0,0:0:0:0:
64,192,22218,1,0,0:0:0:0:
448,192,22336,128,0,22513:0:0:0:30:C.wav
192,192,22336,1,0,0:0:0:35:B5H_s.wav
320,192,22336,128,0,22395:0:0:0:0:
192,192,22454,128,0,22513:0:0:0:0:
448,192,22571,1,0,0:0:0:30:C.wav
192,192,22571,128,0,22748:0:0:0:35:G5H_s.wav
320,192,22571,1,0,0:0:0:0:
64,192,22689,128,0,22748:0:0:0:30:C.wav
448,192,22689,1,0,0:0:0:0:
64,192,22807,128,0,22983:0:0:0:30:C.wav
448,192,22807,1,0,0:0:0:35:C5H_s.wav
192,192,22924,128,0,22983:0:0:0:30:C.wav
448,192,22924,1,0,0:0:0:0:
64,192,23042,128,0,23218:0:0:0:50:W.wav
192,192,23042,128,0,23160:0:0:0:50:crash.wav
448,192,23042,1,0,0:0:0:35:C6H_s.wav
64,192,23277,128,0,23454:0:0:0:30:C.wav
320,192,23277,1,0,0:0:0:35:B5H_s.wav
448,192,23277,128,0,23336:0:0:0:0:
320,192,23395,128,0,23513:0:0:0:50:W.wav
448,192,23395,128,0,23630:0:0:0:35:G5H_s.wav
192,192,23513,128,0,23630:0:0:0:0:
320,192,23630,128,0,23748:0:0:0:0:
64,192,23748,128,0,23865:0:0:0:30:C.wav
192,192,23748,128,0,23983:0:0:0:35:G5H_s.wav
448,192,23748,1,0,0:0:0:0:
448,192,23865,128,0,24160:0:0:0:0:
64,192,23983,128,0,24218:0:0:0:50:W.wav
320,192,23983,128,0,24160:0:0:0:35:G5H_s.wav
192,192,24218,128,0,24454:0:0:0:30:C.wav
320,192,24218,128,0,24277:0:0:0:35:F5H_s.wav
448,192,24218,1,0,0:0:0:0:
64,192,24336,128,0,24395:0:0:0:50:W.wav
320,192,24336,128,0,24532:0:0:0:35:E5H_s.wav
64,192,24454,128,0,24532:0:0:0:0:
448,192,24454,128,0,24532:0:0:0:0:
192,192,24532,128,0,24611:0:0:0:0:
320,192,24611,128,0,24689:0:0:0:0:
64,192,24689,128,0,24924:0:0:0:30:C.wav
192,192,24689,1,0,0:0:0:35:F5H_s.wav
448,192,24689,128,0,24767:0:0:0:0:
320,192,24767,128,0,24846:0:0:0:0:
192,192,24846,128,0,24924:0:0:0:0:
320,192,24924,128,0,25042:0:0:0:50:W.wav
448,192,24924,128,0,25160:0:0:0:35:G5H_s.wav
64,192,25160,128,0,25395:0:0:0:30:C.wav
192,192,25160,128,0,25218:0:0:0:35:C5H_s.wav
320,192,25160,1,0,0:0:0:0:
192,192,25277,128,0,25336:0:0:0:50:W.wav
320,192,25277,1,0,0:0:0:0:
192,192,25395,128,0,25571:0:0:0:35:F5H_s.wav
448,192,25395,128,0,25571:0:0:0:0:
64,192,25513,128,0,25689:0:0:0:0:
192,192,25630,128,0,25865:0:0:0:30:C.wav
320,192,25630,1,0,0:0:0:0:
448,192,25630,1,0,0:0:0:0:
320,192,25748,128,0,25924:0:0:0:35:F5H_s.wav
64,192,25865,128,0,26042:0:0:0:50:W.wav
448,192,25865,128,0,26101:0:0:0:35:E5H_s.wav
320,192,25983,128,0,26101:0:0:0:0:
64,192,26101,128,0,26218:0:0:0:30:C.wav
192,192,26101,1,0,0:0:0:0:
192,192,26218,128,0,26336:0:0:0:50:W.wav
448,192,26218,1,0,0:0:0:0:
320,192,26336,128,0,26513:0:0:0:0:
448,192,26454,128,0,26571:0:0:0:0:
64,192,26571,128,0,26689:0:0:0:30:C.wav
192,192,26571,128,0,26807:0:0:0:35:C5H_s.wav
320,192,26571,1,0,0:0:0:0:
320,192,26689,128,0,26807:0:0:0:35:D5H_s.wav
64,192,26807,128,0,26983:0:0:0:50:W.wav
448,192,26807,128,0,27042:0:0:0:35:E5H_s.wav
64,192,27042,128,0,27218:0:0:0:30:C.wav
192,192,27042,1,0,0:0:0:35:F5H_s.wav
320,192,27042,128,0,27277:0:0:0:0:
192,192,27160,1,0,0:0:0:50:W.wav
448,192,27160,128,0,27277:0:0:0:0:
64,192,27277,128,0,27513:0:0:0:35:E5H_s.wav
448,192,27395,128,0,27513:0:0:0:0:
192,192,27513,128,0,27748:0:0:0:30:C.wav
320,192,27513,128,0,27630:0:0:0:35:F5H_s.wav
448,192,27630,128,0,27924:0:0:0:0:
64,192,27748,128,0,27924:0:0:0:50:W.wav
320,192,27748,128,0,27983:0:0:0:35:E5H_s.wav
64,192,27983,1,0,0:0:0:30:C.wav
192,192,27983,128,0,28160:0:0:0:35:D5H_s.wav
448,192,27983,128,0,28042:0:0:0:0:
320,192,28101,128,0,28160:0:0:0:50:W.wav
448,192,28101,128,0,28218:0:0:0:35:C5H_s.wav
64,192,28218,128,0,28297:0:0:0:0:
192,192,28218,128,0,28297:0:0:0:0:
448,192,28297,128,0,28375:0:0:0:0:
320,192,28375,128,0,28454:0:0:0:0:
64,192,28454,128,0,28611:0:0:0:30:C.wav
192,192,28454,128,0,28532:0:0:0:35:F5H_s.wav
448,192,28454,1,0,0:0:0:0:
320,192,28532,128,0,28611:0:0:0:0:
192,192,28611,128,0,28689:0:0:0:0:
64,192,28689,128,0,28807:0:0:0:50:W.wav
320,192,28689,128,0,28865:0:0:0:0:
448,192,28689,128,0,28865:0:0:0:0:
192,192,28807,128,0,29042:0:0:0:35:F5H_s.wav
64,192,28924,128,0,29101:0:0:0:50:W.wav
320,192,28924,128,0,29042:0:0:0:35:E5H_s.wav
448,192,28924,128,0,29101:0:0:0:0:
64,192,29160,128,0,29336:0:0:0:50:W.wav
320,192,29160,128,0,29277:0:0:0:0:
448,192,29160,128,0,29336:0:0:0:0:
192,192,29395,128,0,29571:0:0:0:50:W.wav
320,192,29395,128,0,29748:0:0:0:35:C6H_s.wav
448,192,29395,128,0,29513:0:0:0:0:
64,192,29630,128,0,29924:0:0:0:50:W.wav
448,192,29630,128,0,29748:0:0:0:0:
192,192,29689,128,0,29807:0:0:0:0:
320,192,29865,128,0,30218:0:0:0:50:W.wav
448,192,29865,128,0,30042:0:0:0:35:C6H_s.wav
192,192,29924,128,0,30042:0:0:0:0:
64,192,30101,128,0,30277:0:0:0:50:W.wav
448,192,30101,128,0,30454:0:0:0:35:B5H_s.wav
192,192,30160,128,0,30277:0:0:0:0:
64,192,30336,128,0,30454:0:0:0:50:W.wav
320,192,30336,128,0,30513:0:0:0:35:G5H_s.wav
192,192,30395,128,0,30571:0:0:0:0:
64,192,30571,1,0,0:0:0:50:W.wav
320,192,30571,128,0,30689:0:0:0:40:crash.wav
448,192,30571,128,0,30807:0:0:0:0:
192,192,30689,128,0,30807:0:0:0:0:
64,192,30807,128,0,30924:0:0:0:30:C.wav
320,192,30807,1,0,0:0:0:0:
192,192,30924,1,0,0:0:0:50:W.wav
448,192,30924,128,0,31042:0:0:0:0:
64,192,31042,128,0,31120:0:0:0:0:
320,192,31042,128,0,31199:0:0:0:0:
448,192,31120,128,0,31199:0:0:0:0:
192,192,31199,128,0,31356:0:0:0:0:
64,192,31277,128,0,31356:0:0:0:30:C.wav
320,192,31277,1,0,0:0:0:0:
448,192,31356,128,0,31513:0:0:0:0:
64,192,31434,128,0,31513:0:0:0:0:
192,192,31513,128,0,31571:0:0:0:50:W.wav
320,192,31513,128,0,31571:0:0:0:0:
64,192,31630,128,0,31689:0:0:0:0:
320,192,31630,128,0,31689:0:0:0:0:
192,192,31748,128,0,31807:0:0:0:30:C.wav
320,192,31748,128,0,31807:0:0:0:0:
448,192,31748,1,0,0:0:0:0:
64,192,31865,128,0,31924:0:0:0:50:W.wav
320,192,31865,128,0,31924:0:0:0:0:
64,192,31983,128,0,32062:0:0:0:0:
448,192,31983,128,0,32140:0:0:0:0:
192,192,32062,128,0,32140:0:0:0:0:
320,192,32140,128,0,32218:0:0:0:0:
64,192,32218,1,0,0:0:0:30:C.wav
448,192,32218,128,0,32297:0:0:0:0:
192,192,32297,1,0,0:0:0:0:
320,192,32297,128,0,32375:0:0:0:0:
64,192,32375,128,0,32571:0:0:0:0:
192,192,32375,1,0,0:0:0:0:
320,192,32454,1,0,0:0:0:50:W.wav
448,192,32454,128,0,32571:0:0:0:0:
64,192,32689,128,0,32748:0:0:0:30:C.wav
192,192,32689,1,0,0:0:0:0:
448,192,32689,128,0,32748:0:0:0:0:
64,192,32807,128,0,32865:0:0:0:50:W.wav
448,192,32807,128,0,32865:0:0:0:0:
64,192,32924,128,0,33081:0:0:0:0:
448,192,32924,128,0,33003:0:0:0:0:
320,192,33003,128,0,33081:0:0:0:0:
192,192,33081,128,0,33160:0:0:0:0:
64,192,33160,128,0,33238:0:0:0:30:C.wav
448,192,33160,1,0,0:0:0:0:
192,192,33238,128,0,33395:0:0:0:0:
320,192,33316,128,0,33395:0:0:0:0:
64,192,33395,128,0,33807:0:0:0:50:W.wav
448,192,33395,128,0,33454:0:0:0:0:
448,192,33513,128,0,33571:0:0:0:0:
320,192,33630,1,0,0:0:0:30:C.wav
448,192,33630,128,0,33689:0:0:0:0:
192,192,33748,1,0,0:0:0:50:W.wav
448,192,33748,128,0,33807:0:0:0:0:
64,192,33865,128,0,34101:0:0:0:0:
320,192,33865,128,0,33924:0:0:0:0:
320,192,33983,128,0,34042:0:0:0:0:
192,192,34101,128,0,34160:0:0:0:30:C.wav
448,192,34101,128,0,34336:0:0:0:0:
192,192,34218,128,0,34277:0:0:0:0:
64,192,34336,128,0,34454:0:0:0:50:W.wav
320,192,34336,128,0,34454:0:0:0:0:
64,192,34571,128,0,34630:0:0:0:30:C.wav
192,192,34571,128,0,34630:0:0:0:0:
448,192,34571,1,0,0:0:0:0:
64,192,34689,128,0,34748:0:0:0:50:W.wav
192,192,34689,128,0,34748:0:0:0:0:
64,192,34807,128,0,34963:0:0:0:0:
320,192,34807,1,0,0:0:0:0:
320,192,34885,128,0,34963:0:0:0:0:
448,192,34963,128,0,35120:0:0:0:0:
64,192,35042,128,0,35199:0:0:0:30:C.wav
192,192,35042,1,0,0:0:0:0:
192,192,35120,128,0,35199:0:0:0:0:
448,192,35199,128,0,35395:0:0:0:0:
64,192,35277,128,0,35454:0:0:0:50:W.wav
320,192,35277,128,0,35454:0:0:0:0:
64,192,35513,128,0,35571:0:0:0:30:C.wav
320,192,35513,128,0,35571:0:0:0:0:
448,192,35513,1,0,0:0:0:0:
64,192,35630,128,0,35689:0:0:0:50:W.wav
320,192,35630,128,0,35689:0:0:0:0:
192,192,35748,128,0,35826:0:0:0:0:
320,192,35748,128,0,35826:0:0:0:0:
448,192,35826,128,0,35905:0:0:0:0:
192,192,35905,128,0,35983:0:0:0:0:
320,192,35983,128,0,36062:0:0:0:30:C.wav
448,192,35983,1,0,0:0:0:0:
64,192,36062,128,0,36140:0:0:0:0:
320,192,36140,128,0,36218:0:0:0:0:
192,192,36218,128,0,36336:0:0:0:50:W.wav
448,192,36218,128,0,36336:0:0:0:0:
64,192,36454,128,0,36513:0:0:0:30:C.wav
192,192,36454,1,0,0:0:0:0:
448,192,36454,128,0,36513:0:0:0:0:
64,192,36571,128,0,36630:0:0:0:50:W.wav
448,192,36571,128,0,36630:0:0:0:0:
320,192,36689,128,0,36865:0:0:0:0:
192,192,36807,128,0,36983:0:0:0:0:
448,192,36807,128,0,36865:0:0:0:0:
64,192,36924,128,0,36983:0:0:0:30:C.wav
320,192,36924,128,0,37042:0:0:0:0:
192,192,37042,128,0,37160:0:0:0:0:
448,192,37042,128,0,37101:0:0:0:0:
64,192,37160,1,0,0:0:0:30:C.wav
320,192,37160,1,0,0:0:0:0:
448,192,37160,128,0,37571:0:0:0:0:
192,192,37277,1,0,0:0:0:0:
64,192,37395,1,0,0:0:0:30:C.wav
192,192,37395,128,0,37454:0:0:0:0:
320,192,37395,1,0,0:0:0:0:
320,192,37513,128,0,37571:0:0:0:0:
64,192,37630,128,0,37807:0:0:0:30:C.wav
320,192,37630,1,0,0:0:0:0:
448,192,37630,1,0,0:0:0:0:
192,192,37748,128,0,37807:0:0:0:0:
64,192,37865,128,0,38042:0:0:0:30:C.wav
320,192,37865,1,0,0:0:0:0:
448,192,37865,1,0,0:0:0:0:
192,192,37983,128,0,38042:0:0:0:0:
448,192,38101,1,0,0:0:0:0:
320,192,38160,1,0,0:0:0:0:
