osu file format v14

[General]
AudioFilename: audio.mp3
AudioLeadIn: 0
PreviewTime: 25834
Countdown: 0
SampleSet: Normal
StackLeniency: 0.7
Mode: 1
LetterboxInBreaks: 0
EpilepsyWarning: 1
WidescreenStoryboard: 0

[Editor]
Bookmarks: 15149,25876
DistanceSpacing: 1.2
BeatDivisor: 2
GridSize: 4
TimelineZoom: 1.3

[Metadata]
Title:disculpaa
TitleUnicode:disculpaa
Artist:Shikitashi
ArtistUnicode:Shikitashi
Creator:[-E S I A-]
Version:futsuu
Source:beatmania IIDX 12 HAPPY SKY
Tags:sigsig korsk kors k videogame video game electronic instrumental konami bemani meme novelty 鬼畜 音mad otomad oto-mad 音MAD ytp ytpmv youtube poop La mejor batalla de rap | batalla de gallos chile chilean spanish E_S_I_A [-E_S_I_A-] ESIA [-ESIA-]
BeatmapID:4096746
BeatmapSetID:1974048

[Difficulty]
HPDrainRate:9.5
CircleSize:2
OverallDifficulty:4
ApproachRate:10
SliderMultiplier:1.4
SliderTickRate:1

[Events]
//Background and Video events
Video,-300,"dis.mp4"
0,0,"bg.jpg",0,30
//Break Periods
//Storyboard Layer 0 (Background)
//Storyboard Layer 1 (Fail)
//Storyboard Layer 2 (Pass)
//Storyboard Layer 3 (Foreground)
//Storyboard Layer 4 (Overlay)
//Storyboard Sound Samples

[TimingPoints]
-255,335.195530726257,4,1,0,80,1,0
415,-100,4,1,0,75,0,0
750,-100,4,1,0,70,0,0
1085,-100,4,1,0,65,0,0
1420,-100,4,1,0,60,0,0
1755,-100,4,1,0,55,0,0
2091,-100,4,1,0,50,0,0
2426,-100,4,1,0,45,0,0
2761,-100,4,1,0,40,0,0
3767,335.195530726257,4,1,0,80,1,8
4437,335.195530726257,4,1,0,80,1,0
25889,-100,4,1,0,90,0,1
47342,-100,4,1,0,40,0,0
47509,-100,4,1,0,40,0,0

[HitObjects]
256,192,80,12,0,2761,0:0:0:0:
487,163,4437,5,4,0:0:0:0:
326,158,4772,1,0,0:0:0:0:
242,169,4939,1,8,0:0:0:0:
208,244,5442,1,0,0:0:0:0:
286,214,5610,1,8,0:0:0:0:
326,158,5777,1,0,0:0:0:0:
300,139,6112,1,0,0:0:0:0:
266,216,6280,1,8,0:0:0:0:
375,169,6783,1,8,0:0:0:0:
375,169,6950,1,8,0:0:0:0:
290,166,7118,1,0,0:0:0:0:
275,282,7453,1,0,0:0:0:0:
218,226,7621,1,8,0:0:0:0:
292,185,8124,1,8,0:0:0:0:
329,161,8459,1,0,0:0:0:0:
323,171,8794,1,8,0:0:0:0:
281,200,9129,1,0,0:0:0:0:
220,215,9800,1,0,0:0:0:0:
171,236,10135,1,0,0:0:0:0:
204,225,10302,1,8,0:0:0:0:
262,198,10805,1,0,0:0:0:0:
262,198,10973,1,8,0:0:0:0:
91,253,11140,1,0,0:0:0:0:
142,243,11476,1,0,0:0:0:0:
262,198,11643,1,8,0:0:0:0:
237,229,12146,1,8,0:0:0:0:
237,229,12314,1,8,0:0:0:0:
247,205,12481,1,0,0:0:0:0:
247,205,12816,1,0,0:0:0:0:
264,264,12984,1,8,0:0:0:0:
240,234,13487,1,0,0:0:0:0:
300,226,13654,1,8,0:0:0:0:
259,201,13822,1,0,0:0:0:0:
164,276,14157,1,8,0:0:0:0:
222,271,14492,1,0,0:0:0:0:
198,275,15163,1,0,0:0:0:0:
262,277,15498,1,0,0:0:0:0:
226,182,15833,1,8,0:0:0:0:
226,182,16168,1,8,0:0:0:0:
229,216,16504,1,0,0:0:0:0:
254,185,16839,1,0,0:0:0:0:
226,182,17174,1,8,0:0:0:0:
242,221,17844,1,0,0:0:0:0:
242,221,18180,1,8,0:0:0:0:
242,221,18515,1,0,0:0:0:0:
242,221,18850,1,8,0:0:0:0:
242,221,19185,1,0,0:0:0:0:
242,221,19520,1,0,0:0:0:0:
242,221,19855,1,8,0:0:0:0:
242,221,20526,1,0,0:0:0:0:
242,221,20861,1,0,0:0:0:0:
242,221,21196,1,8,0:0:0:0:
242,221,21531,1,8,0:0:0:0:
242,221,21867,1,0,0:0:0:0:
242,221,22202,1,0,0:0:0:0:
242,221,22537,1,8,0:0:0:0:
242,221,23207,1,0,0:0:0:0:
242,221,23543,1,8,0:0:0:0:
242,221,23878,1,0,0:0:0:0:
242,221,24213,1,8,0:0:0:0:
242,221,24548,1,0,0:0:0:0:
242,221,24883,1,0,0:0:0:0:
242,221,25219,1,8,0:0:0:0:
290,166,25889,5,4,0:0:0:0:
290,166,26224,1,8,0:0:0:0:
374,168,26392,1,8,0:0:0:0:
332,166,26559,1,0,0:0:0:0:
328,182,26895,1,8,0:0:0:0:
272,245,27230,1,0,0:0:0:0:
113,189,27565,1,0,0:0:0:0:
197,192,27900,1,8,0:0:0:0:
259,239,28571,1,8,0:0:0:0:
408,185,28906,1,0,0:0:0:0:
224,185,29073,1,0,0:0:0:0:
113,160,29241,1,8,0:0:0:0:
152,186,29576,1,0,0:0:0:0:
152,186,29911,1,8,0:0:0:0:
242,198,30247,1,0,0:0:0:0:
224,185,30582,1,8,0:0:0:0:
242,198,30749,1,8,0:0:0:0:
242,202,30917,1,8,0:0:0:0:
225,198,31252,1,0,0:0:0:0:
284,209,31587,1,8,0:0:0:0:
183,205,31755,1,8,0:0:0:0:
212,261,31923,1,0,0:0:0:0:
64,179,32258,1,0,0:0:0:0:
211,200,32593,1,8,0:0:0:0:
64,179,32928,1,0,0:0:0:0:
301,185,33263,1,8,0:0:0:0:
92,174,33934,1,8,0:0:0:0:
194,185,34269,1,0,0:0:0:0:
273,198,34437,1,0,0:0:0:0:
193,212,34604,1,8,0:0:0:0:
313,183,34939,1,8,0:0:0:0:
273,198,35274,1,0,0:0:0:0:
163,247,35610,1,8,0:0:0:0:
313,183,35945,1,8,0:0:0:0:
295,237,36112,1,8,0:0:0:0:
334,260,36280,1,8,0:0:0:0:
261,199,36615,1,4,0:0:0:0:
292,191,36950,1,8,0:0:0:0:
239,185,37118,1,8,0:0:0:0:
186,222,37286,1,0,0:0:0:0:
294,177,37621,1,8,0:0:0:0:
282,250,37956,1,0,0:0:0:0:
231,242,38291,1,8,0:0:0:0:
191,251,38459,1,0,0:0:0:0:
269,271,38626,1,8,0:0:0:0:
269,271,39297,1,8,0:0:0:0:
276,189,39632,1,0,0:0:0:0:
304,187,39800,1,0,0:0:0:0:
323,195,39967,1,8,0:0:0:0:
319,222,40302,1,0,0:0:0:0:
276,178,40638,1,8,0:0:0:0:
356,202,40973,1,0,0:0:0:0:
276,178,41140,1,0,0:0:0:0:
262,189,41308,1,8,0:0:0:0:
176,196,41476,1,8,0:0:0:0:
176,196,41643,1,8,0:0:0:0:
219,182,41978,1,0,0:0:0:0:
282,180,42314,1,8,0:0:0:0:
219,195,42481,1,8,0:0:0:0:
308,231,42649,1,0,0:0:0:0:
240,222,42984,1,0,0:0:0:0:
219,195,43319,1,8,0:0:0:0:
240,222,43654,1,0,0:0:0:0:
337,241,43822,1,0,0:0:0:0:
191,254,43990,1,8,0:0:0:0:
243,238,44660,1,8,0:0:0:0:
327,213,44995,1,0,0:0:0:0:
188,236,45163,1,0,0:0:0:0:
277,211,45330,1,8,0:0:0:0:
299,224,45666,1,8,0:0:0:0:
277,211,46001,1,0,0:0:0:0:
299,224,46336,1,8,0:0:0:0:
299,224,46504,1,0,0:0:0:0:
228,235,46671,1,8,0:0:0:0:
266,185,46839,1,8,0:0:0:0:
266,185,47006,1,8,0:0:0:0:
256,192,47342,12,0,56057,0:0:0:0:
