osu file format v14

[General]
AudioFilename: .mp3
AudioLeadIn: 0
PreviewTime: -1
Countdown: 1
SampleSet: Soft
StackLeniency: 0.7
Mode: 0
LetterboxInBreaks: 0
WidescreenStoryboard: 1

[Editor]
DistanceSpacing: 2
BeatDivisor: 8
GridSize: 4
TimelineZoom: 2.999999

[Metadata]
Title:Super Ultra Hype Miracle Romatic
TitleUnicode:スーパーウルトラハイパーミラクルロマンチック
Artist:Shikishima Mirei (CV: Iguchi Yuka) & Tokonome Mamori (CV: Izawa Mikako)
ArtistUnicode:敷島魅零(CV:井口裕香)&処女まもり(CV:井澤美香子)
Creator:oohily
Version:oold
Source:
Tags:
BeatmapID:1167011
BeatmapSetID:394716

[Difficulty]
HPDrainRate:6
CircleSize:4.2
OverallDifficulty:8
ApproachRate:10
SliderMultiplier:2
SliderTickRate:1

[Events]
//Background and Video events
0,0,"yande.re 204137 ass bikini cleavage detexted misaki_kurehito swimsuits.jpg",0,0
//Break Periods
2,75964,84279
//Storyboard Layer 0 (Background)
//Storyboard Layer 1 (Fail)
//Storyboard Layer 2 (Pass)
//Storyboard Layer 3 (Foreground)
//Storyboard Sound Samples

[TimingPoints]
4040,344.827586206897,4,2,0,100,1,0
26453,-50,4,2,0,100,0,0
26798,-100,4,2,0,100,0,0
27143,-50,4,2,0,100,0,0
27488,-100,4,2,0,100,0,0
37143,-133.333333333333,4,2,0,100,0,0
37488,-50,4,2,0,100,0,0
37746,-133.333333333333,4,2,0,100,0,0
38177,-50,4,2,0,100,0,0
38436,-100,4,2,0,100,0,0
39557,-50,4,2,0,100,0,0
39902,-100,4,2,0,100,0,0
50936,-76.9230769230769,4,2,0,100,0,0
51281,-100,4,2,0,100,0,0
64557,-200,4,2,0,100,0,0
64902,-100,4,2,0,100,0,0
65764,-50,4,2,0,100,0,0
65936,-100,4,2,0,100,0,0
70764,-50,4,2,0,100,0,0
70979,-100,4,2,0,100,0,0
93005,-133.333333333333,4,2,0,100,0,0
93350,-57.1428571428571,4,2,0,100,0,0
93695,-133.333333333333,4,2,0,100,0,0
94040,-57.1428571428571,4,2,0,100,0,0
94384,-100,4,2,0,100,0,0
104040,-133.333333333333,4,2,0,100,0,0
104384,-57.1428571428571,4,2,0,100,0,0
104729,-133.333333333333,4,2,0,100,0,0
105074,-57.1428571428571,4,2,0,100,0,0
105333,-100,4,2,0,100,0,0
131453,-200,4,2,0,100,0,0
131798,-100,4,2,0,100,0,0
137660,-66.6666666666667,4,2,0,100,0,0
138177,-50,4,2,0,100,0,0
138695,-100,4,2,0,100,0,0
144384,-80,4,2,0,100,0,0
144729,-66.6666666666667,4,2,0,100,0,0
144988,-100,4,2,0,100,0,0
155764,-142.857142857143,4,2,0,100,0,0
156065,-100,4,2,0,100,0,0
172315,-200,4,2,0,100,0,0
172833,-100,4,2,0,100,0,0
181281,-200,4,2,0,100,0,0
181540,-100,4,2,0,100,0,0
192143,-200,4,2,0,100,0,0
192402,-100,4,2,0,100,0,0
199902,-133.333333333333,4,2,0,100,0,0
200505,-100,4,2,0,100,0,0
216108,-50,4,2,0,100,0,0

[HitObjects]
256,192,1281,6,0,B|224:180|196:152|208:88|308:88|316:156|288:180|256:192|256:192,1,200
160,172,1971,1,0,0:0:0:0:
352,212,2143,1,0,0:0:0:0:
76,228,2315,1,0,0:0:0:0:
436,156,2487,1,0,0:0:0:0:
256,192,2660,6,0,B|288:180|316:152|304:88|204:88|196:156|224:180|256:192|256:192,1,200
160,172,3350,1,0,0:0:0:0:
80,108,3522,1,0,0:0:0:0:
352,212,3695,1,0,0:0:0:0:
432,276,3867,1,0,0:0:0:0:
256,192,4039,12,0,5246,0:0:0:0:
232,172,5419,5,0,0:0:0:0:
280,212,5591,1,0,0:0:0:0:
166,170,5764,5,0,0:0:0:0:
345,213,5936,1,0,0:0:0:0:
109,234,6108,5,0,0:0:0:0:
402,149,6280,1,0,0:0:0:0:
107,345,6453,5,0,0:0:0:0:
181,270,6540,1,0,0:0:0:0:
255,195,6626,1,0,0:0:0:0:
329,120,6712,1,0,0:0:0:0:
403,45,6798,5,0,0:0:0:0:
250,69,6971,1,0,0:0:0:0:
275,223,7143,1,0,0:0:0:0:
428,198,7315,1,0,0:0:0:0:
403,45,7488,6,0,L|392:72,1,25
212,224,7660,2,0,L|233:211,1,25
472,292,7833,2,0,L|444:280,1,25
292,292,8005,5,0,0:0:0:0:
382,292,8177,1,0,0:0:0:0:
201,292,8350,5,0,0:0:0:0:
292,292,8522,1,0,0:0:0:0:
111,292,8695,5,0,0:0:0:0:
201,292,8867,1,0,0:0:0:0:
20,292,9040,5,0,0:0:0:0:
472,292,9212,1,0,0:0:0:0:
40,292,9384,5,0,0:0:0:0:
100,284,9471,1,0,0:0:0:0:
40,292,9557,2,0,P|32:240|72:216,1,100
472,92,9902,2,0,P|480:144|440:168,1,100
137,318,10246,1,0,0:0:0:0:
384,72,10419,1,0,0:0:0:0:
137,318,10591,1,0,0:0:0:0:
278,176,10764,1,0,0:0:0:0:
331,124,10850,1,0,0:0:0:0:
384,72,10936,1,0,0:0:0:0:
436,212,11108,1,0,0:0:0:0:
344,332,11281,1,0,0:0:0:0:
128,312,11453,1,0,0:0:0:0:
76,172,11625,1,0,0:0:0:0:
168,52,11798,1,0,0:0:0:0:
424,328,11971,5,0,0:0:0:0:
424,328,12057,1,0,0:0:0:0:
364,328,12143,1,0,0:0:0:0:
304,328,12229,1,0,0:0:0:0:
244,328,12315,2,0,L|120:328,1,100
268,56,12660,2,0,L|392:56,1,100
128,344,13005,1,0,0:0:0:0:
256,36,13177,1,0,0:0:0:0:
384,344,13350,1,0,0:0:0:0:
256,36,13522,1,0,0:0:0:0:
128,344,13695,1,0,0:0:0:0:
256,36,13867,1,0,0:0:0:0:
384,344,14040,1,0,0:0:0:0:
128,344,14212,1,0,0:0:0:0:
384,344,14384,1,0,0:0:0:0:
128,344,14557,1,0,0:0:0:0:
384,344,14729,1,0,0:0:0:0:
8,344,14902,5,0,0:0:0:0:
68,344,14988,1,0,0:0:0:0:
128,344,15074,2,0,P|176:368|236:368,1,100
384,40,15419,2,0,P|336:16|276:16,1,100
304,344,15764,1,0,0:0:0:0:
208,40,15936,1,0,0:0:0:0:
360,272,16108,1,0,0:0:0:0:
152,112,16281,1,0,0:0:0:0:
144,324,16626,1,0,0:0:0:0:
426,222,16798,1,0,0:0:0:0:
196,29,16971,1,0,0:0:0:0:
230,246,17143,1,0,0:0:0:0:
310,217,17315,1,0,0:0:0:0:
281,137,17488,1,0,0:0:0:0:
201,166,17660,1,0,0:0:0:0:
340,324,17833,5,0,0:0:0:0:
396,304,17919,1,0,0:0:0:0:
340,324,18005,1,0,0:0:0:0:
396,304,18091,1,0,0:0:0:0:
432,256,18177,1,0,0:0:0:0:
360,44,18522,5,0,0:0:0:0:
312,80,18608,1,0,0:0:0:0:
360,44,18694,1,0,0:0:0:0:
312,80,18780,1,0,0:0:0:0:
288,136,18867,1,0,0:0:0:0:
80,368,19212,5,0,0:0:0:0:
122,325,19298,1,0,0:0:0:0:
79,282,19384,1,0,0:0:0:0:
79,282,19471,1,0,0:0:0:0:
121,239,19557,2,0,P|148:196|120:160,1,100
79,118,19815,1,0,0:0:0:0:
121,75,19902,1,0,0:0:0:0:
37,325,20074,1,0,0:0:0:0:
163,32,20246,1,0,0:0:0:0:
432,64,20591,5,0,0:0:0:0:
403,92,20677,1,0,0:0:0:0:
322,92,20764,1,0,0:0:0:0:
293,120,20850,1,0,0:0:0:0:
213,120,20936,1,0,0:0:0:0:
220,280,21281,5,0,0:0:0:0:
191,308,21367,1,0,0:0:0:0:
110,308,21454,1,0,0:0:0:0:
81,336,21540,1,0,0:0:0:0:
1,336,21626,1,0,0:0:0:0:
88,28,21971,5,0,0:0:0:0:
88,28,22057,1,0,0:0:0:0:
144,48,22143,1,0,0:0:0:0:
200,68,22229,1,0,0:0:0:0:
99,102,22315,1,0,0:0:0:0:
99,102,22402,1,0,0:0:0:0:
155,122,22488,1,0,0:0:0:0:
211,142,22574,1,0,0:0:0:0:
300,188,22660,1,0,0:0:0:0:
392,152,22833,2,0,L|432:112,1,50
196,328,23005,1,0,0:0:0:0:
132,240,23177,1,0,0:0:0:0:
120,228,23264,1,0,0:0:0:0:
256,192,23350,12,0,25074,0:0:0:0:
296,328,25419,5,0,0:0:0:0:
373,245,25591,1,0,0:0:0:0:
296,328,25764,1,0,0:0:0:0:
332,312,25850,1,0,0:0:0:0:
360,283,25936,1,0,0:0:0:0:
373,245,26022,1,0,0:0:0:0:
376,204,26108,2,0,B|376:140|344:92|304:76|264:72,1,175
212,96,26453,2,0,B|116:16|36:36|36:224|160:224|212:96|212:96,1,350
272,140,26798,2,0,B|240:168|208:208|208:240|212:268|212:292|216:308,1,175
297,330,27143,2,0,B|296:328|356:420|444:404|472:268|384:264|296:328,1,300
260,344,27488,1,0,0:0:0:0:
220,348,27574,1,0,0:0:0:0:
180,344,27660,1,0,0:0:0:0:
144,328,27746,1,0,0:0:0:0:
124,292,27833,1,0,0:0:0:0:
373,292,28005,1,0,0:0:0:0:
48,192,28350,1,0,0:0:0:0:
464,192,28522,1,0,0:0:0:0:
216,120,28867,6,0,P|236:156|232:168,1,50
116,312,29040,2,0,P|96:284|104:268,1,50
56,48,29212,1,0,0:0:0:0:
372,224,29557,2,0,L|320:248,1,50
48,248,29729,2,0,L|104:216,1,50
304,24,29902,1,0,0:0:0:0:
340,360,30246,1,0,0:0:0:0:
380,328,30333,1,0,0:0:0:0:
416,296,30419,1,0,0:0:0:0:
447,264,30505,1,0,0:0:0:0:
300,256,30591,2,0,P|352:244|412:232,1,100
380,192,30850,1,0,0:0:0:0:
400,140,30936,1,0,0:0:0:0:
200,336,31108,1,0,0:0:0:0:
512,72,31281,1,0,0:0:0:0:
32,32,31626,6,0,L|84:32,1,50
340,248,31798,2,0,L|288:248,1,50
130,33,31971,1,0,0:0:0:0:
480,352,32315,6,0,L|424:352,1,50,0|0,0:3|0:3,0:3:0:0:
172,136,32487,2,0,L|224:136,1,50
382,351,32660,1,0,0:0:0:0:
180,224,33005,5,0,0:0:0:0:
111,236,33091,1,0,0:0:0:0:
53,197,33177,1,0,0:0:0:0:
40,128,33264,1,0,0:0:0:0:
80,70,33350,1,0,0:0:0:0:
149,57,33436,1,0,0:0:0:0:
206,97,33522,1,0,0:0:0:0:
219,166,33608,1,0,0:0:0:0:
56,332,33695,5,0,0:0:0:0:
56,52,33867,6,0,L|4:16,1,50
456,332,34040,1,0,0:0:0:0:
456,52,34212,5,0,0:0:0:0:
408,96,34298,1,0,0:0:0:0:
256,192,34384,12,0,36108,0:0:0:0:
240,128,36453,6,0,L|360:60,1,100
72,224,36712,1,0,0:0:0:0:
136,240,36798,2,0,L|240:268,1,100
184,56,37057,1,0,0:0:0:0:
244,76,37143,2,0,L|360:96,1,112.500004291535
420,112,37488,2,0,B|468:156|480:196|476:252|456:296,1,200
356,340,37746,1,0,0:0:0:0:
300,304,37833,2,0,L|208:248,1,93.7500035762788
116,196,38177,2,0,B|112:140|140:104|196:72|248:56,1,200
316,60,38436,1,0,0:0:0:0:
364,60,38522,2,0,L|416:20,1,50
408,216,38695,1,0,0:0:0:0:
368,248,38781,1,0,0:0:0:0:
332,280,38867,2,0,L|280:324,1,50
72,280,39040,2,0,L|128:232,1,50
112,44,39212,2,0,L|252:172,1,150
204,156,39557,2,0,B|132:160|100:208|136:264|216:260,1,200
400,152,39902,5,0,0:0:0:0:
252,216,40131,1,0,0:0:0:0:
180,252,40246,1,0,0:0:0:0:
160,92,40476,1,0,0:0:0:0:
228,48,40591,1,0,0:0:0:0:
348,156,40821,1,0,0:0:0:0:
400,220,40936,1,0,0:0:0:0:
244,324,41166,5,0,0:0:0:0:
164,328,41281,2,0,L|76:216,1,133.333333333333
76,128,41626,1,0,0:0:0:0:
124,48,41741,1,0,0:0:0:0:
216,36,41856,1,0,0:0:0:0:
308,52,41971,2,0,L|412:164,1,133.333333333333
436,236,42315,1,0,0:0:0:0:
392,320,42430,1,0,0:0:0:0:
300,332,42545,1,0,0:0:0:0:
232,296,42660,2,0,L|164:156,1,133.333333333333
204,76,43005,2,0,L|364:44,1,150
452,120,43350,2,0,L|360:256,1,150
264,240,43695,2,0,L|164:128,1,150
196,56,44040,5,0,0:0:0:0:
396,56,44212,5,0,0:0:0:0:
232,172,44384,5,0,0:0:0:0:
304,0,44557,5,0,0:0:0:0:
376,188,44729,5,0,0:0:0:0:
340,260,44844,1,0,0:0:0:0:
284,320,44959,1,0,0:0:0:0:
212,260,45074,1,0,0:0:0:0:
160,180,45189,1,0,0:0:0:0:
128,92,45304,1,0,0:0:0:0:
396,68,45419,5,0,0:0:0:0:
128,92,45591,2,0,L|64:88,1,50
384,224,45764,1,0,0:0:0:0:
128,92,45936,6,0,L|64:88,1,50
260,348,46108,1,0,0:0:0:0:
400,72,46281,2,0,L|448:16,1,50
84,220,46453,1,0,0:0:0:0:
400,72,46626,6,0,L|448:16,1,50
60,160,46798,1,0,0:0:0:0:
320,72,46971,1,0,0:0:0:0:
192,72,47143,1,0,0:0:0:0:
452,160,47315,1,0,0:0:0:0:
288,316,47488,1,0,0:0:0:0:
372,80,47660,1,0,0:0:0:0:
124,116,47833,1,0,0:0:0:0:
288,316,48005,1,0,0:0:0:0:
464,36,48177,1,0,0:0:0:0:
88,312,48522,2,0,L|60:340,1,25
92,144,48695,1,0,0:0:0:0:
264,324,48867,1,0,0:0:0:0:
476,36,49212,2,0,L|504:16,1,25
256,192,49384,1,0,0:0:0:0:
388,104,49557,1,0,0:0:0:0:
124,280,49729,1,0,0:0:0:0:
256,192,49902,1,0,0:0:0:0:
16,192,50074,1,0,0:0:0:0:
496,192,50246,1,0,0:0:0:0:
276,88,50419,6,0,L|232:60,1,50
268,124,50591,2,0,B|228:140|204:140|180:132|144:120|112:108|104:88,1,175
88,164,50936,2,0,B|104:192|104:192|132:200|132:200|164:204|204:196|268:180,1,194.999991073609
424,128,51281,1,0,0:0:0:0:
68,328,51453,1,0,0:0:0:0:
76,316,51540,1,0,0:0:0:0:
84,300,51626,1,0,0:0:0:0:
168,64,51798,1,0,0:0:0:0:
212,312,51971,1,0,0:0:0:0:
388,136,52143,2,0,L|364:84,1,50
420,204,52315,1,0,0:0:0:0:
180,136,52488,1,0,0:0:0:0:
232,236,52660,1,0,0:0:0:0:
416,64,52833,1,0,0:0:0:0:
112,232,53005,5,0,0:0:0:0:
108,272,53177,5,0,0:0:0:0:
140,256,53350,5,0,0:0:0:0:
372,164,53522,6,0,L|396:168,1,25
144,72,53695,1,0,0:0:0:0:
144,72,53781,1,0,0:0:0:0:
144,72,53867,1,0,0:0:0:0:
48,76,54040,2,0,L|28:56,1,25
316,264,54212,1,0,0:0:0:0:
316,264,54298,1,0,0:0:0:0:
316,264,54384,1,0,0:0:0:0:
352,332,54557,2,0,L|344:364,1,25
380,56,54729,1,0,0:0:0:0:
380,56,54815,1,0,0:0:0:0:
380,56,54902,1,0,0:0:0:0:
132,44,55074,1,0,0:0:0:0:
12,264,55246,1,0,0:0:0:0:
200,32,55419,1,0,0:0:0:0:
8,192,55591,1,0,0:0:0:0:
144,320,55764,1,0,0:0:0:0:
392,284,55936,1,0,0:0:0:0:
244,328,56108,1,0,0:0:0:0:
448,180,56281,1,0,0:0:0:0:
432,52,56453,5,0,0:0:0:0:
312,56,56626,1,0,0:0:0:0:
192,56,56798,1,0,0:0:0:0:
72,56,56971,1,0,0:0:0:0:
108,332,57143,1,0,0:0:0:0:
312,184,57315,1,0,0:0:0:0:
312,344,57488,1,0,0:0:0:0:
140,164,57660,1,0,0:0:0:0:
364,48,57833,6,0,L|264:136,1,100
176,296,58177,1,0,0:0:0:0:
112,252,58264,1,0,0:0:0:0:
44,220,58350,1,0,0:0:0:0:
112,192,58436,1,0,0:0:0:0:
176,152,58522,1,0,0:0:0:0:
440,16,58695,1,0,0:0:0:0:
176,152,58867,2,0,L|312:148,1,100
340,208,59126,1,0,0:0:0:0:
268,224,59212,1,0,0:0:0:0:
348,112,59384,2,0,L|420:200,1,100
284,40,59729,2,0,L|440:216,1,200
104,132,60246,1,0,0:0:0:0:
384,136,60419,2,0,B|448:96|448:96|384:144,1,150
64,276,60764,1,0,0:0:0:0:
472,216,60936,1,0,0:0:0:0:
72,92,61108,1,0,0:0:0:0:
332,352,61281,1,0,0:0:0:0:
52,316,61453,5,0,0:0:0:0:
464,36,61626,1,0,0:0:0:0:
136,300,61798,6,0,L|188:284,1,50
64,252,61971,2,0,L|244:204,1,150
440,152,62315,1,0,0:0:0:0:
16,208,62488,2,0,L|68:192,1,50
136,164,62660,1,0,0:0:0:0:
400,96,62833,1,0,0:0:0:0:
136,164,63005,1,0,0:0:0:0:
452,136,63177,2,0,L|400:180,1,50
160,332,63350,1,0,0:0:0:0:
352,52,63522,1,0,0:0:0:0:
36,100,63695,1,0,0:0:0:0:
476,284,63867,1,0,0:0:0:0:
368,120,64040,5,0,0:0:0:0:
256,192,64212,5,0,0:0:0:0:
144,264,64384,5,0,0:0:0:0:
400,64,64557,6,0,L|340:112,1,75
112,320,64902,1,0,0:0:0:0:
440,60,65074,5,0,0:0:0:0:
256,192,65246,1,0,0:0:0:0:
356,64,65419,5,0,0:0:0:0:
156,320,65591,1,0,0:0:0:0:
344,160,65764,2,0,L|120:256,1,200
464,40,66108,5,0,0:0:0:0:
44,328,66281,1,0,0:0:0:0:
488,32,66453,1,0,0:0:0:0:
16,348,66626,1,0,0:0:0:0:
16,348,66798,1,0,0:0:0:0:
440,72,66971,6,0,L|384:112,1,50
72,312,67143,1,0,0:0:0:0:
44,12,67488,1,0,0:0:0:0:
192,40,67660,1,0,0:0:0:0:
84,144,67833,1,0,0:0:0:0:
160,148,67919,1,0,0:0:0:0:
240,208,68005,1,0,0:0:0:0:
316,208,68091,1,0,0:0:0:0:
400,148,68177,2,0,P|448:80|452:48,1,100
304,112,68522,1,0,0:0:0:0:
228,104,68608,1,0,0:0:0:0:
180,164,68695,1,0,0:0:0:0:
212,232,68781,1,0,0:0:0:0:
284,244,68867,1,0,0:0:0:0:
468,164,69040,6,0,L|512:140,1,50
216,140,69212,1,0,0:0:0:0:
468,204,69384,6,0,L|520:176,1,50
140,244,69557,1,0,0:0:0:0:
468,244,69729,6,0,L|520:208,1,50
56,140,69902,1,0,0:0:0:0:
468,292,70074,6,0,L|512:260,1,50
0,244,70246,1,0,0:0:0:0:
504,136,70419,1,0,0:0:0:0:
160,228,70764,2,0,L|368:152,1,200
0,248,71281,1,0,0:0:0:0:
504,136,71454,1,0,0:0:0:0:
232,80,71798,1,0,0:0:0:0:
272,80,71971,1,0,0:0:0:0:
300,80,72143,1,0,0:0:0:0:
348,80,72315,2,0,B|328:116|324:128|324:128|260:128|212:128|212:128,1,150
176,128,72660,2,0,B|192:176|192:176|348:176,1,200
256,192,73091,12,0,75764,0:0:0:0:
180,108,84729,6,0,L|224:84,1,50
312,132,84902,2,0,L|292:72,1,50
384,32,85074,1,0,0:0:0:0:
160,188,85419,1,0,0:0:0:0:
260,180,85505,1,0,0:0:0:0:
356,200,85591,1,0,0:0:0:0:
388,104,85677,1,0,0:0:0:0:
456,28,85764,1,0,0:0:0:0:
128,296,86108,2,0,B|72:336|72:336|132:292,1,100
192,280,86367,1,0,0:0:0:0:
128,296,86453,2,0,B|72:336|72:336|132:292,1,100
192,280,86712,1,0,0:0:0:0:
232,228,86798,1,0,0:0:0:0:
164,360,86971,5,0,0:0:0:0:
88,100,87143,5,0,0:0:0:0:
352,64,87488,6,0,P|408:116|408:176,1,100
396,208,87746,1,0,0:0:0:0:
336,256,87833,1,0,0:0:0:0:
56,352,88005,2,0,L|96:320,1,50
268,112,88177,2,0,P|240:164|184:188,1,100
132,176,88436,1,0,0:0:0:0:
80,120,88522,1,0,0:0:0:0:
56,32,88695,2,0,L|96:64,1,50
368,40,88867,1,0,0:0:0:0:
412,100,88953,1,0,0:0:0:0:
428,176,89040,1,0,0:0:0:0:
412,248,89126,1,0,0:0:0:0:
384,276,89212,1,0,0:0:0:0:
348,296,89298,1,0,0:0:0:0:
312,312,89384,1,0,0:0:0:0:
276,328,89471,1,0,0:0:0:0:
56,348,89557,1,0,0:0:0:0:
352,212,89729,6,0,L|304:264,1,50
56,348,89902,1,0,0:0:0:0:
224,104,90074,6,0,P|172:140|172:140,1,50
256,192,90246,12,0,91626,0:0:0:0:
412,80,92315,6,0,L|396:136,1,50
398,128,92488,2,0,P|352:160|348:160,1,50
361,158,92660,2,0,L|288:152,1,50
56,112,92833,2,0,L|76:160,1,50
76,192,93005,2,0,B|144:216|180:220|192:212,1,112.500004291535
408,232,93350,2,0,B|336:276|280:284|148:248,1,262.500002503395
32,120,93695,2,0,B|72:156|124:168|144:160,1,112.500004291535
460,296,94040,2,0,B|372:336|280:336|200:280,1,262.500002503395
152,88,94384,1,0,0:0:0:0:
176,120,94471,1,0,0:0:0:0:
176,160,94557,1,0,0:0:0:0:
152,192,94643,1,0,0:0:0:0:
120,216,94729,1,0,0:0:0:0:
392,168,94902,1,0,0:0:0:0:
52,253,95246,1,0,0:3:0:0:
460,131,95419,1,0,0:3:0:0:
92,60,95764,6,0,L|168:48,1,50
180,44,95936,1,0,0:0:0:0:
220,40,96022,1,0,0:0:0:0:
340,20,96108,1,0,0:0:0:0:
264,244,96453,6,0,L|211:187,1,50
201,179,96625,1,0,0:0:0:0:
175,149,96711,1,0,0:0:0:0:
92,60,96797,1,0,0:0:0:0:
400,156,97143,5,0,0:0:0:0:
152,168,97315,1,0,0:0:0:0:
360,308,97488,1,0,0:0:0:0:
124,160,97660,5,0,0:0:0:0:
96,148,97746,1,0,0:0:0:0:
380,232,97833,1,0,0:0:0:0:
72,140,98005,5,0,0:0:0:0:
40,128,98091,1,0,0:0:0:0:
316,364,98177,1,0,0:0:0:0:
136,344,98522,5,0,0:0:0:0:
136,344,98608,1,0,0:0:0:0:
456,120,98781,1,0,0:0:0:0:
456,120,98867,1,0,0:0:0:0:
72,100,99040,1,0,0:0:0:0:
232,348,99212,5,0,0:0:0:0:
232,348,99298,1,0,0:0:0:0:
456,40,99471,1,0,0:0:0:0:
456,40,99557,1,0,0:0:0:0:
36,156,99729,1,0,0:0:0:0:
368,164,99902,2,0,L|292:84,1,100
156,256,100160,1,0,0:0:0:0:
196,296,100246,2,0,L|296:224,1,100
236,80,100505,1,0,0:0:0:0:
180,52,100591,2,0,L|156:176,1,100
344,168,100850,1,0,0:0:0:0:
296,212,100936,2,0,L|428:216,1,100
72,224,101195,5,0,0:0:0:0:
256,192,101281,12,0,102660,0:0:0:0:
400,100,103350,5,0,0:0:0:0:
380,172,103436,1,0,0:0:0:0:
320,216,103522,1,0,0:0:0:0:
248,236,103608,1,0,0:0:0:0:
268,208,103695,1,0,0:0:0:0:
296,188,103781,1,0,0:0:0:0:
328,176,103867,1,0,0:0:0:0:
364,172,103953,1,0,0:0:0:0:
384,200,104040,6,0,B|328:252|300:260|280:272,1,112.500004291535
132,212,104384,2,0,B|192:144|236:124|280:88,1,175.00000166893
464,184,104643,1,0,0:0:0:0:
444,252,104729,2,0,B|384:308|352:316|344:328,1,112.500004291535
92,148,105074,2,0,L|280:56,1,175.00000166893
212,160,105333,1,0,0:0:0:0:
240,148,105419,2,0,L|288:120,1,50
312,112,105591,1,0,0:0:0:0:
340,100,105677,1,0,0:0:0:0:
96,88,105764,1,0,0:0:0:0:
336,216,105936,1,0,0:0:0:0:
84,204,106108,1,0,0:0:0:0:
420,112,106453,6,0,L|372:128,1,50
112,88,106798,5,0,0:0:0:0:
168,252,107028,1,0,0:0:0:0:
76,212,107143,1,0,0:0:0:0:
372,152,107373,1,0,0:0:0:0:
280,196,107488,1,0,0:0:0:0:
296,60,107718,1,0,0:0:0:0:
392,32,107833,1,0,0:0:0:0:
428,228,108062,1,0,0:0:0:0:
344,280,108177,1,0,0:0:0:0:
244,280,108292,1,0,0:0:0:0:
160,228,108407,1,0,0:0:0:0:
108,140,108522,1,0,0:0:0:0:
312,80,108752,1,0,0:0:0:0:
352,172,108867,1,0,0:0:0:0:
300,260,108982,1,0,0:0:0:0:
200,268,109097,1,0,0:0:0:0:
128,200,109212,1,0,0:0:0:0:
276,20,109442,5,0,0:0:0:0:
356,52,109557,1,0,0:0:0:0:
412,120,109672,1,0,0:0:0:0:
404,208,109787,1,0,0:0:0:0:
332,252,109902,1,0,0:0:0:0:
252,224,110017,1,0,0:0:0:0:
324,180,110131,1,0,0:0:0:0:
380,248,110246,1,0,0:0:0:0:
328,316,110361,1,0,0:0:0:0:
240,320,110476,1,0,0:0:0:0:
160,284,110591,1,0,0:0:0:0:
100,224,110706,1,0,0:0:0:0:
156,192,110821,1,0,0:0:0:0:
196,244,110936,1,0,0:0:0:0:
248,192,111051,1,0,0:0:0:0:
288,256,111166,1,0,0:0:0:0:
348,200,111281,1,0,0:0:0:0:
404,264,111396,1,0,0:0:0:0:
484,232,111511,1,0,0:0:0:0:
464,212,111626,1,0,0:0:0:0:
444,192,111712,1,0,0:0:0:0:
419,167,111798,1,0,0:0:0:0:
394,142,111884,1,0,0:0:0:0:
369,117,111971,1,0,0:0:0:0:
326,159,112057,1,0,0:0:0:0:
283,201,112143,1,0,0:0:0:0:
240,243,112229,1,0,0:0:0:0:
36,352,112315,5,0,0:0:0:0:
124,164,112488,1,0,0:0:0:0:
108,104,112574,1,0,0:0:0:0:
80,208,112660,1,0,0:0:0:0:
304,176,112833,1,0,0:0:0:0:
352,136,112919,1,0,0:0:0:0:
304,240,113005,1,0,0:0:0:0:
188,64,113177,1,0,0:0:0:0:
264,76,113264,1,0,0:0:0:0:
336,88,113350,1,0,0:0:0:0:
112,148,113522,1,0,0:0:0:0:
256,190,113608,1,0,0:0:0:0:
400,236,113695,6,0,L|248:188,1,150
112,148,114040,6,0,L|264:192,1,150
384,128,114384,6,0,L|232:200,1,150
119,251,114729,6,0,L|272:181,1,150
460,172,115074,1,0,0:0:0:0:
256,112,115419,5,0,0:0:0:0:
325,232,115591,1,0,0:0:0:0:
186,232,115764,1,0,0:0:0:0:
423,99,116108,5,0,0:0:0:0:
320,244,116281,6,0,L|360:192,1,50
423,99,116453,1,0,0:0:0:0:
66,168,116626,1,0,0:0:0:0:
395,322,116798,1,0,0:0:0:0:
219,4,116971,1,0,0:0:0:0:
175,365,117143,1,0,0:0:0:0:
175,365,117488,6,0,L|288:244,1,150
440,52,117833,1,0,0:0:0:0:
368,148,118005,1,0,0:0:0:0:
72,332,118177,1,0,0:0:0:0:
144,236,118349,1,0,0:0:0:0:
308,100,118522,1,0,0:0:0:0:
128,168,118695,1,0,0:0:0:0:
336,304,118867,1,0,0:0:0:0:
192,100,119040,2,0,L|140:60,1,50
436,192,119212,1,0,0:0:0:0:
192,236,119384,1,0,0:0:0:0:
320,108,119557,2,0,L|372:64,1,50
36,256,119729,1,0,0:0:0:0:
256,264,119902,5,0,0:0:0:0:
318,156,120074,5,0,0:0:0:0:
193,156,120246,5,0,0:0:0:0:
401,276,120419,5,0,0:0:0:0:
256,24,120591,1,0,0:0:0:0:
256,24,120677,1,0,0:0:0:0:
256,24,120764,1,0,0:0:0:0:
110,276,120936,5,0,0:0:0:0:
401,276,121108,1,0,0:0:0:0:
401,276,121195,1,0,0:0:0:0:
401,276,121281,1,0,0:0:0:0:
256,24,121453,5,0,0:0:0:0:
110,276,121626,1,0,0:0:0:0:
110,276,121712,1,0,0:0:0:0:
110,276,121798,1,0,0:0:0:0:
401,276,121971,1,0,0:0:0:0:
92,152,122143,1,0,0:0:0:0:
420,152,122315,1,0,0:0:0:0:
72,24,122488,1,0,0:0:0:0:
440,24,122660,1,0,0:0:0:0:
92,152,122833,1,0,0:0:0:0:
420,152,123005,1,0,0:0:0:0:
110,276,123177,1,0,0:0:0:0:
402,108,123350,6,0,L|262:232,1,150
110,276,123695,2,0,L|250:152,1,150
424,192,124040,1,0,0:0:0:0:
87,191,124212,1,0,0:0:0:0:
401,276,124384,1,0,0:0:0:0:
110,107,124557,1,0,0:0:0:0:
401,107,124729,1,0,0:0:0:0:
110,276,124902,1,0,0:0:0:0:
468,192,125074,1,0,0:0:0:0:
363,192,125160,1,0,0:0:0:0:
258,192,125246,1,0,0:0:0:0:
152,192,125333,1,0,0:0:0:0:
47,192,125419,1,0,0:0:0:0:
42,192,125505,1,0,0:0:0:0:
36,192,125591,1,0,0:0:0:0:
260,32,125764,1,0,0:0:0:0:
164,260,125936,1,0,0:0:0:0:
152,280,126022,1,0,0:0:0:0:
119,331,126108,1,0,0:0:0:0:
348,228,126281,1,0,0:0:0:0:
98,228,126453,1,0,0:0:0:0:
348,228,126626,1,0,0:0:0:0:
368,228,126712,1,0,0:0:0:0:
432,228,126798,1,0,0:0:0:0:
268,36,126971,1,0,0:0:0:0:
168,264,127143,1,0,0:0:0:0:
260,128,127315,1,0,0:0:0:0:
308,184,127488,1,0,0:0:0:0:
232,196,127660,1,0,0:0:0:0:
386,61,127833,1,0,0:0:0:0:
260,333,128005,1,0,0:0:0:0:
88,88,128177,1,0,0:0:0:0:
72,292,128350,6,0,L|44:336,1,50
232,184,128522,6,0,B|204:240|164:240|96:272,1,150
268,144,128867,2,0,B|288:92|340:72|412:48,1,150
168,344,129212,1,0,0:0:0:0:
188,96,129384,2,0,L|160:44,1,50
312,316,129557,1,0,0:0:0:0:
104,176,129729,1,0,0:0:0:0:
332,68,129902,1,0,0:0:0:0:
400,148,130074,2,0,L|452:128,1,50
112,236,130246,1,0,0:0:0:0:
256,192,130419,1,0,0:0:0:0:
112,148,130591,2,0,L|60:128,1,50
400,236,130763,1,0,0:0:0:0:
116,308,130936,5,0,0:0:0:0:
136,292,131108,5,0,0:0:0:0:
160,272,131281,5,0,0:0:0:0:
364,0,131453,6,0,L|332:72,1,75
160,272,131798,1,0,0:0:0:0:
160,112,131971,5,0,0:0:0:0:
364,384,132143,1,0,0:0:0:0:
352,272,132315,5,0,0:0:0:0:
148,0,132488,1,0,0:0:0:0:
352,112,132660,5,0,0:0:0:0:
148,384,132833,1,0,0:0:0:0:
364,0,133005,5,0,0:0:0:0:
148,384,133177,1,0,0:0:0:0:
148,0,133350,1,0,0:0:0:0:
364,384,133522,1,0,0:0:0:0:
364,384,133695,1,0,0:0:0:0:
148,0,133867,6,0,L|184:56,1,50
364,384,134040,1,0,0:0:0:0:
96,276,134384,1,0,0:0:0:0:
104,216,134471,1,0,0:0:0:0:
140,168,134557,1,0,0:0:0:0:
200,156,134643,1,0,0:0:0:0:
260,172,134729,2,0,L|304:200,1,50
188,300,134902,2,0,L|164:252,1,50
156,196,135074,5,0,0:0:0:0:
164,136,135160,1,0,0:0:0:0:
208,96,135246,1,0,0:0:0:0:
268,88,135333,1,0,0:0:0:0:
324,108,135419,2,0,L|376:132,1,50
484,360,135591,2,0,L|464:312,1,50
360,32,135764,5,0,0:0:0:0:
484,360,135936,2,0,L|440:316,1,50
248,100,136108,1,0,0:0:0:0:
484,360,136281,2,0,L|424:336,1,50
164,220,136453,1,0,0:0:0:0:
484,360,136626,2,0,L|420:356,1,50
136,340,136798,1,0,0:0:0:0:
484,360,136971,2,0,L|428:320,1,50
204,192,137143,2,0,L|308:192,1,100
152,192,137660,2,0,L|312:192,1,150.000005722046
84,192,138177,2,0,L|304:192,1,200
256,100,138695,1,0,0:0:0:0:
176,238,138867,1,0,0:0:0:0:
335,238,139040,1,0,0:0:0:0:
0,192,139212,1,0,0:0:0:0:
512,192,139557,1,0,0:0:0:0:
256,192,139902,12,0,142315,0:0:0:0:
176,132,142660,5,0,0:0:0:0:
336,252,142833,1,0,0:0:0:0:
196,272,143005,1,0,0:0:0:0:
316,112,143177,1,0,0:0:0:0:
120,104,143350,1,0,0:0:0:0:
392,280,143522,1,0,0:0:0:0:
168,328,143695,1,0,0:0:0:0:
344,56,143867,1,0,0:0:0:0:
404,136,144040,2,0,L|372:244,1,100
344,196,144384,2,0,L|264:292,1,125
276,236,144729,2,0,L|120:240,1,150.000005722046
200,200,145074,1,0,0:0:0:0:
164,164,145160,1,0,0:0:0:0:
128,128,145246,1,0,0:0:0:0:
92,96,145333,1,0,0:0:0:0:
24,36,145419,5,0,0:0:0:0:
220,76,145764,1,0,0:0:0:0:
260,80,146453,1,0,0:0:0:0:
300,84,147143,1,0,0:0:0:0:
340,88,147660,1,0,0:0:0:0:
380,92,147832,1,0,0:0:0:0:
420,100,148005,2,0,L|476:112,1,50
164,332,148177,1,0,0:0:0:0:
140,212,148522,1,0,0:0:0:0:
132,172,149212,1,0,0:0:0:0:
124,136,149902,1,0,0:0:0:0:
116,92,150419,1,0,0:0:0:0:
108,52,150591,1,0,0:0:0:0:
100,12,150764,1,0,0:0:0:0:
196,36,150936,5,0,0:0:0:0:
228,132,151108,1,0,0:0:0:0:
92,368,151281,2,0,L|144:268,1,100
336,132,151626,1,0,0:0:0:0:
308,36,151798,1,0,0:0:0:0:
270,279,151971,2,0,L|224:368,1,100
132,332,152315,1,0,0:0:0:0:
84,244,152488,1,0,0:0:0:0:
84,144,152660,1,0,0:0:0:0:
140,60,152833,1,0,0:0:0:0:
232,16,153005,1,0,0:0:0:0:
332,12,153177,1,0,0:0:0:0:
424,48,153350,1,0,0:0:0:0:
480,128,153522,1,0,0:0:0:0:
496,228,153695,6,0,L|440:336,1,100
368,144,154040,1,0,0:0:0:0:
408,288,154212,1,0,0:0:0:0:
452,32,154384,1,0,0:0:0:0:
220,224,154557,1,0,0:0:0:0:
92,80,154729,1,0,0:0:0:0:
376,212,154902,1,0,0:0:0:0:
56,144,155074,1,0,0:0:0:0:
404,152,155246,1,0,0:0:0:0:
20,208,155419,1,0,0:0:0:0:
436,88,155591,1,0,0:0:0:0:
180,140,155764,2,0,L|116:232,1,104.999996795654
244,144,156065,2,0,L|188:232,1,100
304,144,156281,2,0,L|264:208,1,75
248,232,156453,5,0,0:0:0:0:
458,16,156626,1,0,0:0:0:0:
423,52,156798,1,0,0:0:0:0:
388,88,156971,1,0,0:0:0:0:
353,124,157143,1,0,0:0:0:0:
318,160,157315,1,0,0:0:0:0:
283,196,157488,1,0,0:0:0:0:
104,328,157833,5,0,0:0:0:0:
280,151,158005,1,0,0:0:0:0:
297,133,158177,1,0,0:0:0:0:
224,372,158350,1,0,0:0:0:0:
140,136,158522,1,0,0:0:0:0:
132,116,158695,1,0,0:0:0:0:
124,96,158867,1,0,0:0:0:0:
420,312,159212,5,0,0:0:0:0:
100,135,159384,1,0,0:0:0:0:
154,164,159557,1,0,0:0:0:0:
207,194,159729,1,0,0:0:0:0:
260,223,159902,1,0,0:0:0:0:
313,253,160074,1,0,0:0:0:0:
366,282,160246,1,0,0:0:0:0:
226,51,160591,1,0,0:0:0:0:
84,114,160764,1,0,0:0:0:0:
148,256,160936,1,0,0:0:0:0:
289,192,161108,1,0,0:0:0:0:
148,256,161281,1,0,0:0:0:0:
84,114,161453,1,0,0:0:0:0:
226,51,161626,1,0,0:0:0:0:
412,32,161971,2,0,P|448:76|452:132,1,100
100,352,162315,2,0,P|64:308|60:252,1,100
348,88,162660,1,0,0:0:0:0:
164,296,162833,1,0,0:0:0:0:
216,60,163005,1,0,0:0:0:0:
296,324,163177,1,0,0:0:0:0:
276,116,163350,1,0,0:0:0:0:
236,268,163522,1,0,0:0:0:0:
200,80,163695,1,0,0:0:0:0:
312,304,163867,1,0,0:0:0:0:
112,80,164040,1,0,0:0:0:0:
400,304,164212,1,0,0:0:0:0:
52,152,164384,1,0,0:0:0:0:
132,216,164471,1,0,0:0:0:0:
228,244,164557,1,0,0:0:0:0:
328,236,164643,1,0,0:0:0:0:
424,204,164729,1,0,0:0:0:0:
412,48,166108,5,0,0:0:0:0:
408,68,166195,1,0,0:0:0:0:
404,88,166281,1,0,0:0:0:0:
400,108,166367,1,0,0:0:0:0:
396,128,166453,1,0,0:0:0:0:
380,156,166540,1,0,0:0:0:0:
364,184,166626,1,0,0:0:0:0:
348,212,166712,1,0,0:0:0:0:
332,236,166798,1,0,0:0:0:0:
300,260,166884,1,0,0:0:0:0:
268,284,166971,1,0,0:0:0:0:
232,300,167057,1,0,0:0:0:0:
192,312,167143,1,0,0:0:0:0:
184,300,167186,1,0,0:0:0:0:
176,288,167229,1,0,0:0:0:0:
168,276,167272,1,0,0:0:0:0:
160,264,167315,1,0,0:0:0:0:
152,252,167358,1,0,0:0:0:0:
144,240,167402,1,0,0:0:0:0:
136,228,167445,1,0,0:0:0:0:
128,216,167488,1,0,0:0:0:0:
416,72,168867,5,0,0:0:0:0:
76,192,169902,5,0,0:0:0:0:
116,236,170074,1,0,0:0:0:0:
156,280,170246,1,0,0:0:0:0:
316,60,171281,5,0,0:0:0:0:
196,324,171626,1,0,0:0:0:0:
372,160,172315,6,0,L|420:92,2,75
48,32,173005,1,0,0:0:0:0:
184,92,173177,2,0,L|168:152,1,50
64,56,173350,1,0,0:0:0:0:
200,116,173522,2,0,L|188:176,1,50
400,180,173695,5,0,0:0:0:0:
248,236,173867,2,0,L|260:176,1,50
364,212,174040,1,0,0:0:0:0:
212,268,174212,2,0,L|220:204,1,50
96,120,174384,1,0,0:0:0:0:
344,76,174557,1,0,0:0:0:0:
96,56,174729,1,0,0:0:0:0:
332,136,174902,1,0,0:0:0:0:
44,188,175074,1,0,0:0:0:0:
80,192,175160,1,0,0:0:0:0:
116,196,175246,1,0,0:0:0:0:
152,200,175333,1,0,0:0:0:0:
188,204,175419,1,0,0:0:0:0:
205,207,175462,1,0,0:0:0:0:
222,210,175505,1,0,0:0:0:0:
239,213,175548,1,0,0:0:0:0:
256,216,175591,1,0,0:0:0:0:
273,219,175634,1,0,0:0:0:0:
290,222,175677,1,0,0:0:0:0:
307,225,175721,1,0,0:0:0:0:
324,228,175764,6,0,B|388:240|416:224|472:248,1,150
460,36,176108,2,0,L|432:96,1,50
420,112,176281,1,0,0:0:0:0:
308,276,176453,2,0,B|240:248|204:272|152:248,1,150
52,80,176798,2,0,L|108:96,1,50
120,100,176971,1,0,0:0:0:0:
312,52,177143,1,0,0:0:0:0:
184,208,177315,1,0,0:0:0:0:
204,16,177488,1,0,0:0:0:0:
308,188,177660,1,0,0:0:0:0:
120,100,177833,1,0,0:0:0:0:
120,100,178177,1,0,0:0:0:0:
256,192,178522,12,0,180246,0:0:0:0:
180,180,180591,5,0,0:0:0:0:
204,84,180850,5,0,0:0:0:0:
284,144,181108,5,0,0:0:0:0:
32,328,181281,6,0,B|52:320|100:296|100:296,1,75
172,264,181626,1,0,0:0:0:0:
340,120,181798,1,0,0:0:0:0:
108,280,182143,1,0,0:0:0:0:
404,104,182315,1,0,0:0:0:0:
72,152,182488,1,0,0:0:0:0:
128,156,182574,1,0,0:0:0:0:
184,160,182660,1,0,0:0:0:0:
436,180,182833,1,0,0:0:0:0:
436,180,183005,1,0,0:0:0:0:
144,344,183177,1,0,0:0:0:0:
183,304,183264,1,0,0:0:0:0:
221,265,183350,1,0,0:0:0:0:
397,88,183522,1,0,0:0:0:0:
397,88,183695,1,0,0:0:0:0:
84,196,183867,5,0,0:0:0:0:
136,184,183953,1,0,0:0:0:0:
188,172,184040,1,0,0:0:0:0:
428,100,184212,1,0,0:0:0:0:
184,60,184384,1,0,0:0:0:0:
268,296,184557,1,0,0:0:0:0:
312,52,184729,1,0,0:0:0:0:
184,132,184902,1,0,0:0:0:0:
224,276,185074,1,0,0:0:0:0:
80,320,185246,1,0,0:0:0:0:
80,88,185419,1,0,0:0:0:0:
80,88,185591,1,0,0:0:0:0:
152,220,185764,2,0,L|188:268,1,50
348,224,185936,2,0,L|408:228,1,50
464,340,186108,1,0,0:0:0:0:
464,340,186281,1,0,0:0:0:0:
324,284,186453,2,0,L|268:264,1,50
252,104,186626,2,0,L|184:80,1,50
108,92,186798,5,0,0:0:0:0:
52,48,186971,1,0,0:0:0:0:
108,92,187143,1,0,0:0:0:0:
200,324,187315,1,0,0:0:0:0:
372,140,187488,5,0,0:0:0:0:
316,184,187660,1,0,0:0:0:0:
372,140,187833,1,0,0:0:0:0:
124,108,188005,1,0,0:0:0:0:
360,188,188177,1,0,0:0:0:0:
368,208,188264,1,0,0:0:0:0:
368,228,188350,1,0,0:0:0:0:
356,244,188436,1,0,0:0:0:0:
340,256,188522,1,0,0:0:0:0:
320,260,188608,1,0,0:0:0:0:
300,260,188695,1,0,0:0:0:0:
280,252,188781,1,0,0:0:0:0:
264,240,188867,1,0,0:0:0:0:
248,204,188953,1,0,0:0:0:0:
236,168,189040,1,0,0:0:0:0:
216,136,189126,1,0,0:0:0:0:
188,108,189212,1,0,0:0:0:0:
152,92,189298,1,0,0:0:0:0:
112,100,189384,1,0,0:0:0:0:
84,128,189471,1,0,0:0:0:0:
72,168,189557,1,0,0:0:0:0:
164,204,189729,5,0,0:0:0:0:
72,168,189902,1,0,0:0:0:0:
164,204,190074,1,0,0:0:0:0:
140,56,190246,1,0,0:0:0:0:
164,204,190419,1,0,0:0:0:0:
292,52,190591,1,0,0:0:0:0:
164,204,190764,1,0,0:0:0:0:
404,136,190936,1,0,0:0:0:0:
196,352,191108,1,0,0:0:0:0:
404,136,191281,1,0,0:0:0:0:
120,236,191453,1,0,0:0:0:0:
404,136,191626,5,0,0:0:0:0:
360,160,191798,5,0,0:0:0:0:
316,184,191971,5,0,0:0:0:0:
152,244,192143,6,0,B|132:252|104:252|80:268,1,75
384,164,192488,1,0,0:0:0:0:
84,152,192660,5,0,0:0:0:0:
428,232,192833,1,0,0:0:0:0:
112,240,193005,5,0,0:0:0:0:
400,144,193177,1,0,0:0:0:0:
52,184,193350,5,0,0:0:0:0:
460,200,193522,1,0,0:0:0:0:
0,260,193695,1,0,0:0:0:0:
512,124,193867,1,0,0:0:0:0:
0,108,194040,1,0,0:0:0:0:
512,276,194212,1,0,0:0:0:0:
512,276,194384,1,0,0:0:0:0:
0,48,194557,5,0,0:0:0:0:
512,336,194729,1,0,0:0:0:0:
92,240,195074,5,0,0:0:0:0:
120,168,195160,1,0,0:0:0:0:
176,120,195246,1,0,0:0:0:0:
248,96,195333,1,0,0:0:0:0:
324,104,195419,2,0,L|404:112,1,50
288,384,195591,2,0,L|228:352,1,50
192,308,195764,5,0,0:0:0:0:
156,240,195850,1,0,0:0:0:0:
152,164,195936,1,0,0:0:0:0:
180,96,196022,1,0,0:0:0:0:
220,32,196108,2,0,L|256:-8,1,50
260,268,196281,2,0,L|228:332,1,50
172,80,196453,5,0,0:0:0:0:
340,304,196626,2,0,L|376:344,1,50
112,60,196798,5,0,0:0:0:0:
400,324,196971,2,0,L|428:376,1,50
56,36,197143,5,0,0:0:0:0:
456,348,197315,2,0,L|424:292,1,50
0,20,197488,5,0,0:0:0:0:
512,364,197660,2,0,L|472:292,1,50
136,204,197833,5,0,0:0:0:0:
376,180,198005,1,0,0:0:0:0:
68,280,198350,5,0,0:0:0:0:
444,104,198522,1,0,0:0:0:0:
0,356,198867,5,0,0:0:0:0:
512,28,199040,1,0,0:0:0:0:
220,84,199384,5,0,0:0:0:0:
320,196,199557,1,0,0:0:0:0:
176,236,199729,1,0,0:0:0:0:
284,132,199902,2,0,B|320:96|364:112|396:76,1,112.500004291535
228,252,200246,2,0,B|192:288|148:272|116:308,1,112.500004291535
380,92,200591,5,0,0:0:0:0:
300,348,200764,1,0,0:0:0:0:
136,0,200936,1,0,0:0:0:0:
216,256,201109,1,0,0:0:0:0:
169,41,201281,1,0,0:0:0:0:
429,192,201453,1,0,0:0:0:0:
169,342,201626,1,0,0:0:0:0:
256,192,201971,12,0,202660,0:0:0:0:
324,92,202833,6,0,L|360:48,1,50
157,331,203005,1,0,0:0:0:0:
92,60,203177,1,0,0:0:0:0:
144,112,203264,1,0,0:0:0:0:
200,160,203350,1,0,0:0:0:0:
20,332,203522,1,0,0:0:0:0:
200,160,203695,1,0,0:0:0:0:
448,184,203867,1,0,0:0:0:0:
20,332,204040,1,0,0:0:0:0:
448,184,204212,1,0,0:0:0:0:
20,332,204384,1,0,0:0:0:0:
256,192,204729,12,0,205419,0:0:0:0:
380,152,205591,6,0,L|420:116,1,50
320,200,205764,1,0,0:0:0:0:
248,224,205850,1,0,0:0:0:0:
172,236,205936,1,0,0:0:0:0:
100,216,206022,1,0,0:0:0:0:
72,56,206108,5,0,0:0:0:0:
112,44,206281,1,0,0:0:0:0:
128,340,206453,2,0,L|168:304,1,50
384,44,206626,2,0,L|344:80,1,50
80,292,206798,5,0,0:0:0:0:
48,260,206971,1,0,0:0:0:0:
476,272,207143,2,0,L|432:244,1,50
36,112,207315,2,0,L|80:140,1,50
384,56,207488,5,0,0:0:0:0:
309,370,207660,1,0,0:0:0:0:
74,149,207833,1,0,0:0:0:0:
74,149,207919,1,0,0:0:0:0:
284,144,208091,5,0,0:0:0:0:
283,240,208177,1,0,0:0:0:0:
200,191,208350,1,0,0:0:0:0:
284,144,208522,1,0,0:0:0:0:
283,240,208695,1,0,0:0:0:0:
100,288,208867,5,0,0:0:0:0:
84,204,208953,1,0,0:0:0:0:
108,120,209040,1,0,0:0:0:0:
180,80,209126,1,0,0:0:0:0:
268,56,209212,2,0,L|352:56,1,50
448,312,209384,2,0,L|400:288,1,50
332,236,209557,5,0,0:0:0:0:
288,204,209643,1,0,0:0:0:0:
208,248,209729,1,0,0:0:0:0:
168,284,209815,1,0,0:0:0:0:
80,308,209902,2,0,L|28:284,1,50
336,104,210074,2,0,L|384:132,1,50
488,216,210246,5,0,0:0:0:0:
152,64,210419,1,0,0:0:0:0:
96,140,210505,1,0,0:0:0:0:
60,228,210591,2,0,L|180:176,1,100
408,72,210850,1,0,0:0:0:0:
500,56,210936,2,0,L|432:152,1,100
320,340,211195,1,0,0:0:0:0:
236,296,211281,1,0,0:0:0:0:
176,212,211367,2,0,L|156:132,1,50
196,72,211540,1,0,0:0:0:0:
256,0,211626,5,0,0:0:0:0:
124,216,211798,1,0,0:0:0:0:
144,192,211884,1,0,0:0:0:0:
256,0,211971,1,0,0:0:0:0:
424,264,212143,5,0,0:0:0:0:
408,240,212229,1,0,0:0:0:0:
256,0,212315,1,0,0:0:0:0:
52,316,212488,5,0,0:0:0:0:
68,292,212574,1,0,0:0:0:0:
256,0,212660,1,0,0:0:0:0:
500,364,212833,5,0,0:0:0:0:
480,340,212920,1,0,0:0:0:0:
248,8,213005,1,0,0:0:0:0:
248,376,213177,5,0,0:0:0:0:
248,8,213522,5,0,0:0:0:0:
248,376,213694,5,0,0:0:0:0:
248,8,214040,5,0,0:0:0:0:
248,376,214212,5,0,0:0:0:0:
303,25,214557,5,0,0:0:0:0:
87,233,214730,1,0,0:0:0:0:
376,316,214902,1,0,0:0:0:0:
70,89,215074,1,0,0:0:0:0:
358,6,215246,1,0,0:0:0:0:
441,294,215419,1,0,0:0:0:0:
153,377,215591,1,0,0:0:0:0:
224,136,216108,6,0,B|152:124|124:200|164:260|224:248,1,200
256,192,216453,12,0,217833,0:0:0:0:
