osu file format v14

[General]
AudioFilename: audio.mp3
AudioLeadIn: 0
PreviewTime: 75347
Countdown: 1
SampleSet: Soft
StackLeniency: 0.7
Mode: 0
LetterboxInBreaks: 0
WidescreenStoryboard: 0

[Editor]
Bookmarks: 15766,157165
DistanceSpacing: 1
BeatDivisor: 4
GridSize: 16
TimelineZoom: 0.9

[Metadata]
Title:Himitsu no Toilette -Midnight Lab Remix-
TitleUnicode:秘密のトワレ -Midnight Lab Remix-
Artist:Shiki Ichinose (CV: Aihara Kotomi)
ArtistUnicode:一ノ瀬志希 (CV: 藍原ことみ)
Creator:FruityEnLoops
Version:Extra
Source:アイドルマスター シンデレラガールズ
Tags:THE IDOLM@STER CINDERELLA GIRLS idolmaster remix future bass
BeatmapID:1818198
BeatmapSetID:870014

[Difficulty]
HPDrainRate:6
CircleSize:4
OverallDifficulty:8
ApproachRate:9.2
SliderMultiplier:1.1
SliderTickRate:1

[Events]
//Background and Video events
0,0,"bg.jpg",0,0
//Break Periods
//Storyboard Layer 0 (Background)
//Storyboard Layer 1 (Fail)
//Storyboard Layer 2 (Pass)
//Storyboard Layer 3 (Foreground)
//Storyboard Sound Samples

[TimingPoints]
662,419.58041958042,4,2,1,100,1,0
15766,-200,4,2,1,100,0,0
22480,-133.333333333333,4,2,1,100,0,0
28773,-66.6666666666667,4,2,1,100,0,0
31920,-100,4,2,1,100,0,0
42620,-33.3333333333333,4,2,1,100,0,0
43668,-66.6666666666667,4,2,1,100,0,0
49333,-33.3333333333333,4,2,1,100,0,0
50382,-66.6666666666667,4,2,1,100,0,0
56046,-33.3333333333333,4,2,1,100,0,0
57095,-66.6666666666667,4,2,1,100,0,0
60662,419.58041958042,4,2,1,100,1,0
60662,-50,4,2,1,100,0,0
77445,-20,4,2,1,100,0,1
80592,-200,4,2,1,100,0,1
80801,-20,4,2,1,100,0,1
83948,-40,4,2,1,100,0,1
84158,-20,4,2,1,100,0,1
87305,-40,4,2,1,100,0,1
87515,-20,4,2,1,100,0,1
88983,-40,4,2,1,100,0,1
89193,-20,4,2,1,100,0,1
90452,-40,4,2,1,100,0,1
90871,-50,4,2,1,100,0,1
91186,-20,4,2,1,100,0,1
96745,-15.3846153846154,4,2,1,100,0,1
97375,-20,4,2,1,100,0,1
103459,-15.3846153846154,4,2,1,100,0,1
104298,-50,4,2,1,100,0,1
104613,-20,4,2,1,100,0,1
115836,-200,4,2,1,100,0,1
117724,-100,4,2,1,100,0,0
131151,-200,4,2,1,100,0,0
144578,-400,4,2,1,100,0,0
157165,-100,4,2,1,100,0,0
157270,-100,4,2,1,5,0,0

[Colours]
Combo1 : 255,179,0
Combo2 : 160,41,71
Combo3 : 152,101,171
Combo4 : 225,133,40

[HitObjects]
73,78,15766,6,0,P|196:127|166:249,1,275
171,244,19543,1,0,0:0:0:0:
171,244,20382,6,0,L|222:253,2,41.25
87,279,21221,2,0,L|36:288,2,41.25
211,251,22060,1,0,0:0:0:0:
405,151,22480,6,0,B|354:168|304:151|304:151|253:134|202:151,1,206.250007867813
188,166,23634,1,0,0:0:0:0:
188,166,23738,1,0,0:0:0:0:
133,127,24578,6,0,P|132:113|133:94,2,27.5000010490418
202,40,24997,2,0,P|183:25|159:15,1,41.2500015735627
41,96,25417,2,0,P|41:141|48:168,2,61.875002360344
224,131,26256,1,0,0:0:0:0:
240,120,26360,1,0,0:0:0:0:
258,109,26465,1,0,0:0:0:0:
273,95,26570,1,0,0:0:0:0:
288,80,26675,2,0,L|297:46,2,20.6250007867813
350,177,27095,6,0,P|383:181|434:170,1,82.5000031471253
382,86,27724,1,0,0:0:0:0:
270,157,27934,2,0,P|270:183|277:215,1,41.2500015735627
340,283,28354,2,0,P|339:309|332:341,1,41.2500015735627
382,86,28773,6,0,B|400:76|400:76|419:86|419:86,1,41.2500015735627
298,0,28983,2,0,B|279:9|279:9|260:0|260:0,1,41.2500015735627
101,60,29193,6,0,P|157:54|196:184,1,206.250007867813
55,252,29822,2,0,B|115:231|155:252|155:252|195:272|255:252,1,206.250007867813
87,358,30452,2,0,P|88:316|84:275,1,82.5000031471253
55,252,30766,1,0,0:0:0:0:
55,252,30871,5,0,0:0:0:0:
132,132,31081,1,0,0:0:0:0:
310,184,31291,1,0,0:0:0:0:
350,187,31395,1,0,0:0:0:0:
381,161,31500,1,0,0:0:0:0:
385,120,31605,1,0,0:0:0:0:
361,88,31710,2,0,L|331:48,1,41.2500015735627
465,226,31920,6,0,B|523:317|523:317|496:308|481:307,1,137.5
467,306,32550,2,0,P|443:306|431:308,1,27.5
293,279,32759,2,0,P|317:279|329:281,1,27.5
389,201,32969,2,0,P|389:225|391:237,1,27.5
368,377,33179,2,0,P|368:353|370:341,1,27.5
127,47,33808,6,0,P|75:39|99:135,1,192.5
121,140,34648,2,0,L|159:145,1,27.5
259,101,34857,2,0,L|221:106,1,27.5
55,222,35067,1,0,0:0:0:0:
55,222,35172,1,0,0:0:0:0:
55,222,35277,6,0,P|99:242|186:222,1,137.5
205,207,35906,6,0,L|220:171,3,27.5
304,190,36326,2,0,L|298:151,3,27.5
375,116,36745,2,0,L|351:85,3,27.5
409,21,37165,6,0,L|373:6,3,27.5
512,122,37585,2,0,L|510:160,3,27.5
424,171,38005,2,0,L|441:205,3,27.5
383,265,38424,2,0,L|415:286,3,27.5
383,366,38844,2,0,L|421:367,3,27.5
274,335,39263,5,0,0:0:0:0:
246,332,39367,1,0,0:0:0:0:
219,333,39472,1,0,0:0:0:0:
192,338,39577,1,0,0:0:0:0:
166,347,39682,1,0,0:0:0:0:
139,349,39786,1,0,0:0:0:0:
115,337,39891,1,0,0:0:0:0:
102,313,39996,1,0,0:0:0:0:
106,286,40101,5,0,0:0:0:0:
124,266,40206,1,0,0:0:0:0:
151,260,40311,1,0,0:0:0:0:
176,265,40416,1,0,0:0:0:0:
203,256,40522,6,0,P|218:212|208:162,1,82.5
203,151,40941,1,0,0:0:0:0:
319,228,41151,1,0,0:0:0:0:
107,208,41361,2,0,L|104:164,1,27.5
127,4,41571,2,0,L|124:48,1,27.5
214,113,41780,2,0,L|170:116,1,27.5
10,93,41990,2,0,L|54:96,1,27.5
349,111,42200,5,0,0:0:0:0:
408,187,42410,1,0,0:0:0:0:
410,214,42514,1,0,0:0:0:0:
404,241,42620,6,0,B|379:289|306:313|306:313|379:338|404:386,1,247.500009441376
231,367,43039,2,0,P|220:282|273:224,1,165.000006294251
147,288,43354,2,0,B|231:287|231:287|310:316,1,165.000006294251
498,243,43668,2,0,P|468:180|347:158,1,165.000006294251
297,150,44298,6,0,L|299:101,3,41.2500015735627
214,124,44717,2,0,L|199:77,3,41.2500015735627
131,132,45137,2,0,L|101:93,3,41.2500015735627
58,170,45557,2,0,L|16:143,3,41.2500015735627
29,259,45976,5,0,0:0:0:0:
66,276,46080,1,0,0:0:0:0:
106,279,46185,1,0,0:0:0:0:
146,266,46290,1,0,0:0:0:0:
185,256,46395,1,0,0:0:0:0:
226,261,46500,1,0,0:0:0:0:
262,280,46605,1,0,0:0:0:0:
288,312,46710,1,0,0:0:0:0:
326,324,46814,5,0,0:0:0:0:
363,308,46919,1,0,0:0:0:0:
380,272,47024,1,0,0:0:0:0:
368,233,47129,1,0,0:0:0:0:
334,212,47235,6,0,P|311:163|320:86,1,123.750004720688
403,29,47655,2,0,P|426:78|417:155,1,123.750004720688
316,95,48074,1,0,0:0:0:0:
334,212,48284,1,0,0:0:0:0:
403,29,48494,1,0,0:0:0:0:
215,164,48703,1,0,0:0:0:0:
470,260,48913,6,0,P|491:257|459:254,1,123.750004720688
242,306,49333,6,0,B|160:326|126:306|126:306|113:306|113:306|79:285|-2:306,1,247.500009441376
161,225,49752,2,0,P|182:327|146:384,1,165.000006294251
101,189,50067,2,0,B|154:174|154:174|274:188,1,165.000006294251
157,19,50382,6,0,B|156:176|156:176|190:139,1,206.250007867813
222,114,51011,6,0,P|251:107|286:104,3,41.2500015735627
349,113,51431,2,0,P|375:126|404:146,3,41.2500015735627
438,198,51850,2,0,P|449:225|458:259,1,41.2500015735627
433,335,52060,6,0,B|398:346|351:335|351:335|304:323|269:335,1,165.000006294251
233,354,52585,5,0,0:0:0:0:
191,352,52689,1,0,0:0:0:0:
150,350,52794,2,0,L|101:347,1,41.2500015735627
0,272,53004,5,0,0:0:0:0:
41,270,53108,1,0,0:0:0:0:
82,268,53214,2,0,L|131:264,1,41.2500015735627
147,98,53529,5,0,0:0:0:0:
148,139,53633,1,0,0:0:0:0:
157,179,53738,1,0,0:0:0:0:
316,144,53948,2,0,P|262:95|278:167,1,165.000006294251
402,161,54787,2,0,P|403:112|367:36,2,123.750004720688
248,228,55836,1,0,0:0:0:0:
248,228,55941,1,0,0:0:0:0:
248,228,56046,6,0,B|80:240|80:240|0:224,1,247.500009441376
139,165,56466,2,0,P|170:255|147:324,1,165.000006294251
369,311,56780,2,0,P|310:234|243:228,1,165.000006294251
150,318,57095,6,0,B|212:319|266:315|266:315|221:342,1,165.000006294251
59,318,57724,6,0,L|23:329,5,27.5000010490418
27,243,58144,2,0,L|-13:240,3,41.2500015735627
58,170,58564,2,0,L|19:153,1,41.2500015735627
170,171,58773,6,0,P|239:130|129:94,1,247.500009441376
127,101,59508,1,0,0:0:0:0:
328,115,59717,1,0,0:0:0:0:
325,74,59822,2,0,L|307:31,1,41.2500015735627
386,238,60137,1,0,0:0:0:0:
389,197,60242,1,0,0:0:0:0:
303,351,60452,1,0,0:0:0:0:
300,310,60557,1,0,0:0:0:0:
298,282,60662,6,0,P|209:273|139:307,1,165
106,345,61081,2,0,L|110:168,1,165
101,125,61501,2,0,L|105:68,1,55
231,126,61710,2,0,L|227:183,1,55
25,78,61920,2,0,L|30:-1,1,55
317,172,62130,6,0,B|358:157|400:172|400:172|443:185|485:172,1,165
483,279,62550,2,0,P|452:272|421:276,1,55
327,187,62759,2,0,P|357:180|389:184,1,55
481,86,62969,2,0,P|450:79|419:83,1,55
239,85,63179,6,0,B|223:162|223:162|227:210,1,110
88,176,63494,2,0,P|149:144|217:162,1,110
162,290,63808,2,0,L|158:217,1,55
150,53,64018,1,0,0:0:0:0:
256,192,64123,12,0,66955,0:0:0:0:
176,64,67375,5,0,0:0:0:0:
208,208,67794,1,0,0:0:0:0:
336,64,68214,5,0,0:0:0:0:
304,208,68633,1,0,0:0:0:0:
96,64,69053,5,0,0:0:0:0:
128,208,69472,1,0,0:0:0:0:
416,64,69892,5,0,0:0:0:0:
384,208,70311,1,0,0:0:0:0:
256,272,70731,5,0,0:0:0:0:
166,182,70941,1,0,0:0:0:0:
256,93,71151,1,0,0:0:0:0:
345,182,71361,1,0,0:0:0:0:
183,264,71571,5,0,0:0:0:0:
183,105,71781,1,0,0:0:0:0:
341,106,71991,1,0,0:0:0:0:
341,263,72201,1,0,0:0:0:0:
153,192,72410,5,0,0:0:0:0:
377,192,72620,1,0,0:0:0:0:
266,79,72830,1,0,0:0:0:0:
266,303,73040,1,0,0:0:0:0:
183,119,73249,5,0,0:0:0:0:
341,277,73459,1,0,0:0:0:0:
342,119,73669,1,0,0:0:0:0:
184,277,73879,1,0,0:0:0:0:
440,259,74088,5,0,0:0:0:0:
455,207,74192,1,0,0:0:0:0:
439,155,74297,1,0,0:0:0:0:
396,122,74402,1,0,0:0:0:0:
342,119,74507,1,0,0:0:0:0:
293,144,74612,1,0,0:0:0:0:
239,150,74717,1,0,0:0:0:0:
187,134,74822,1,0,0:0:0:0:
144,100,74927,5,0,0:0:0:0:
193,76,75031,1,0,0:0:0:0:
248,72,75136,1,0,0:0:0:0:
300,87,75241,1,0,0:0:0:0:
344,121,75347,6,0,L|325:148,1,27.5
387,152,75452,6,0,L|382:189,1,27.5
440,145,75557,6,0,L|454:182,1,27.5
472,102,75662,6,0,L|505:114,1,27.5
465,49,75766,6,0,L|500:36,1,27.5
465,49,76186,2,0,L|500:36,1,27.5
465,49,76606,2,0,L|500:36,1,27.5
465,49,77235,2,0,L|500:36,1,27.5
303,141,77445,5,0,0:0:0:0:
319,270,77550,2,0,P|346:318|455:342,1,137.5
198,220,77759,2,0,P|285:270|426:153,1,275
185,151,78074,2,0,P|198:217|178:291,1,137.5
55,123,78284,6,0,P|144:164|229:21,1,275
304,161,78599,2,0,P|248:135|184:287,1,275
137,68,78913,2,0,P|164:145|158:200,1,137.5
38,298,79123,6,0,P|136:272|266:377,1,275
239,222,79438,2,0,P|220:143|78:193,1,275
260,90,79752,2,0,P|233:167|239:222,1,137.5
436,194,79962,6,0,B|385:190|385:190|333:194|333:194|283:191|283:191|240:194|240:194|198:189|198:189|162:194|162:194,1,275
260,90,80277,2,0,P|361:87|398:67,1,137.5
316,8,80487,1,0,0:0:0:0:
319,180,80592,6,0,L|318:206,1,13.75
162,193,80801,2,0,P|49:234|93:363,1,275
207,297,81116,2,0,P|169:229|228:34,1,275
278,230,81431,2,0,P|238:241|155:165,1,137.5
337,342,81641,6,0,P|282:270|433:152,1,275
278,229,81955,2,0,P|365:163|335:16,1,275
161,192,82270,2,0,P|229:185|280:234,1,137.5
505,148,82480,6,0,P|374:134|276:228,1,275
335,11,82794,2,0,P|401:114|294:115,1,275
177,314,83109,2,0,P|238:284|279:217,1,137.5
46,327,83319,6,0,P|131:312|315:385,1,275
435,265,83634,2,0,P|350:250|166:323,1,275
161,192,83948,2,0,L|166:146,2,34.375
179,41,84158,5,0,0:0:0:0:
290,175,84263,2,0,P|214:186|161:154,1,137.5
371,65,84473,2,0,P|326:147|454:263,1,275
424,160,84787,2,0,P|375:155|276:181,1,137.5
478,255,84997,6,0,P|523:173|395:57,1,275
365,238,85312,2,0,P|435:274|323:323,1,275
289,174,85627,2,0,L|288:25,1,137.5
197,178,85836,6,0,P|254:164|307:340,1,275
213,270,86151,2,0,P|285:208|198:79,1,275
61,185,86466,2,0,P|118:190|224:169,1,137.5
64,71,86675,6,0,B|59:124|59:124|63:183|63:183|55:240|55:240|57:301|57:301|77:249,1,275
197,178,86990,2,0,P|140:173|34:194,1,137.5
213,270,87200,1,0,0:0:0:0:
204,79,87305,2,0,B|190:46|190:46|177:79,1,68.75
386,86,87515,6,0,P|423:118|289:141,1,275
352,350,87829,2,0,P|362:247|527:240,1,275
297,189,88144,2,0,P|257:259|205:286,1,137.5
449,298,88354,6,0,P|394:252|204:287,1,275
286,114,88668,2,0,P|304:208|461:297,1,275
344,45,88983,1,0,0:0:0:0:
300,30,89052,1,0,0:0:0:0:
255,34,89122,1,0,0:0:0:0:
216,56,89193,6,0,P|122:146|18:57,1,275
122,55,89508,1,0,0:0:0:0:
286,114,89613,2,0,P|332:125|434:107,1,137.5
171,225,89822,2,0,P|124:236|22:218,1,137.5
216,56,90032,5,0,0:0:0:0:
256,204,90242,2,0,L|256:366,1,137.5
420,251,90452,2,0,L|420:217,6,34.375
378,325,90871,6,0,P|336:337|371:347,1,110
274,243,91186,2,0,P|218:232|62:364,1,275
100,172,91501,2,0,P|124:229|90:297,1,137.5
193,116,91710,6,0,P|92:170|69:37,1,275
232,5,92025,2,0,P|197:80|280:246,1,275
93,294,92340,2,0,P|123:234|100:172,1,137.5
335,284,92550,6,0,P|179:238|91:296,1,275
195,106,92864,2,0,P|240:262|364:275,1,275
204,364,93179,2,0,P|228:295|189:207,1,137.5
334,10,93389,6,0,B|349:131|349:131|334:282,1,275
463,192,93703,2,0,P|411:144|323:150,1,137.5
333,283,93913,1,0,0:0:0:0:
512,251,94018,2,0,L|494:110,1,137.5
455,21,94228,6,0,P|493:89|363:223,1,275
171,282,94543,2,0,P|232:197|403:253,1,275
348,99,94857,2,0,P|388:204|374:248,1,137.5
284,281,95067,6,0,P|252:171|101:194,1,275
211,12,95382,2,0,P|171:182|83:161,1,275
344,13,95696,2,0,P|252:24|174:-9,1,137.5
484,149,95906,6,0,P|478:56|354:139,1,275
435,330,96221,2,0,P|396:183|486:149,1,275
305,311,96536,2,0,P|380:303|446:342,1,137.5
218,152,96745,6,0,L|213:371,1,178.750005114079
66,84,97060,2,0,L|71:303,1,178.750005114079
130,14,97375,2,0,P|68:-4|-7:24,1,137.5
151,105,97585,5,0,0:0:0:0:
300,72,97689,2,0,P|355:49|423:-11,1,137.5
463,243,97899,2,0,P|451:155|288:73,1,275
512,51,98214,2,0,P|470:103|457:170,1,137.5
200,201,98424,6,0,P|279:226|464:165,1,275
383,317,98738,2,0,P|313:228|241:340,1,275
457,171,99053,2,0,P|470:104|512:50,1,137.5
264,54,99263,6,0,P|321:116|187:191,1,275
93,233,99578,2,0,P|201:201|310:319,1,275
230,127,99892,2,0,P|238:186|286:251,1,137.5
87,341,100102,6,0,P|185:309|86:236,1,275
97,114,100417,2,0,P|187:135|250:119,1,137.5
63,17,100627,1,0,0:0:0:0:
1,147,100731,2,0,P|32:210|110:226,1,137.5
470,113,100941,6,0,P|379:108|285:264,1,275
314,6,101256,2,0,P|355:119|280:247,1,275
436,216,101571,2,0,P|374:122|341:112,1,137.5
163,278,101780,6,0,P|238:242|385:358,1,275
209,150,102095,2,0,P|245:284|139:242,1,275
30,272,102410,2,0,P|110:291|187:262,1,137.5
266,37,102620,6,0,P|142:60|111:212,1,275
288,257,102934,2,0,P|209:122|274:31,1,275
339,132,103249,2,0,P|279:157|206:149,1,137.5
394,301,103459,6,0,L|331:108,1,178.750005114079
171,324,103773,2,0,L|212:125,1,178.750005114079
0,213,104088,2,0,L|135:61,1,178.750005114079
242,0,104298,6,0,P|288:31|244:43,1,110
478,86,104613,6,0,P|347:115|281:241,1,275
315,362,104927,2,0,P|282:231|266:210,1,137.5
481,265,105137,6,0,P|466:174|411:277,1,275
185,323,105452,2,0,P|276:367|399:245,1,275
438,166,105766,2,0,P|384:203|397:267,1,137.5
172,189,105976,6,0,P|291:207|461:151,1,275
347,35,106291,2,0,P|433:160|393:269,1,275
216,40,106606,2,0,P|338:40|356:28,1,137.5
500,255,106815,6,0,B|443:175|443:175|382:129|382:129|346:35,1,275
298,175,107130,2,0,P|360:160|475:187,1,137.5
313,289,107340,1,0,0:0:0:0:
198,141,107445,2,0,P|164:124|171:188,1,137.5
197,36,107655,6,0,P|52:110|64:227,1,275
5,356,107969,2,0,P|92:223|-4:216,1,275
166,158,108284,2,0,P|117:251|124:296,1,137.5
372,241,108494,6,0,P|256:267|165:157,1,275
346,136,108808,2,0,P|322:184|331:104,1,275
225,0,109123,2,0,P|254:45|233:143,1,137.5
476,133,109333,6,0,P|355:66|227:161,1,275
410,276,109648,2,0,P|339:163|433:85,1,275
277,295,109962,2,0,P|345:299|410:276,1,137.5
251,221,110172,6,0,P|279:284|125:343,1,275
334,58,110487,2,0,P|256:151|284:303,1,275
114,223,110801,2,0,P|183:230|251:221,1,137.5
165,124,111011,5,0,0:0:0:0:
34,162,111116,2,0,P|18:210|43:295,1,137.5
267,126,111326,2,0,P|176:133|232:1,1,275
27,37,111641,2,0,P|96:44|160:126,1,137.5
346,189,111850,6,0,P|228:144|108:239,1,275
297,0,112165,2,0,P|244:119|346:189,1,275
244,273,112480,2,0,P|233:198|259:138,1,137.5
103,350,112689,6,0,P|246:304|371:372,1,275
3,273,113004,2,0,P|130:255|91:354,1,275
320,217,113319,2,0,P|337:320|381:372,1,137.5
188,92,113529,6,0,P|237:159|106:230,1,275
360,135,113843,2,0,P|323:168|234:166,1,137.5
408,258,114053,1,0,0:0:0:0:
432,69,114158,2,0,P|351:46|286:75,1,137.5
99,99,114368,6,0,P|96:15|162:111,1,275
106,230,114682,2,0,P|250:211|316:324,1,275
357,181,114997,2,0,P|324:229|318:322,1,137.5
339,110,115207,6,0,P|318:239|183:293,1,275
25,256,115522,2,0,P|137:235|196:369,1,275
93,148,115836,6,0,P|59:235|-6:261,1,137.5
11,280,117095,1,0,0:0:0:0:
8,307,117304,1,0,0:0:0:0:
12,334,117514,1,0,0:0:0:0:
100,344,117724,6,0,P|106:338|100:361,1,82.5
12,334,118144,5,0,0:0:0:0:
112,240,120242,1,0,0:0:0:0:
208,256,121920,1,0,0:0:0:0:
208,256,123389,5,0,0:0:0:0:
304,240,123598,1,0,0:0:0:0:
304,240,124438,1,0,0:0:0:0:
400,256,125277,1,0,0:0:0:0:
400,256,125906,1,0,0:0:0:0:
416,160,126745,5,0,0:0:0:0:
400,64,126955,1,0,0:0:0:0:
304,48,128634,1,0,0:0:0:0:
208,64,129473,6,0,P|158:72|91:58,1,110
55,29,130102,1,0,0:0:0:0:
44,139,130312,2,0,L|43:214,1,55
76,269,130731,2,0,L|76:306,2,27.5
160,208,131151,6,0,B|250:177|340:208|340:208|431:238|491:208,1,330
416,129,135347,1,0,0:0:0:0:
320,80,136606,2,0,L|272:80,1,41.25
256,97,137025,1,0,0:0:0:0:
176,256,137864,6,0,B|352:256|352:256|416:304|416:304|336:304,1,330
266,348,142060,1,0,0:0:0:0:
176,363,142899,2,0,P|139:364|116:360,1,55
63,301,143529,1,0,0:0:0:0:
49,215,143738,2,0,L|49:182,1,27.5
114,101,144158,2,0,L|114:117,2,13.75
208,48,144578,6,0,B|256:32|288:48|288:48|320:64|368:48,1,165
368,47,148774,1,0,0:0:0:0:
416,91,150452,1,0,0:0:0:0:
398,154,152130,1,0,0:0:0:0:
387,207,153808,1,0,0:0:0:0:
402,259,155487,1,0,0:0:0:0:
439,325,157165,6,0,B|424:363|383:373|383:373|398:339|381:314|381:314|340:313|317:277|317:277|355:281|374:258|374:258|363:217|383:189|383:189|397:222|426:232|426:232|460:209|493:220|493:220|466:244|466:274|466:274|498:300|498:334|498:334|467:316|450:323,1,660
