osu file format v14

[General]
AudioFilename: angel.mp3
AudioLeadIn: 0
PreviewTime: -1
Countdown: 0
SampleSet: None
StackLeniency: 0.7
Mode: 3
LetterboxInBreaks: 0
SpecialStyle: 0
WidescreenStoryboard: 0

[Editor]
Bookmarks: 2732,9307,15882,22458,29033,35608,42184,48759,55334,61910,81636,88211,94786,107937,114512,121088,127663
DistanceSpacing: 1
BeatDivisor: 4
GridSize: 4
TimelineZoom: 2.1

[Metadata]
Title:angelic_layer
TitleUnicode:angelic_layer
Artist:Shiki
ArtistUnicode:Shiki
Creator:fufu-
Version:4k Another
Source:
Tags:
BeatmapID:1415205
BeatmapSetID:669058

[Difficulty]
HPDrainRate:8
CircleSize:4
OverallDifficulty:9.3
ApproachRate:5
SliderMultiplier:1.4
SliderTickRate:1

[Events]
//Background and Video events
0,0,"title.jpg",0,0
//Break Periods
2,108137,112696
//Storyboard Layer 0 (Background)
//Storyboard Layer 1 (Fail)
//Storyboard Layer 2 (Pass)
//Storyboard Layer 3 (Foreground)
//Storyboard Sound Samples

[TimingPoints]
2732,410.958904109589,4,3,0,25,1,0

[HitObjects]
64,192,2732,5,4,0:0:0:0:
192,192,2732,1,0,0:0:0:0:
320,192,2732,1,0,0:0:0:0:
448,192,2732,1,0,0:0:0:0:
64,192,2834,1,0,0:0:0:0:
64,192,2937,1,2,0:0:0:0:
192,192,2937,1,0,0:0:0:0:
64,192,3040,1,0,0:0:0:0:
64,192,3142,1,8,0:0:0:0:
320,192,3142,1,0,0:0:0:0:
448,192,3142,1,0,0:0:0:0:
64,192,3245,1,0,0:0:0:0:
64,192,3348,1,2,0:0:0:0:
192,192,3348,1,0,0:0:0:0:
64,192,3451,1,0,0:0:0:0:
64,192,3553,1,8,0:0:0:0:
192,192,3553,1,0,0:0:0:0:
320,192,3553,1,0,0:0:0:0:
64,192,3656,1,0,0:0:0:0:
64,192,3759,1,2,0:0:0:0:
448,192,3759,1,0,0:0:0:0:
64,192,3862,1,0,0:0:0:0:
64,192,3964,1,8,0:0:0:0:
192,192,3964,1,0,0:0:0:0:
448,192,3964,1,0,0:0:0:0:
64,192,4067,1,0,0:0:0:0:
64,192,4170,1,2,0:0:0:0:
320,192,4170,1,0,0:0:0:0:
64,192,4273,1,0,0:0:0:0:
64,192,4375,1,8,0:0:0:0:
192,192,4375,1,0,0:0:0:0:
320,192,4375,1,0,0:0:0:0:
64,192,4478,1,0,0:0:0:0:
64,192,4581,1,2,0:0:0:0:
192,192,4581,1,0,0:0:0:0:
64,192,4684,1,0,0:0:0:0:
64,192,4786,1,8,0:0:0:0:
320,192,4786,1,0,0:0:0:0:
448,192,4786,1,0,0:0:0:0:
64,192,4889,1,0,0:0:0:0:
64,192,4992,1,2,0:0:0:0:
448,192,4992,1,0,0:0:0:0:
64,192,5095,1,0,0:0:0:0:
64,192,5197,1,8,0:0:0:0:
192,192,5197,1,0,0:0:0:0:
320,192,5197,1,0,0:0:0:0:
64,192,5300,1,0,0:0:0:0:
448,192,5300,1,0,0:0:0:0:
64,192,5403,1,2,0:0:0:0:
320,192,5403,1,0,0:0:0:0:
192,192,5403,1,0,0:0:0:0:
64,192,5505,1,0,0:0:0:0:
64,192,5608,1,8,0:0:0:0:
192,192,5608,1,0,0:0:0:0:
448,192,5608,1,0,0:0:0:0:
64,192,5711,1,0,0:0:0:0:
64,192,5814,1,2,0:0:0:0:
320,192,5814,1,0,0:0:0:0:
64,192,5916,1,0,0:0:0:0:
64,192,6019,1,8,0:0:0:0:
192,192,6019,1,0,0:0:0:0:
448,192,6019,1,0,0:0:0:0:
64,192,6122,1,0,0:0:0:0:
64,192,6225,1,2,0:0:0:0:
192,192,6225,1,0,0:0:0:0:
64,192,6327,1,0,0:0:0:0:
64,192,6430,1,8,0:0:0:0:
320,192,6430,1,0,0:0:0:0:
448,192,6430,1,0,0:0:0:0:
64,192,6533,1,0,0:0:0:0:
64,192,6636,1,2,0:0:0:0:
192,192,6636,1,0,0:0:0:0:
64,192,6738,1,0,0:0:0:0:
64,192,6841,1,8,0:0:0:0:
192,192,6841,1,0,0:0:0:0:
320,192,6841,1,0,0:0:0:0:
64,192,6944,1,0,0:0:0:0:
64,192,7047,1,2,0:0:0:0:
320,192,7047,1,0,0:0:0:0:
64,192,7149,1,0,0:0:0:0:
64,192,7252,1,8,0:0:0:0:
320,192,7252,1,0,0:0:0:0:
192,192,7252,1,0,0:0:0:0:
64,192,7355,1,0,0:0:0:0:
64,192,7458,1,2,0:0:0:0:
448,192,7458,1,0,0:0:0:0:
64,192,7560,1,0,0:0:0:0:
64,192,7663,1,8,0:0:0:0:
192,192,7663,1,0,0:0:0:0:
320,192,7663,1,0,0:0:0:0:
64,192,7766,1,0,0:0:0:0:
64,192,7868,1,2,0:0:0:0:
192,192,7868,1,0,0:0:0:0:
64,192,7971,1,0,0:0:0:0:
64,192,8074,1,8,0:0:0:0:
320,192,8074,1,0,0:0:0:0:
448,192,8074,1,0,0:0:0:0:
64,192,8177,1,0,0:0:0:0:
64,192,8279,1,2,0:0:0:0:
192,192,8279,1,0,0:0:0:0:
64,192,8382,1,0,0:0:0:0:
64,192,8485,1,2,0:0:0:0:
320,192,8485,1,0,0:0:0:0:
448,192,8485,1,0,0:0:0:0:
64,192,8588,1,8,0:0:0:0:
192,192,8588,1,0,0:0:0:0:
64,192,8690,1,8,0:0:0:0:
320,192,8690,1,0,0:0:0:0:
448,192,8690,1,0,0:0:0:0:
64,192,8793,1,0,0:0:0:0:
64,192,8896,1,8,0:0:0:0:
192,192,8896,1,0,0:0:0:0:
320,192,8896,1,0,0:0:0:0:
64,192,8999,1,0,0:0:0:0:
64,192,9101,1,2,0:0:0:0:
448,192,9101,1,0,0:0:0:0:
64,192,9204,1,0,0:0:0:0:
64,192,9307,1,8,0:0:0:0:
192,192,9307,1,0,0:0:0:0:
320,192,9307,1,0,0:0:0:0:
64,192,14238,1,0,0:0:0:0:
320,192,15882,1,0,0:0:0:0:
64,192,15882,1,0,0:0:0:0:
448,192,15882,1,0,0:0:0:0:
320,192,15985,1,0,0:0:0:0:
192,192,15985,1,0,0:0:0:0:
320,192,16088,1,0,0:0:0:0:
64,192,16088,1,0,0:0:0:0:
320,192,16190,1,0,0:0:0:0:
192,192,16190,1,0,0:0:0:0:
320,192,16293,1,0,0:0:0:0:
64,192,16293,1,0,0:0:0:0:
448,192,16293,1,0,0:0:0:0:
320,192,16396,1,0,0:0:0:0:
192,192,16396,1,0,0:0:0:0:
320,192,16499,1,0,0:0:0:0:
64,192,16499,1,0,0:0:0:0:
320,192,16601,1,0,0:0:0:0:
448,192,16601,1,0,0:0:0:0:
320,192,16704,1,0,0:0:0:0:
64,192,16704,1,0,0:0:0:0:
320,192,16807,1,0,0:0:0:0:
192,192,16807,1,0,0:0:0:0:
320,192,16910,1,0,0:0:0:0:
448,192,16910,1,0,0:0:0:0:
320,192,17012,1,0,0:0:0:0:
192,192,17012,1,0,0:0:0:0:
320,192,17115,1,0,0:0:0:0:
64,192,17115,1,0,0:0:0:0:
448,192,17115,1,0,0:0:0:0:
320,192,17218,1,0,0:0:0:0:
192,192,17218,1,0,0:0:0:0:
320,192,17321,1,0,0:0:0:0:
448,192,17321,1,0,0:0:0:0:
320,192,17423,1,0,0:0:0:0:
192,192,17423,1,0,0:0:0:0:
320,192,17526,1,0,0:0:0:0:
64,192,17526,1,0,0:0:0:0:
192,192,17526,1,0,0:0:0:0:
320,192,17629,1,0,0:0:0:0:
448,192,17629,1,0,0:0:0:0:
320,192,17732,1,0,0:0:0:0:
192,192,17732,1,0,0:0:0:0:
320,192,17834,1,0,0:0:0:0:
64,192,17834,1,0,0:0:0:0:
320,192,17937,1,0,0:0:0:0:
192,192,17937,1,0,0:0:0:0:
448,192,17937,1,0,0:0:0:0:
320,192,18040,1,0,0:0:0:0:
64,192,18040,1,0,0:0:0:0:
320,192,18142,1,0,0:0:0:0:
192,192,18142,1,0,0:0:0:0:
320,192,18245,1,0,0:0:0:0:
64,192,18245,1,0,0:0:0:0:
320,192,18348,1,0,0:0:0:0:
192,192,18348,1,0,0:0:0:0:
448,192,18348,1,0,0:0:0:0:
320,192,18451,1,0,0:0:0:0:
192,192,18451,1,0,0:0:0:0:
64,192,18451,1,0,0:0:0:0:
320,192,18553,1,0,0:0:0:0:
192,192,18553,1,0,0:0:0:0:
320,192,18656,1,0,0:0:0:0:
448,192,18656,1,0,0:0:0:0:
320,192,18759,1,0,0:0:0:0:
64,192,18759,1,0,0:0:0:0:
192,192,18759,1,0,0:0:0:0:
320,192,18862,1,0,0:0:0:0:
192,192,18862,1,0,0:0:0:0:
320,192,18964,1,0,0:0:0:0:
448,192,18964,1,0,0:0:0:0:
320,192,19067,1,0,0:0:0:0:
192,192,19067,1,0,0:0:0:0:
320,192,19170,1,0,0:0:0:0:
64,192,19170,1,0,0:0:0:0:
448,192,19170,1,0,0:0:0:0:
320,192,19273,1,0,0:0:0:0:
192,192,19273,1,0,0:0:0:0:
320,192,19375,1,0,0:0:0:0:
64,192,19375,1,0,0:0:0:0:
320,192,19478,1,0,0:0:0:0:
448,192,19478,1,0,0:0:0:0:
320,192,19581,1,0,0:0:0:0:
192,192,19581,1,0,0:0:0:0:
64,192,19581,1,0,0:0:0:0:
320,192,19684,1,0,0:0:0:0:
448,192,19684,1,0,0:0:0:0:
320,192,19786,1,0,0:0:0:0:
192,192,19786,1,0,0:0:0:0:
320,192,19889,1,0,0:0:0:0:
448,192,19889,1,0,0:0:0:0:
320,192,19992,1,0,0:0:0:0:
192,192,19992,1,0,0:0:0:0:
320,192,20095,1,0,0:0:0:0:
64,192,20095,1,0,0:0:0:0:
320,192,20197,1,0,0:0:0:0:
64,192,20197,1,0,0:0:0:0:
320,192,20300,1,0,0:0:0:0:
192,192,20300,1,0,0:0:0:0:
320,192,20403,1,0,0:0:0:0:
64,192,20403,1,0,0:0:0:0:
448,192,20403,1,0,0:0:0:0:
320,192,20505,1,0,0:0:0:0:
448,192,20505,1,0,0:0:0:0:
320,192,20608,1,0,0:0:0:0:
192,192,20608,1,0,0:0:0:0:
320,192,20711,1,0,0:0:0:0:
64,192,20711,1,0,0:0:0:0:
320,192,20814,1,0,0:0:0:0:
192,192,20814,1,0,0:0:0:0:
320,192,20916,1,0,0:0:0:0:
448,192,20916,1,0,0:0:0:0:
320,192,21019,1,0,0:0:0:0:
192,192,21019,1,0,0:0:0:0:
320,192,21122,1,0,0:0:0:0:
448,192,21122,1,0,0:0:0:0:
320,192,21225,1,0,0:0:0:0:
192,192,21225,1,0,0:0:0:0:
64,192,21225,1,0,0:0:0:0:
320,192,21327,1,0,0:0:0:0:
448,192,21327,1,0,0:0:0:0:
320,192,21430,1,0,0:0:0:0:
192,192,21430,1,0,0:0:0:0:
320,192,21533,1,0,0:0:0:0:
64,192,21533,1,0,0:0:0:0:
320,192,21636,1,0,0:0:0:0:
192,192,21636,1,0,0:0:0:0:
320,192,21738,1,0,0:0:0:0:
64,192,21738,1,0,0:0:0:0:
448,192,21738,1,0,0:0:0:0:
320,192,21841,1,0,0:0:0:0:
192,192,21841,1,0,0:0:0:0:
320,192,21944,1,0,0:0:0:0:
64,192,21944,1,0,0:0:0:0:
320,192,22047,1,0,0:0:0:0:
192,192,22047,1,0,0:0:0:0:
448,192,22047,1,0,0:0:0:0:
320,192,22149,1,0,0:0:0:0:
320,192,22252,1,0,0:0:0:0:
448,192,22252,1,0,0:0:0:0:
64,192,22252,1,0,0:0:0:0:
320,192,22355,1,0,0:0:0:0:
448,192,22355,1,0,0:0:0:0:
64,192,22355,1,0,0:0:0:0:
192,192,22458,1,0,0:0:0:0:
448,192,22458,1,0,0:0:0:0:
64,192,22458,1,0,0:0:0:0:
192,192,22560,1,0,0:0:0:0:
320,192,22560,1,0,0:0:0:0:
192,192,22663,1,0,0:0:0:0:
448,192,22663,1,0,0:0:0:0:
192,192,22766,1,0,0:0:0:0:
320,192,22766,1,0,0:0:0:0:
192,192,22868,1,0,0:0:0:0:
448,192,22868,1,0,0:0:0:0:
64,192,22868,1,0,0:0:0:0:
192,192,22971,1,0,0:0:0:0:
320,192,22971,1,0,0:0:0:0:
192,192,23074,1,0,0:0:0:0:
448,192,23074,1,0,0:0:0:0:
192,192,23177,1,0,0:0:0:0:
64,192,23177,1,0,0:0:0:0:
192,192,23279,1,0,0:0:0:0:
448,192,23279,1,0,0:0:0:0:
192,192,23382,1,0,0:0:0:0:
320,192,23382,1,0,0:0:0:0:
192,192,23485,1,0,0:0:0:0:
64,192,23485,1,0,0:0:0:0:
192,192,23588,1,0,0:0:0:0:
320,192,23588,1,0,0:0:0:0:
192,192,23690,1,0,0:0:0:0:
448,192,23690,1,0,0:0:0:0:
64,192,23690,1,0,0:0:0:0:
192,192,23793,1,0,0:0:0:0:
320,192,23793,1,0,0:0:0:0:
192,192,23896,1,0,0:0:0:0:
64,192,23896,1,0,0:0:0:0:
192,192,23999,1,0,0:0:0:0:
320,192,23999,1,0,0:0:0:0:
192,192,24101,1,0,0:0:0:0:
448,192,24101,1,0,0:0:0:0:
320,192,24101,1,0,0:0:0:0:
192,192,24204,1,0,0:0:0:0:
64,192,24204,1,0,0:0:0:0:
192,192,24307,1,0,0:0:0:0:
320,192,24307,1,0,0:0:0:0:
192,192,24410,1,0,0:0:0:0:
448,192,24410,1,0,0:0:0:0:
192,192,24512,1,0,0:0:0:0:
320,192,24512,1,0,0:0:0:0:
64,192,24512,1,0,0:0:0:0:
192,192,24615,1,0,0:0:0:0:
448,192,24615,1,0,0:0:0:0:
192,192,24718,1,0,0:0:0:0:
320,192,24718,1,0,0:0:0:0:
192,192,24821,1,0,0:0:0:0:
448,192,24821,1,0,0:0:0:0:
192,192,24923,1,0,0:0:0:0:
320,192,24923,1,0,0:0:0:0:
64,192,24923,1,0,0:0:0:0:
192,192,25026,1,0,0:0:0:0:
320,192,25026,1,0,0:0:0:0:
448,192,25026,1,0,0:0:0:0:
192,192,25129,1,0,0:0:0:0:
320,192,25129,1,0,0:0:0:0:
192,192,25232,1,0,0:0:0:0:
64,192,25232,1,0,0:0:0:0:
192,192,25334,1,0,0:0:0:0:
448,192,25334,1,0,0:0:0:0:
320,192,25334,1,0,0:0:0:0:
192,192,25437,1,0,0:0:0:0:
320,192,25437,1,0,0:0:0:0:
192,192,25540,1,0,0:0:0:0:
64,192,25540,1,0,0:0:0:0:
192,192,25642,1,0,0:0:0:0:
320,192,25642,1,0,0:0:0:0:
192,192,25745,1,0,0:0:0:0:
448,192,25745,1,0,0:0:0:0:
64,192,25745,1,0,0:0:0:0:
192,192,25848,1,0,0:0:0:0:
320,192,25848,1,0,0:0:0:0:
192,192,25951,1,0,0:0:0:0:
448,192,25951,1,0,0:0:0:0:
192,192,26053,1,0,0:0:0:0:
64,192,26053,1,0,0:0:0:0:
192,192,26156,1,0,0:0:0:0:
320,192,26156,1,0,0:0:0:0:
448,192,26156,1,0,0:0:0:0:
192,192,26259,1,0,0:0:0:0:
64,192,26259,1,0,0:0:0:0:
192,192,26362,1,0,0:0:0:0:
320,192,26362,1,0,0:0:0:0:
192,192,26464,1,0,0:0:0:0:
64,192,26464,1,0,0:0:0:0:
192,192,26567,1,0,0:0:0:0:
320,192,26567,1,0,0:0:0:0:
192,192,26670,1,0,0:0:0:0:
448,192,26670,1,0,0:0:0:0:
192,192,26773,1,0,0:0:0:0:
448,192,26773,1,0,0:0:0:0:
192,192,26875,1,0,0:0:0:0:
320,192,26875,1,0,0:0:0:0:
192,192,26978,1,0,0:0:0:0:
448,192,26978,1,0,0:0:0:0:
64,192,26978,1,0,0:0:0:0:
192,192,27081,1,0,0:0:0:0:
64,192,27081,1,0,0:0:0:0:
192,192,27184,1,0,0:0:0:0:
320,192,27184,1,0,0:0:0:0:
192,192,27286,1,0,0:0:0:0:
448,192,27286,1,0,0:0:0:0:
192,192,27389,1,0,0:0:0:0:
320,192,27389,1,0,0:0:0:0:
192,192,27492,1,0,0:0:0:0:
64,192,27492,1,0,0:0:0:0:
192,192,27595,1,0,0:0:0:0:
320,192,27595,1,0,0:0:0:0:
192,192,27697,1,0,0:0:0:0:
64,192,27697,1,0,0:0:0:0:
192,192,27800,1,0,0:0:0:0:
320,192,27800,1,0,0:0:0:0:
448,192,27800,1,0,0:0:0:0:
192,192,27903,1,0,0:0:0:0:
64,192,27903,1,0,0:0:0:0:
192,192,28005,1,0,0:0:0:0:
320,192,28005,1,0,0:0:0:0:
192,192,28108,1,0,0:0:0:0:
448,192,28108,1,0,0:0:0:0:
192,192,28211,1,0,0:0:0:0:
320,192,28211,1,0,0:0:0:0:
192,192,28314,1,0,0:0:0:0:
448,192,28314,1,0,0:0:0:0:
64,192,28314,1,0,0:0:0:0:
192,192,28416,1,0,0:0:0:0:
320,192,28416,1,0,0:0:0:0:
192,192,28519,1,0,0:0:0:0:
448,192,28519,1,0,0:0:0:0:
192,192,28622,1,0,0:0:0:0:
320,192,28622,1,0,0:0:0:0:
64,192,28622,1,0,0:0:0:0:
192,192,28725,1,0,0:0:0:0:
192,192,28827,1,0,0:0:0:0:
64,192,28827,1,0,0:0:0:0:
448,192,28827,1,0,0:0:0:0:
192,192,28930,1,0,0:0:0:0:
64,192,28930,1,0,0:0:0:0:
448,192,28930,1,0,0:0:0:0:
192,192,29033,1,0,0:0:0:0:
64,192,29033,1,0,0:0:0:0:
448,192,29033,1,0,0:0:0:0:
448,192,29136,1,0,0:0:0:0:
448,192,29238,1,0,0:0:0:0:
448,192,29341,1,0,0:0:0:0:
448,192,29444,1,0,0:0:0:0:
448,192,29547,1,0,0:0:0:0:
448,192,29649,1,0,0:0:0:0:
448,192,29752,1,0,0:0:0:0:
448,192,29855,1,0,0:0:0:0:
448,192,29958,1,0,0:0:0:0:
448,192,30060,1,0,0:0:0:0:
64,192,30060,1,0,0:0:0:0:
448,192,30163,1,0,0:0:0:0:
448,192,30266,1,0,0:0:0:0:
448,192,30368,1,0,0:0:0:0:
448,192,30471,1,0,0:0:0:0:
192,192,30471,1,0,0:0:0:0:
448,192,30574,1,0,0:0:0:0:
320,192,30677,1,0,0:0:0:0:
448,192,30677,1,0,0:0:0:0:
64,192,30677,1,0,0:0:0:0:
448,192,30779,1,0,0:0:0:0:
448,192,30882,1,0,0:0:0:0:
448,192,30985,1,0,0:0:0:0:
448,192,31088,1,0,0:0:0:0:
448,192,31190,1,0,0:0:0:0:
448,192,31293,1,0,0:0:0:0:
448,192,31396,1,0,0:0:0:0:
448,192,31499,1,0,0:0:0:0:
448,192,31601,1,0,0:0:0:0:
448,192,31704,1,0,0:0:0:0:
192,192,31704,1,0,0:0:0:0:
448,192,31807,1,0,0:0:0:0:
448,192,31910,1,0,0:0:0:0:
448,192,32012,1,0,0:0:0:0:
448,192,32115,1,0,0:0:0:0:
320,192,32115,1,0,0:0:0:0:
448,192,32218,1,0,0:0:0:0:
448,192,32321,1,0,0:0:0:0:
192,192,32321,1,0,0:0:0:0:
64,192,32321,1,0,0:0:0:0:
448,192,32423,1,0,0:0:0:0:
448,192,32526,1,0,0:0:0:0:
448,192,32629,1,0,0:0:0:0:
448,192,32731,1,0,0:0:0:0:
448,192,32834,1,0,0:0:0:0:
448,192,32937,1,0,0:0:0:0:
448,192,33040,1,0,0:0:0:0:
448,192,33142,1,0,0:0:0:0:
448,192,33245,1,0,0:0:0:0:
448,192,33348,1,0,0:0:0:0:
320,192,33348,1,0,0:0:0:0:
448,192,33451,1,0,0:0:0:0:
448,192,33553,1,0,0:0:0:0:
448,192,33656,1,0,0:0:0:0:
448,192,33759,1,0,0:0:0:0:
64,192,33759,1,0,0:0:0:0:
448,192,33862,1,0,0:0:0:0:
448,192,33964,1,0,0:0:0:0:
192,192,33964,1,0,0:0:0:0:
320,192,33964,1,0,0:0:0:0:
448,192,34067,1,0,0:0:0:0:
448,192,34170,1,0,0:0:0:0:
448,192,34273,1,0,0:0:0:0:
448,192,34375,1,0,0:0:0:0:
320,192,34375,1,0,0:0:0:0:
448,192,34478,1,0,0:0:0:0:
448,192,34581,1,0,0:0:0:0:
448,192,34684,1,0,0:0:0:0:
448,192,34786,1,0,0:0:0:0:
192,192,34786,1,0,0:0:0:0:
448,192,34889,1,0,0:0:0:0:
64,192,34992,1,0,0:0:0:0:
448,192,34992,1,0,0:0:0:0:
448,192,35095,1,0,0:0:0:0:
320,192,35197,1,0,0:0:0:0:
448,192,35197,1,0,0:0:0:0:
448,192,35300,1,0,0:0:0:0:
448,192,35403,1,0,0:0:0:0:
448,192,35505,1,0,0:0:0:0:
448,192,35608,1,0,0:0:0:0:
320,192,35608,1,0,0:0:0:0:
64,192,35608,1,0,0:0:0:0:
448,192,35711,1,0,0:0:0:0:
448,192,35814,1,0,0:0:0:0:
448,192,35916,1,0,0:0:0:0:
448,192,36019,1,0,0:0:0:0:
448,192,36122,1,0,0:0:0:0:
448,192,36225,1,0,0:0:0:0:
448,192,36327,1,0,0:0:0:0:
448,192,36430,1,0,0:0:0:0:
448,192,36533,1,0,0:0:0:0:
448,192,36636,1,0,0:0:0:0:
192,192,36636,1,0,0:0:0:0:
448,192,36738,1,0,0:0:0:0:
448,192,36841,1,0,0:0:0:0:
448,192,36944,1,0,0:0:0:0:
448,192,37047,1,0,0:0:0:0:
192,192,37047,1,0,0:0:0:0:
448,192,37149,1,0,0:0:0:0:
448,192,37252,1,0,0:0:0:0:
64,192,37252,1,0,0:0:0:0:
320,192,37252,1,0,0:0:0:0:
448,192,37355,1,0,0:0:0:0:
448,192,37458,1,0,0:0:0:0:
448,192,37560,1,0,0:0:0:0:
448,192,37663,1,0,0:0:0:0:
448,192,37766,1,0,0:0:0:0:
448,192,37868,1,0,0:0:0:0:
448,192,37971,1,0,0:0:0:0:
448,192,38074,1,0,0:0:0:0:
448,192,38177,1,0,0:0:0:0:
448,192,38279,1,0,0:0:0:0:
320,192,38279,1,0,0:0:0:0:
448,192,38382,1,0,0:0:0:0:
448,192,38485,1,0,0:0:0:0:
448,192,38588,1,0,0:0:0:0:
192,192,38690,1,0,0:0:0:0:
448,192,38690,1,0,0:0:0:0:
448,192,38793,1,0,0:0:0:0:
64,192,38896,1,0,0:0:0:0:
192,192,38896,1,0,0:0:0:0:
448,192,38896,1,0,0:0:0:0:
448,192,38999,1,0,0:0:0:0:
448,192,39101,1,0,0:0:0:0:
448,192,39204,1,0,0:0:0:0:
448,192,39307,1,0,0:0:0:0:
448,192,39410,1,0,0:0:0:0:
448,192,39512,1,0,0:0:0:0:
448,192,39615,1,0,0:0:0:0:
448,192,39718,1,0,0:0:0:0:
320,192,39718,1,0,0:0:0:0:
192,192,39718,1,0,0:0:0:0:
448,192,39821,1,0,0:0:0:0:
448,192,39923,1,0,0:0:0:0:
448,192,40026,1,0,0:0:0:0:
448,192,40129,1,0,0:0:0:0:
448,192,40232,1,0,0:0:0:0:
448,192,40334,1,0,0:0:0:0:
320,192,40334,1,0,0:0:0:0:
448,192,40437,1,0,0:0:0:0:
192,192,40437,1,0,0:0:0:0:
448,192,40540,1,0,0:0:0:0:
64,192,40540,1,0,0:0:0:0:
448,192,40642,1,0,0:0:0:0:
192,192,40642,1,0,0:0:0:0:
448,192,40745,1,0,0:0:0:0:
320,192,40745,1,0,0:0:0:0:
448,192,40848,1,0,0:0:0:0:
192,192,40848,1,0,0:0:0:0:
448,192,40951,1,0,0:0:0:0:
64,192,40951,1,0,0:0:0:0:
448,192,41053,1,0,0:0:0:0:
192,192,41053,1,0,0:0:0:0:
448,192,41156,1,0,0:0:0:0:
320,192,41156,1,0,0:0:0:0:
448,192,41259,1,0,0:0:0:0:
192,192,41259,1,0,0:0:0:0:
448,192,41362,1,0,0:0:0:0:
64,192,41362,1,0,0:0:0:0:
448,192,41464,1,0,0:0:0:0:
192,192,41464,1,0,0:0:0:0:
448,192,41567,1,0,0:0:0:0:
320,192,41567,1,0,0:0:0:0:
448,192,41670,1,0,0:0:0:0:
192,192,41670,1,0,0:0:0:0:
448,192,41773,1,0,0:0:0:0:
64,192,41773,1,0,0:0:0:0:
448,192,41875,1,0,0:0:0:0:
192,192,41875,1,0,0:0:0:0:
448,192,41978,1,0,0:0:0:0:
320,192,41978,1,0,0:0:0:0:
448,192,42081,1,0,0:0:0:0:
192,192,42081,1,0,0:0:0:0:
448,192,42184,1,0,0:0:0:0:
64,192,42184,1,0,0:0:0:0:
64,192,42286,1,0,0:0:0:0:
64,192,42389,1,0,0:0:0:0:
64,192,42492,1,0,0:0:0:0:
64,192,42595,1,0,0:0:0:0:
64,192,42697,1,0,0:0:0:0:
64,192,42800,1,0,0:0:0:0:
64,192,42903,1,0,0:0:0:0:
64,192,43005,1,0,0:0:0:0:
64,192,43108,1,0,0:0:0:0:
64,192,43211,1,0,0:0:0:0:
192,192,43211,1,0,0:0:0:0:
64,192,43314,1,0,0:0:0:0:
64,192,43416,1,0,0:0:0:0:
64,192,43519,1,0,0:0:0:0:
64,192,43622,1,0,0:0:0:0:
192,192,43622,1,0,0:0:0:0:
64,192,43725,1,0,0:0:0:0:
64,192,43827,1,0,0:0:0:0:
192,192,43827,1,0,0:0:0:0:
320,192,43827,1,0,0:0:0:0:
64,192,43930,1,0,0:0:0:0:
64,192,44033,1,0,0:0:0:0:
64,192,44136,1,0,0:0:0:0:
64,192,44238,1,0,0:0:0:0:
64,192,44341,1,0,0:0:0:0:
64,192,44444,1,0,0:0:0:0:
64,192,44547,1,0,0:0:0:0:
64,192,44649,1,0,0:0:0:0:
64,192,44752,1,0,0:0:0:0:
64,192,44855,1,0,0:0:0:0:
320,192,44855,1,0,0:0:0:0:
64,192,44958,1,0,0:0:0:0:
64,192,45060,1,0,0:0:0:0:
64,192,45163,1,0,0:0:0:0:
64,192,45266,1,0,0:0:0:0:
320,192,45266,1,0,0:0:0:0:
64,192,45368,1,0,0:0:0:0:
64,192,45471,1,0,0:0:0:0:
448,192,45471,1,0,0:0:0:0:
192,192,45471,1,0,0:0:0:0:
64,192,45574,1,0,0:0:0:0:
64,192,45677,1,0,0:0:0:0:
64,192,45779,1,0,0:0:0:0:
64,192,45882,1,0,0:0:0:0:
64,192,45985,1,0,0:0:0:0:
64,192,46088,1,0,0:0:0:0:
64,192,46190,1,0,0:0:0:0:
64,192,46293,1,0,0:0:0:0:
64,192,46396,1,0,0:0:0:0:
64,192,46499,1,0,0:0:0:0:
448,192,46499,1,0,0:0:0:0:
64,192,46601,1,0,0:0:0:0:
64,192,46704,1,0,0:0:0:0:
64,192,46807,1,0,0:0:0:0:
64,192,46910,1,0,0:0:0:0:
448,192,46910,1,0,0:0:0:0:
64,192,47012,1,0,0:0:0:0:
64,192,47115,1,0,0:0:0:0:
448,192,47115,1,0,0:0:0:0:
320,192,47115,1,0,0:0:0:0:
64,192,47218,1,0,0:0:0:0:
64,192,47321,1,0,0:0:0:0:
64,192,47423,1,0,0:0:0:0:
64,192,47526,1,0,0:0:0:0:
448,192,47526,1,0,0:0:0:0:
192,192,47526,1,0,0:0:0:0:
64,192,47629,1,0,0:0:0:0:
64,192,47732,1,0,0:0:0:0:
64,192,47834,1,0,0:0:0:0:
64,192,47937,1,0,0:0:0:0:
320,192,47937,1,0,0:0:0:0:
192,192,47937,1,0,0:0:0:0:
64,192,48040,1,0,0:0:0:0:
64,192,48142,1,0,0:0:0:0:
448,192,48142,1,0,0:0:0:0:
64,192,48245,1,0,0:0:0:0:
64,192,48348,1,0,0:0:0:0:
64,192,48451,1,0,0:0:0:0:
64,192,48553,1,0,0:0:0:0:
64,192,48656,1,0,0:0:0:0:
192,192,48759,1,0,0:0:0:0:
64,192,48759,1,0,0:0:0:0:
192,192,48862,1,0,0:0:0:0:
192,192,48964,1,0,0:0:0:0:
192,192,49067,1,0,0:0:0:0:
192,192,49170,1,0,0:0:0:0:
192,192,49273,1,0,0:0:0:0:
192,192,49375,1,0,0:0:0:0:
192,192,49478,1,0,0:0:0:0:
192,192,49581,1,0,0:0:0:0:
192,192,49684,1,0,0:0:0:0:
192,192,49786,1,0,0:0:0:0:
448,192,49786,1,0,0:0:0:0:
192,192,49889,1,0,0:0:0:0:
192,192,49992,1,0,0:0:0:0:
192,192,50095,1,0,0:0:0:0:
192,192,50197,1,0,0:0:0:0:
448,192,50197,1,0,0:0:0:0:
192,192,50300,1,0,0:0:0:0:
192,192,50403,1,0,0:0:0:0:
448,192,50403,1,0,0:0:0:0:
64,192,50403,1,0,0:0:0:0:
192,192,50505,1,0,0:0:0:0:
192,192,50608,1,0,0:0:0:0:
192,192,50711,1,0,0:0:0:0:
192,192,50814,1,0,0:0:0:0:
192,192,50916,1,0,0:0:0:0:
192,192,51019,1,0,0:0:0:0:
192,192,51122,1,0,0:0:0:0:
192,192,51225,1,0,0:0:0:0:
192,192,51327,1,0,0:0:0:0:
192,192,51430,1,0,0:0:0:0:
448,192,51430,1,0,0:0:0:0:
192,192,51533,1,0,0:0:0:0:
192,192,51636,1,0,0:0:0:0:
192,192,51738,1,0,0:0:0:0:
192,192,51841,1,0,0:0:0:0:
448,192,51841,1,0,0:0:0:0:
192,192,51944,1,0,0:0:0:0:
192,192,52047,1,0,0:0:0:0:
64,192,52047,1,0,0:0:0:0:
448,192,52047,1,0,0:0:0:0:
192,192,52149,1,0,0:0:0:0:
192,192,52252,1,0,0:0:0:0:
192,192,52355,1,0,0:0:0:0:
192,192,52458,1,0,0:0:0:0:
192,192,52560,1,0,0:0:0:0:
192,192,52663,1,0,0:0:0:0:
192,192,52766,1,0,0:0:0:0:
192,192,52868,1,0,0:0:0:0:
448,192,52868,1,0,0:0:0:0:
64,192,52868,1,0,0:0:0:0:
192,192,52971,1,0,0:0:0:0:
192,192,53074,1,0,0:0:0:0:
192,192,53177,1,0,0:0:0:0:
192,192,53279,1,0,0:0:0:0:
192,192,53382,1,0,0:0:0:0:
192,192,53485,1,0,0:0:0:0:
448,192,53485,1,0,0:0:0:0:
192,192,53588,1,0,0:0:0:0:
320,192,53588,1,0,0:0:0:0:
192,192,53690,1,0,0:0:0:0:
64,192,53690,1,0,0:0:0:0:
192,192,53793,1,0,0:0:0:0:
320,192,53793,1,0,0:0:0:0:
192,192,53896,1,0,0:0:0:0:
448,192,53896,1,0,0:0:0:0:
192,192,53999,1,0,0:0:0:0:
320,192,53999,1,0,0:0:0:0:
192,192,54101,1,0,0:0:0:0:
64,192,54101,1,0,0:0:0:0:
192,192,54204,1,0,0:0:0:0:
320,192,54204,1,0,0:0:0:0:
192,192,54307,1,0,0:0:0:0:
448,192,54307,1,0,0:0:0:0:
192,192,54410,1,0,0:0:0:0:
320,192,54410,1,0,0:0:0:0:
192,192,54512,1,0,0:0:0:0:
64,192,54512,1,0,0:0:0:0:
192,192,54615,1,0,0:0:0:0:
320,192,54615,1,0,0:0:0:0:
192,192,54718,1,0,0:0:0:0:
448,192,54718,1,0,0:0:0:0:
192,192,54821,1,0,0:0:0:0:
320,192,54821,1,0,0:0:0:0:
192,192,54923,1,0,0:0:0:0:
64,192,54923,1,0,0:0:0:0:
192,192,55026,1,0,0:0:0:0:
320,192,55026,1,0,0:0:0:0:
192,192,55129,1,0,0:0:0:0:
448,192,55129,1,0,0:0:0:0:
192,192,55232,1,0,0:0:0:0:
320,192,55232,1,0,0:0:0:0:
64,192,55334,1,0,0:0:0:0:
448,192,55334,1,0,0:0:0:0:
192,192,55334,1,0,0:0:0:0:
320,192,55334,1,0,0:0:0:0:
192,192,55540,1,0,0:0:0:0:
192,192,55642,1,0,0:0:0:0:
192,192,55745,1,0,0:0:0:0:
320,192,55745,1,0,0:0:0:0:
448,192,55745,1,0,0:0:0:0:
64,192,55745,1,0,0:0:0:0:
448,192,55848,1,0,0:0:0:0:
448,192,56053,1,0,0:0:0:0:
320,192,56156,1,0,0:0:0:0:
192,192,56156,1,0,0:0:0:0:
64,192,56156,1,0,0:0:0:0:
448,192,56156,1,0,0:0:0:0:
448,192,56259,1,0,0:0:0:0:
448,192,56464,1,0,0:0:0:0:
448,192,56567,1,0,0:0:0:0:
64,192,56567,1,0,0:0:0:0:
320,192,56567,1,0,0:0:0:0:
192,192,56567,1,0,0:0:0:0:
64,192,56670,1,0,0:0:0:0:
448,192,56773,1,0,0:0:0:0:
448,192,56875,1,0,0:0:0:0:
448,192,56978,1,0,0:0:0:0:
320,192,56978,1,0,0:0:0:0:
192,192,56978,1,0,0:0:0:0:
64,192,56978,1,0,0:0:0:0:
192,192,57184,1,0,0:0:0:0:
192,192,57286,1,0,0:0:0:0:
192,192,57389,1,0,0:0:0:0:
64,192,57389,1,0,0:0:0:0:
320,192,57389,1,0,0:0:0:0:
448,192,57389,1,0,0:0:0:0:
64,192,57492,1,0,0:0:0:0:
192,192,57697,1,0,0:0:0:0:
64,192,57800,1,0,0:0:0:0:
192,192,57800,1,0,0:0:0:0:
320,192,57800,1,0,0:0:0:0:
448,192,57800,1,0,0:0:0:0:
320,192,57903,1,0,0:0:0:0:
448,192,58108,1,0,0:0:0:0:
192,192,58211,1,0,0:0:0:0:
320,192,58211,1,0,0:0:0:0:
64,192,58211,1,0,0:0:0:0:
448,192,58211,1,0,0:0:0:0:
192,192,58314,1,0,0:0:0:0:
320,192,58416,1,0,0:0:0:0:
320,192,58519,1,0,0:0:0:0:
320,192,58622,1,0,0:0:0:0:
192,192,58622,1,0,0:0:0:0:
448,192,58622,1,0,0:0:0:0:
64,192,58622,1,0,0:0:0:0:
320,192,58827,1,0,0:0:0:0:
320,192,58930,1,0,0:0:0:0:
320,192,59033,1,0,0:0:0:0:
192,192,59033,1,0,0:0:0:0:
64,192,59033,1,0,0:0:0:0:
448,192,59033,1,0,0:0:0:0:
320,192,59136,1,0,0:0:0:0:
320,192,59341,1,0,0:0:0:0:
320,192,59444,1,0,0:0:0:0:
448,192,59444,1,0,0:0:0:0:
192,192,59444,1,0,0:0:0:0:
64,192,59444,1,0,0:0:0:0:
448,192,59547,1,0,0:0:0:0:
320,192,59649,1,0,0:0:0:0:
320,192,59752,1,0,0:0:0:0:
192,192,59855,1,0,0:0:0:0:
448,192,59855,1,0,0:0:0:0:
64,192,59855,1,0,0:0:0:0:
320,192,59855,1,0,0:0:0:0:
192,192,59958,1,0,0:0:0:0:
64,192,60060,1,0,0:0:0:0:
64,192,60163,1,0,0:0:0:0:
192,192,60266,1,0,0:0:0:0:
448,192,60266,1,0,0:0:0:0:
320,192,60266,1,0,0:0:0:0:
64,192,60266,1,0,0:0:0:0:
192,192,60471,1,0,0:0:0:0:
192,192,60574,1,0,0:0:0:0:
192,192,60677,1,0,0:0:0:0:
64,192,60677,1,0,0:0:0:0:
448,192,60677,1,0,0:0:0:0:
320,192,60677,1,0,0:0:0:0:
192,192,60779,1,0,0:0:0:0:
448,192,60985,1,0,0:0:0:0:
192,192,61088,1,0,0:0:0:0:
64,192,61088,1,0,0:0:0:0:
320,192,61088,1,0,0:0:0:0:
448,192,61088,1,0,0:0:0:0:
320,192,61190,1,0,0:0:0:0:
192,192,61396,1,0,0:0:0:0:
192,192,61499,1,0,0:0:0:0:
64,192,61499,1,0,0:0:0:0:
448,192,61499,1,0,0:0:0:0:
320,192,61499,1,0,0:0:0:0:
64,192,61704,1,0,0:0:0:0:
64,192,61807,1,0,0:0:0:0:
448,192,61910,1,0,0:0:0:0:
64,192,61910,1,0,0:0:0:0:
320,192,61910,1,0,0:0:0:0:
192,192,61910,1,0,0:0:0:0:
320,192,62115,1,0,0:0:0:0:
320,192,62218,1,0,0:0:0:0:
320,192,62321,1,0,0:0:0:0:
192,192,62321,1,0,0:0:0:0:
64,192,62321,1,0,0:0:0:0:
448,192,62321,1,0,0:0:0:0:
64,192,62423,1,0,0:0:0:0:
64,192,62629,1,0,0:0:0:0:
192,192,62732,1,0,0:0:0:0:
320,192,62732,1,0,0:0:0:0:
448,192,62732,1,0,0:0:0:0:
64,192,62732,1,0,0:0:0:0:
64,192,62834,1,0,0:0:0:0:
64,192,63040,1,0,0:0:0:0:
64,192,63142,1,0,0:0:0:0:
448,192,63142,1,0,0:0:0:0:
192,192,63142,1,0,0:0:0:0:
320,192,63142,1,0,0:0:0:0:
448,192,63245,1,0,0:0:0:0:
64,192,63348,1,0,0:0:0:0:
64,192,63451,1,0,0:0:0:0:
64,192,63553,1,0,0:0:0:0:
192,192,63553,1,0,0:0:0:0:
320,192,63553,1,0,0:0:0:0:
448,192,63553,1,0,0:0:0:0:
320,192,63759,1,0,0:0:0:0:
320,192,63862,1,0,0:0:0:0:
320,192,63964,1,0,0:0:0:0:
448,192,63964,1,0,0:0:0:0:
192,192,63964,1,0,0:0:0:0:
64,192,63964,1,0,0:0:0:0:
448,192,64067,1,0,0:0:0:0:
320,192,64273,1,0,0:0:0:0:
448,192,64375,1,0,0:0:0:0:
320,192,64375,1,0,0:0:0:0:
192,192,64375,1,0,0:0:0:0:
64,192,64375,1,0,0:0:0:0:
192,192,64478,1,0,0:0:0:0:
64,192,64684,1,0,0:0:0:0:
320,192,64786,1,0,0:0:0:0:
192,192,64786,1,0,0:0:0:0:
448,192,64786,1,0,0:0:0:0:
64,192,64786,1,0,0:0:0:0:
320,192,64889,1,0,0:0:0:0:
192,192,64992,1,0,0:0:0:0:
192,192,65095,1,0,0:0:0:0:
192,192,65197,1,0,0:0:0:0:
320,192,65197,1,0,0:0:0:0:
64,192,65197,1,0,0:0:0:0:
448,192,65197,1,0,0:0:0:0:
192,192,65403,1,0,0:0:0:0:
192,192,65505,1,0,0:0:0:0:
192,192,65608,1,0,0:0:0:0:
320,192,65608,1,0,0:0:0:0:
448,192,65608,1,0,0:0:0:0:
64,192,65608,1,0,0:0:0:0:
192,192,65711,1,0,0:0:0:0:
192,192,65916,1,0,0:0:0:0:
192,192,66019,1,0,0:0:0:0:
64,192,66019,1,0,0:0:0:0:
320,192,66019,1,0,0:0:0:0:
448,192,66019,1,0,0:0:0:0:
64,192,66122,1,0,0:0:0:0:
192,192,66225,1,0,0:0:0:0:
192,192,66327,1,0,0:0:0:0:
320,192,66430,1,0,0:0:0:0:
64,192,66430,1,0,0:0:0:0:
448,192,66430,1,0,0:0:0:0:
192,192,66430,1,0,0:0:0:0:
320,192,66533,1,0,0:0:0:0:
448,192,66636,1,0,0:0:0:0:
448,192,66738,1,0,0:0:0:0:
320,192,66841,1,0,0:0:0:0:
64,192,66841,1,0,0:0:0:0:
192,192,66841,1,0,0:0:0:0:
448,192,66841,1,0,0:0:0:0:
320,192,67047,1,0,0:0:0:0:
320,192,67149,1,0,0:0:0:0:
320,192,67252,1,0,0:0:0:0:
448,192,67252,1,0,0:0:0:0:
64,192,67252,1,0,0:0:0:0:
192,192,67252,1,0,0:0:0:0:
320,192,67355,1,0,0:0:0:0:
64,192,67560,1,0,0:0:0:0:
320,192,67663,1,0,0:0:0:0:
448,192,67663,1,0,0:0:0:0:
192,192,67663,1,0,0:0:0:0:
64,192,67663,1,0,0:0:0:0:
192,192,67766,1,0,0:0:0:0:
320,192,67971,1,0,0:0:0:0:
320,192,68074,1,0,0:0:0:0:
448,192,68074,1,0,0:0:0:0:
64,192,68074,1,0,0:0:0:0:
192,192,68074,1,0,0:0:0:0:
448,192,68279,1,0,0:0:0:0:
448,192,68382,1,0,0:0:0:0:
192,192,68485,1,0,0:0:0:0:
448,192,68485,1,0,0:0:0:0:
64,192,68485,1,0,0:0:0:0:
320,192,68485,1,0,0:0:0:0:
192,192,68690,1,0,0:0:0:0:
192,192,68793,1,0,0:0:0:0:
448,192,68896,1,0,0:0:0:0:
320,192,68896,1,0,0:0:0:0:
192,192,68896,1,0,0:0:0:0:
64,192,68896,1,0,0:0:0:0:
448,192,68999,1,0,0:0:0:0:
448,192,69204,1,0,0:0:0:0:
64,192,69307,1,0,0:0:0:0:
192,192,69307,1,0,0:0:0:0:
320,192,69307,1,0,0:0:0:0:
448,192,69307,1,0,0:0:0:0:
448,192,69410,1,0,0:0:0:0:
448,192,69615,1,0,0:0:0:0:
320,192,69718,1,0,0:0:0:0:
64,192,69718,1,0,0:0:0:0:
448,192,69718,1,0,0:0:0:0:
192,192,69718,1,0,0:0:0:0:
64,192,69821,1,0,0:0:0:0:
448,192,69923,1,0,0:0:0:0:
448,192,70026,1,0,0:0:0:0:
192,192,70129,1,0,0:0:0:0:
320,192,70129,1,0,0:0:0:0:
448,192,70129,1,0,0:0:0:0:
64,192,70129,1,0,0:0:0:0:
192,192,70334,1,0,0:0:0:0:
192,192,70437,1,0,0:0:0:0:
320,192,70540,1,0,0:0:0:0:
64,192,70540,1,0,0:0:0:0:
192,192,70540,1,0,0:0:0:0:
448,192,70540,1,0,0:0:0:0:
64,192,70642,1,0,0:0:0:0:
192,192,70848,1,0,0:0:0:0:
320,192,70951,1,0,0:0:0:0:
192,192,70951,1,0,0:0:0:0:
64,192,70951,1,0,0:0:0:0:
448,192,70951,1,0,0:0:0:0:
320,192,71053,1,0,0:0:0:0:
448,192,71259,1,0,0:0:0:0:
64,192,71362,1,0,0:0:0:0:
320,192,71362,1,0,0:0:0:0:
192,192,71362,1,0,0:0:0:0:
448,192,71362,1,0,0:0:0:0:
192,192,71464,1,0,0:0:0:0:
320,192,71567,1,0,0:0:0:0:
320,192,71670,1,0,0:0:0:0:
448,192,71773,1,0,0:0:0:0:
192,192,71773,1,0,0:0:0:0:
320,192,71773,1,0,0:0:0:0:
64,192,71773,1,0,0:0:0:0:
320,192,71978,1,0,0:0:0:0:
320,192,72081,1,0,0:0:0:0:
64,192,72184,1,0,0:0:0:0:
192,192,72184,1,0,0:0:0:0:
320,192,72184,1,0,0:0:0:0:
448,192,72184,1,0,0:0:0:0:
320,192,72286,1,0,0:0:0:0:
320,192,72492,1,0,0:0:0:0:
192,192,72595,1,0,0:0:0:0:
448,192,72595,1,0,0:0:0:0:
320,192,72595,1,0,0:0:0:0:
64,192,72595,1,0,0:0:0:0:
448,192,72697,1,0,0:0:0:0:
320,192,72800,1,0,0:0:0:0:
320,192,72903,1,0,0:0:0:0:
64,192,73005,1,0,0:0:0:0:
448,192,73005,1,0,0:0:0:0:
192,192,73005,1,0,0:0:0:0:
320,192,73005,1,0,0:0:0:0:
192,192,73108,1,0,0:0:0:0:
64,192,73211,1,0,0:0:0:0:
64,192,73314,1,0,0:0:0:0:
320,192,73416,1,0,0:0:0:0:
448,192,73416,1,0,0:0:0:0:
192,192,73416,1,0,0:0:0:0:
64,192,73416,1,0,0:0:0:0:
192,192,73622,1,0,0:0:0:0:
192,192,73725,1,0,0:0:0:0:
448,192,73827,1,0,0:0:0:0:
64,192,73827,1,0,0:0:0:0:
192,192,73827,1,0,0:0:0:0:
320,192,73827,1,0,0:0:0:0:
192,192,73930,1,0,0:0:0:0:
448,192,74136,1,0,0:0:0:0:
320,192,74238,1,0,0:0:0:0:
64,192,74238,1,0,0:0:0:0:
192,192,74238,1,0,0:0:0:0:
448,192,74238,1,0,0:0:0:0:
320,192,74341,1,0,0:0:0:0:
192,192,74547,1,0,0:0:0:0:
448,192,74649,1,0,0:0:0:0:
64,192,74649,1,0,0:0:0:0:
192,192,74649,1,0,0:0:0:0:
320,192,74649,1,0,0:0:0:0:
64,192,74855,1,0,0:0:0:0:
64,192,74958,1,0,0:0:0:0:
448,192,75060,1,0,0:0:0:0:
64,192,75060,1,0,0:0:0:0:
320,192,75060,1,0,0:0:0:0:
192,192,75060,1,0,0:0:0:0:
320,192,75266,1,0,0:0:0:0:
320,192,75368,1,0,0:0:0:0:
320,192,75471,1,0,0:0:0:0:
192,192,75471,1,0,0:0:0:0:
64,192,75471,1,0,0:0:0:0:
448,192,75471,1,0,0:0:0:0:
64,192,75574,1,0,0:0:0:0:
64,192,75779,1,0,0:0:0:0:
192,192,75882,1,0,0:0:0:0:
320,192,75882,1,0,0:0:0:0:
448,192,75882,1,0,0:0:0:0:
64,192,75882,1,0,0:0:0:0:
64,192,75985,1,0,0:0:0:0:
64,192,76190,1,0,0:0:0:0:
64,192,76293,1,0,0:0:0:0:
448,192,76293,1,0,0:0:0:0:
192,192,76293,1,0,0:0:0:0:
320,192,76293,1,0,0:0:0:0:
448,192,76396,1,0,0:0:0:0:
64,192,76499,1,0,0:0:0:0:
64,192,76601,1,0,0:0:0:0:
64,192,76704,1,0,0:0:0:0:
192,192,76704,1,0,0:0:0:0:
320,192,76704,1,0,0:0:0:0:
448,192,76704,1,0,0:0:0:0:
320,192,76910,1,0,0:0:0:0:
320,192,77012,1,0,0:0:0:0:
320,192,77115,1,0,0:0:0:0:
448,192,77115,1,0,0:0:0:0:
192,192,77115,1,0,0:0:0:0:
64,192,77115,1,0,0:0:0:0:
448,192,77218,1,0,0:0:0:0:
320,192,77423,1,0,0:0:0:0:
448,192,77526,1,0,0:0:0:0:
320,192,77526,1,0,0:0:0:0:
192,192,77526,1,0,0:0:0:0:
64,192,77526,1,0,0:0:0:0:
192,192,77629,1,0,0:0:0:0:
64,192,77834,1,0,0:0:0:0:
320,192,77937,1,0,0:0:0:0:
192,192,77937,1,0,0:0:0:0:
448,192,77937,1,0,0:0:0:0:
64,192,77937,1,0,0:0:0:0:
320,192,78040,1,0,0:0:0:0:
192,192,78142,1,0,0:0:0:0:
192,192,78245,1,0,0:0:0:0:
192,192,78348,1,0,0:0:0:0:
320,192,78348,1,0,0:0:0:0:
64,192,78348,1,0,0:0:0:0:
448,192,78348,1,0,0:0:0:0:
192,192,78553,1,0,0:0:0:0:
192,192,78656,1,0,0:0:0:0:
192,192,78759,1,0,0:0:0:0:
320,192,78759,1,0,0:0:0:0:
448,192,78759,1,0,0:0:0:0:
64,192,78759,1,0,0:0:0:0:
192,192,78862,1,0,0:0:0:0:
192,192,79067,1,0,0:0:0:0:
192,192,79170,1,0,0:0:0:0:
64,192,79170,1,0,0:0:0:0:
320,192,79170,1,0,0:0:0:0:
448,192,79170,1,0,0:0:0:0:
64,192,79273,1,0,0:0:0:0:
192,192,79375,1,0,0:0:0:0:
192,192,79478,1,0,0:0:0:0:
320,192,79581,1,0,0:0:0:0:
64,192,79581,1,0,0:0:0:0:
448,192,79581,1,0,0:0:0:0:
192,192,79581,1,0,0:0:0:0:
320,192,79684,1,0,0:0:0:0:
448,192,79786,1,0,0:0:0:0:
448,192,79889,1,0,0:0:0:0:
320,192,79992,1,0,0:0:0:0:
64,192,79992,1,0,0:0:0:0:
192,192,79992,1,0,0:0:0:0:
448,192,79992,1,0,0:0:0:0:
320,192,80197,1,0,0:0:0:0:
320,192,80300,1,0,0:0:0:0:
320,192,80403,1,0,0:0:0:0:
448,192,80403,1,0,0:0:0:0:
64,192,80403,1,0,0:0:0:0:
192,192,80403,1,0,0:0:0:0:
320,192,80505,1,0,0:0:0:0:
64,192,80711,1,0,0:0:0:0:
320,192,80814,1,0,0:0:0:0:
448,192,80814,1,0,0:0:0:0:
192,192,80814,1,0,0:0:0:0:
64,192,80814,1,0,0:0:0:0:
192,192,80916,1,0,0:0:0:0:
320,192,81122,1,0,0:0:0:0:
320,192,81225,1,0,0:0:0:0:
448,192,81225,1,0,0:0:0:0:
64,192,81225,1,0,0:0:0:0:
192,192,81225,1,0,0:0:0:0:
448,192,81430,1,0,0:0:0:0:
448,192,81533,1,0,0:0:0:0:
448,192,81636,1,0,0:0:0:0:
64,192,81636,1,0,0:0:0:0:
320,192,81636,1,0,0:0:0:0:
192,192,81636,1,0,0:0:0:0:
64,192,81738,1,0,0:0:0:0:
64,192,81841,1,0,0:0:0:0:
64,192,81944,1,0,0:0:0:0:
64,192,82047,1,0,0:0:0:0:
320,192,82047,1,0,0:0:0:0:
64,192,82149,1,0,0:0:0:0:
64,192,82252,1,0,0:0:0:0:
64,192,82355,1,0,0:0:0:0:
64,192,82458,1,0,0:0:0:0:
448,192,82458,1,0,0:0:0:0:
64,192,82560,1,0,0:0:0:0:
64,192,82663,1,0,0:0:0:0:
64,192,82766,1,0,0:0:0:0:
64,192,82868,1,0,0:0:0:0:
448,192,82868,1,0,0:0:0:0:
64,192,82971,1,0,0:0:0:0:
64,192,83074,1,0,0:0:0:0:
192,192,83074,1,0,0:0:0:0:
64,192,83177,1,0,0:0:0:0:
64,192,83279,1,0,0:0:0:0:
64,192,83382,1,0,0:0:0:0:
64,192,83485,1,0,0:0:0:0:
192,192,83485,1,0,0:0:0:0:
64,192,83588,1,0,0:0:0:0:
64,192,83690,1,0,0:0:0:0:
64,192,83793,1,0,0:0:0:0:
64,192,83896,1,0,0:0:0:0:
192,192,83896,1,0,0:0:0:0:
64,192,83999,1,0,0:0:0:0:
64,192,84101,1,0,0:0:0:0:
320,192,84101,1,0,0:0:0:0:
64,192,84204,1,0,0:0:0:0:
64,192,84307,1,0,0:0:0:0:
448,192,84307,1,0,0:0:0:0:
64,192,84410,1,0,0:0:0:0:
64,192,84512,1,0,0:0:0:0:
320,192,84512,1,0,0:0:0:0:
64,192,84615,1,0,0:0:0:0:
64,192,84718,1,0,0:0:0:0:
64,192,84821,1,0,0:0:0:0:
64,192,84923,1,0,0:0:0:0:
320,192,84923,1,0,0:0:0:0:
192,192,84923,1,0,0:0:0:0:
320,192,85026,1,0,0:0:0:0:
320,192,85129,1,0,0:0:0:0:
320,192,85231,1,0,0:0:0:0:
320,192,85334,1,0,0:0:0:0:
64,192,85334,1,0,0:0:0:0:
320,192,85437,1,0,0:0:0:0:
320,192,85540,1,0,0:0:0:0:
320,192,85642,1,0,0:0:0:0:
320,192,85745,1,0,0:0:0:0:
448,192,85745,1,0,0:0:0:0:
320,192,85848,1,0,0:0:0:0:
320,192,85951,1,0,0:0:0:0:
320,192,86053,1,0,0:0:0:0:
320,192,86156,1,0,0:0:0:0:
448,192,86156,1,0,0:0:0:0:
320,192,86259,1,0,0:0:0:0:
320,192,86362,1,0,0:0:0:0:
64,192,86362,1,0,0:0:0:0:
320,192,86464,1,0,0:0:0:0:
320,192,86567,1,0,0:0:0:0:
320,192,86670,1,0,0:0:0:0:
320,192,86773,1,0,0:0:0:0:
64,192,86773,1,0,0:0:0:0:
320,192,86875,1,0,0:0:0:0:
320,192,86978,1,0,0:0:0:0:
320,192,87081,1,0,0:0:0:0:
320,192,87184,1,0,0:0:0:0:
64,192,87184,1,0,0:0:0:0:
320,192,87286,1,0,0:0:0:0:
320,192,87389,1,0,0:0:0:0:
192,192,87389,1,0,0:0:0:0:
320,192,87492,1,0,0:0:0:0:
320,192,87595,1,0,0:0:0:0:
448,192,87595,1,0,0:0:0:0:
320,192,87697,1,0,0:0:0:0:
320,192,87800,1,0,0:0:0:0:
192,192,87800,1,0,0:0:0:0:
320,192,87903,1,0,0:0:0:0:
320,192,88005,1,0,0:0:0:0:
320,192,88108,1,0,0:0:0:0:
320,192,88211,1,0,0:0:0:0:
64,192,88211,1,0,0:0:0:0:
192,192,88211,1,0,0:0:0:0:
64,192,88622,1,0,0:0:0:0:
192,192,89033,1,0,0:0:0:0:
192,192,89444,1,0,0:0:0:0:
320,192,89649,1,0,0:0:0:0:
320,192,90060,1,0,0:0:0:0:
320,192,90471,1,0,0:0:0:0:
448,192,90677,1,0,0:0:0:0:
64,192,90882,1,0,0:0:0:0:
192,192,91088,1,0,0:0:0:0:
448,192,91499,1,0,0:0:0:0:
192,192,91910,1,0,0:0:0:0:
320,192,92321,1,0,0:0:0:0:
64,192,92731,1,0,0:0:0:0:
192,192,92937,1,0,0:0:0:0:
320,192,93142,1,0,0:0:0:0:
448,192,93142,1,0,0:0:0:0:
192,192,93348,1,0,0:0:0:0:
64,192,93553,1,0,0:0:0:0:
320,192,93759,1,0,0:0:0:0:
192,192,93964,1,0,0:0:0:0:
448,192,94170,1,0,0:0:0:0:
320,192,94375,1,0,0:0:0:0:
64,192,94581,1,0,0:0:0:0:
448,192,94581,1,0,0:0:0:0:
64,192,94684,1,0,0:0:0:0:
448,192,94684,1,0,0:0:0:0:
64,192,94786,1,0,0:0:0:0:
320,192,94786,1,0,0:0:0:0:
448,192,94786,1,0,0:0:0:0:
320,192,94889,1,0,0:0:0:0:
320,192,94992,1,0,0:0:0:0:
192,192,94992,1,0,0:0:0:0:
448,192,95197,1,0,0:0:0:0:
448,192,95300,1,0,0:0:0:0:
448,192,95403,1,0,0:0:0:0:
320,192,95403,1,0,0:0:0:0:
320,192,95608,1,0,0:0:0:0:
320,192,95711,1,0,0:0:0:0:
320,192,95814,1,0,0:0:0:0:
192,192,95814,1,0,0:0:0:0:
64,192,96019,1,0,0:0:0:0:
64,192,96122,1,0,0:0:0:0:
64,192,96225,1,0,0:0:0:0:
192,192,96225,1,0,0:0:0:0:
192,192,96430,1,0,0:0:0:0:
192,192,96533,1,0,0:0:0:0:
192,192,96636,1,0,0:0:0:0:
320,192,96636,1,0,0:0:0:0:
320,192,96841,1,0,0:0:0:0:
320,192,96944,1,0,0:0:0:0:
320,192,97047,1,0,0:0:0:0:
448,192,97047,1,0,0:0:0:0:
448,192,97252,1,0,0:0:0:0:
448,192,97355,1,0,0:0:0:0:
448,192,97458,1,0,0:0:0:0:
320,192,97458,1,0,0:0:0:0:
192,192,97663,1,0,0:0:0:0:
192,192,97766,1,0,0:0:0:0:
192,192,97868,1,0,0:0:0:0:
320,192,97868,1,0,0:0:0:0:
320,192,98074,1,0,0:0:0:0:
320,192,98177,1,0,0:0:0:0:
320,192,98279,1,0,0:0:0:0:
192,192,98279,1,0,0:0:0:0:
64,192,98485,1,0,0:0:0:0:
64,192,98588,1,0,0:0:0:0:
64,192,98690,1,0,0:0:0:0:
192,192,98690,1,0,0:0:0:0:
320,192,98896,1,0,0:0:0:0:
320,192,98999,1,0,0:0:0:0:
320,192,99101,1,0,0:0:0:0:
448,192,99101,1,0,0:0:0:0:
192,192,99307,1,0,0:0:0:0:
192,192,99410,1,0,0:0:0:0:
192,192,99512,1,0,0:0:0:0:
320,192,99512,1,0,0:0:0:0:
448,192,99718,1,0,0:0:0:0:
448,192,99821,1,0,0:0:0:0:
448,192,99923,1,0,0:0:0:0:
320,192,99923,1,0,0:0:0:0:
320,192,100129,1,0,0:0:0:0:
320,192,100231,1,0,0:0:0:0:
320,192,100334,1,0,0:0:0:0:
192,192,100334,1,0,0:0:0:0:
192,192,100540,1,0,0:0:0:0:
192,192,100642,1,0,0:0:0:0:
192,192,100745,1,0,0:0:0:0:
64,192,100745,1,0,0:0:0:0:
320,192,100951,1,0,0:0:0:0:
320,192,101053,1,0,0:0:0:0:
320,192,101156,1,0,0:0:0:0:
448,192,101156,1,0,0:0:0:0:
64,192,101362,1,0,0:0:0:0:
64,192,101464,1,0,0:0:0:0:
64,192,101567,1,0,0:0:0:0:
192,192,101567,1,0,0:0:0:0:
192,192,101773,1,0,0:0:0:0:
192,192,101875,1,0,0:0:0:0:
192,192,101978,1,0,0:0:0:0:
320,192,101978,1,0,0:0:0:0:
320,192,102184,1,0,0:0:0:0:
320,192,102286,1,0,0:0:0:0:
320,192,102389,1,0,0:0:0:0:
448,192,102389,1,0,0:0:0:0:
192,192,102595,1,0,0:0:0:0:
192,192,102697,1,0,0:0:0:0:
192,192,102800,1,0,0:0:0:0:
320,192,102800,1,0,0:0:0:0:
64,192,103005,1,0,0:0:0:0:
64,192,103108,1,0,0:0:0:0:
64,192,103211,1,0,0:0:0:0:
192,192,103211,1,0,0:0:0:0:
192,192,103416,1,0,0:0:0:0:
192,192,103519,1,0,0:0:0:0:
192,192,103622,1,0,0:0:0:0:
320,192,103622,1,0,0:0:0:0:
64,192,103827,1,0,0:0:0:0:
64,192,103930,1,0,0:0:0:0:
64,192,104033,1,0,0:0:0:0:
192,192,104033,1,0,0:0:0:0:
320,192,104238,1,0,0:0:0:0:
320,192,104341,1,0,0:0:0:0:
320,192,104444,1,0,0:0:0:0:
192,192,104444,1,0,0:0:0:0:
320,192,104649,1,0,0:0:0:0:
320,192,104752,1,0,0:0:0:0:
320,192,104855,1,0,0:0:0:0:
448,192,104855,1,0,0:0:0:0:
192,192,105060,1,0,0:0:0:0:
192,192,105163,1,0,0:0:0:0:
192,192,105266,1,0,0:0:0:0:
320,192,105266,1,0,0:0:0:0:
448,192,105471,1,0,0:0:0:0:
448,192,105574,1,0,0:0:0:0:
448,192,105677,1,0,0:0:0:0:
320,192,105677,1,0,0:0:0:0:
192,192,105882,1,0,0:0:0:0:
192,192,105985,1,0,0:0:0:0:
192,192,106088,1,0,0:0:0:0:
64,192,106088,1,0,0:0:0:0:
320,192,106293,1,0,0:0:0:0:
320,192,106396,1,0,0:0:0:0:
320,192,106499,1,0,0:0:0:0:
320,192,106601,1,0,0:0:0:0:
192,192,106704,1,0,0:0:0:0:
320,192,106704,1,0,0:0:0:0:
192,192,106807,1,0,0:0:0:0:
192,192,106910,1,0,0:0:0:0:
192,192,107012,1,0,0:0:0:0:
192,192,107115,1,0,0:0:0:0:
448,192,107115,1,0,0:0:0:0:
448,192,107218,1,0,0:0:0:0:
448,192,107321,1,0,0:0:0:0:
448,192,107423,1,0,0:0:0:0:
448,192,107526,1,0,0:0:0:0:
64,192,107526,1,0,0:0:0:0:
64,192,107629,1,0,0:0:0:0:
64,192,107731,1,0,0:0:0:0:
64,192,107834,1,0,0:0:0:0:
64,192,107937,1,0,0:0:0:0:
192,192,107937,1,0,0:0:0:0:
448,192,107937,1,0,0:0:0:0:
192,192,113896,5,0,0:0:0:0:
320,192,113896,1,0,0:0:0:0:
320,192,113999,1,0,0:0:0:0:
192,192,113999,1,0,0:0:0:0:
192,192,114101,1,0,0:0:0:0:
320,192,114101,1,0,0:0:0:0:
320,192,114204,1,0,0:0:0:0:
192,192,114204,1,0,0:0:0:0:
192,192,114307,1,0,0:0:0:0:
320,192,114307,1,0,0:0:0:0:
64,192,114512,1,0,0:0:0:0:
192,192,114512,1,0,0:0:0:0:
320,192,114512,1,0,0:0:0:0:
448,192,114512,1,0,0:0:0:0:
448,192,114615,1,0,0:0:0:0:
192,192,114615,1,0,0:0:0:0:
448,192,114718,1,0,0:0:0:0:
64,192,114718,1,0,0:0:0:0:
448,192,114821,1,0,0:0:0:0:
320,192,114821,1,0,0:0:0:0:
448,192,114923,1,0,0:0:0:0:
192,192,114923,1,0,0:0:0:0:
64,192,114923,1,0,0:0:0:0:
448,192,115026,1,0,0:0:0:0:
320,192,115026,1,0,0:0:0:0:
448,192,115129,1,0,0:0:0:0:
64,192,115129,1,0,0:0:0:0:
448,192,115231,1,0,0:0:0:0:
192,192,115231,1,0,0:0:0:0:
448,192,115334,1,0,0:0:0:0:
64,192,115334,1,0,0:0:0:0:
320,192,115334,1,0,0:0:0:0:
448,192,115437,1,0,0:0:0:0:
192,192,115437,1,0,0:0:0:0:
448,192,115540,1,0,0:0:0:0:
320,192,115540,1,0,0:0:0:0:
192,192,115540,1,0,0:0:0:0:
64,192,115540,1,0,0:0:0:0:
448,192,115642,1,0,0:0:0:0:
64,192,115642,1,0,0:0:0:0:
448,192,115745,1,0,0:0:0:0:
320,192,115745,1,0,0:0:0:0:
64,192,115745,1,0,0:0:0:0:
448,192,115848,1,0,0:0:0:0:
64,192,115848,1,0,0:0:0:0:
448,192,115951,1,0,0:0:0:0:
320,192,115951,1,0,0:0:0:0:
192,192,115951,1,0,0:0:0:0:
64,192,115951,1,0,0:0:0:0:
448,192,116053,1,0,0:0:0:0:
192,192,116053,1,0,0:0:0:0:
320,192,116156,1,0,0:0:0:0:
448,192,116156,1,0,0:0:0:0:
64,192,116156,1,0,0:0:0:0:
192,192,116156,1,0,0:0:0:0:
320,192,116259,1,0,0:0:0:0:
192,192,116259,1,0,0:0:0:0:
320,192,116362,1,0,0:0:0:0:
64,192,116362,1,0,0:0:0:0:
320,192,116464,1,0,0:0:0:0:
448,192,116464,1,0,0:0:0:0:
320,192,116567,1,0,0:0:0:0:
192,192,116567,1,0,0:0:0:0:
64,192,116567,1,0,0:0:0:0:
320,192,116670,1,0,0:0:0:0:
448,192,116670,1,0,0:0:0:0:
320,192,116773,1,0,0:0:0:0:
192,192,116773,1,0,0:0:0:0:
320,192,116875,1,0,0:0:0:0:
448,192,116875,1,0,0:0:0:0:
320,192,116978,1,0,0:0:0:0:
64,192,116978,1,0,0:0:0:0:
448,192,116978,1,0,0:0:0:0:
320,192,117081,1,0,0:0:0:0:
192,192,117081,1,0,0:0:0:0:
320,192,117184,1,0,0:0:0:0:
448,192,117184,1,0,0:0:0:0:
192,192,117184,1,0,0:0:0:0:
64,192,117184,1,0,0:0:0:0:
320,192,117286,1,0,0:0:0:0:
64,192,117286,1,0,0:0:0:0:
320,192,117389,1,0,0:0:0:0:
192,192,117389,1,0,0:0:0:0:
448,192,117389,1,0,0:0:0:0:
320,192,117492,1,0,0:0:0:0:
64,192,117492,1,0,0:0:0:0:
320,192,117595,1,0,0:0:0:0:
448,192,117595,1,0,0:0:0:0:
192,192,117595,1,0,0:0:0:0:
64,192,117595,1,0,0:0:0:0:
320,192,117697,1,0,0:0:0:0:
192,192,117697,1,0,0:0:0:0:
320,192,117800,1,0,0:0:0:0:
192,192,117800,1,0,0:0:0:0:
64,192,117800,1,0,0:0:0:0:
448,192,117800,1,0,0:0:0:0:
192,192,117903,1,0,0:0:0:0:
320,192,117903,1,0,0:0:0:0:
192,192,118005,1,0,0:0:0:0:
448,192,118005,1,0,0:0:0:0:
192,192,118108,1,0,0:0:0:0:
320,192,118108,1,0,0:0:0:0:
192,192,118211,1,0,0:0:0:0:
64,192,118211,1,0,0:0:0:0:
448,192,118211,1,0,0:0:0:0:
192,192,118314,1,0,0:0:0:0:
448,192,118314,1,0,0:0:0:0:
192,192,118416,1,0,0:0:0:0:
320,192,118416,1,0,0:0:0:0:
192,192,118519,1,0,0:0:0:0:
64,192,118519,1,0,0:0:0:0:
192,192,118622,1,0,0:0:0:0:
448,192,118622,1,0,0:0:0:0:
320,192,118622,1,0,0:0:0:0:
192,192,118725,1,0,0:0:0:0:
64,192,118725,1,0,0:0:0:0:
192,192,118827,1,0,0:0:0:0:
320,192,118827,1,0,0:0:0:0:
448,192,118827,1,0,0:0:0:0:
64,192,118827,1,0,0:0:0:0:
192,192,118930,1,0,0:0:0:0:
448,192,118930,1,0,0:0:0:0:
192,192,119033,1,0,0:0:0:0:
64,192,119033,1,0,0:0:0:0:
320,192,119033,1,0,0:0:0:0:
192,192,119136,1,0,0:0:0:0:
448,192,119136,1,0,0:0:0:0:
192,192,119238,1,0,0:0:0:0:
64,192,119238,1,0,0:0:0:0:
320,192,119238,1,0,0:0:0:0:
448,192,119238,1,0,0:0:0:0:
192,192,119341,1,0,0:0:0:0:
448,192,119341,1,0,0:0:0:0:
64,192,119444,1,0,0:0:0:0:
192,192,119444,1,0,0:0:0:0:
320,192,119444,1,0,0:0:0:0:
448,192,119444,1,0,0:0:0:0:
64,192,119547,1,0,0:0:0:0:
192,192,119547,1,0,0:0:0:0:
64,192,119649,1,0,0:0:0:0:
320,192,119649,1,0,0:0:0:0:
64,192,119752,1,0,0:0:0:0:
448,192,119752,1,0,0:0:0:0:
64,192,119855,1,0,0:0:0:0:
192,192,119855,1,0,0:0:0:0:
320,192,119855,1,0,0:0:0:0:
448,192,119855,1,0,0:0:0:0:
64,192,119958,1,0,0:0:0:0:
192,192,119958,1,0,0:0:0:0:
64,192,120060,1,0,0:0:0:0:
320,192,120060,1,0,0:0:0:0:
64,192,120163,1,0,0:0:0:0:
448,192,120163,1,0,0:0:0:0:
64,192,120266,1,0,0:0:0:0:
192,192,120266,1,0,0:0:0:0:
320,192,120266,1,0,0:0:0:0:
448,192,120266,1,0,0:0:0:0:
64,192,120368,1,0,0:0:0:0:
320,192,120368,1,0,0:0:0:0:
64,192,120471,1,0,0:0:0:0:
448,192,120471,1,0,0:0:0:0:
320,192,120471,1,0,0:0:0:0:
192,192,120471,1,0,0:0:0:0:
64,192,120574,1,0,0:0:0:0:
448,192,120574,1,0,0:0:0:0:
64,192,120677,1,0,0:0:0:0:
320,192,120677,1,0,0:0:0:0:
192,192,120677,1,0,0:0:0:0:
64,192,120779,1,0,0:0:0:0:
192,192,120779,1,0,0:0:0:0:
64,192,120882,1,0,0:0:0:0:
320,192,120882,1,0,0:0:0:0:
64,192,120985,1,0,0:0:0:0:
192,192,120985,1,0,0:0:0:0:
64,192,121088,1,0,0:0:0:0:
448,192,121088,1,0,0:0:0:0:
320,192,121088,1,0,0:0:0:0:
192,192,121088,1,0,0:0:0:0:
448,192,121190,1,0,0:0:0:0:
192,192,121190,1,0,0:0:0:0:
448,192,121293,1,0,0:0:0:0:
64,192,121293,1,0,0:0:0:0:
448,192,121396,1,0,0:0:0:0:
320,192,121396,1,0,0:0:0:0:
448,192,121499,1,0,0:0:0:0:
192,192,121499,1,0,0:0:0:0:
64,192,121499,1,0,0:0:0:0:
448,192,121601,1,0,0:0:0:0:
320,192,121601,1,0,0:0:0:0:
448,192,121704,1,0,0:0:0:0:
64,192,121704,1,0,0:0:0:0:
448,192,121807,1,0,0:0:0:0:
192,192,121807,1,0,0:0:0:0:
448,192,121910,1,0,0:0:0:0:
64,192,121910,1,0,0:0:0:0:
320,192,121910,1,0,0:0:0:0:
448,192,122012,1,0,0:0:0:0:
448,192,122115,1,0,0:0:0:0:
320,192,122115,1,0,0:0:0:0:
192,192,122115,1,0,0:0:0:0:
64,192,122115,1,0,0:0:0:0:
448,192,122218,1,0,0:0:0:0:
192,192,122218,1,0,0:0:0:0:
448,192,122321,1,0,0:0:0:0:
320,192,122321,1,0,0:0:0:0:
64,192,122321,1,0,0:0:0:0:
448,192,122423,1,0,0:0:0:0:
192,192,122423,1,0,0:0:0:0:
448,192,122526,1,0,0:0:0:0:
64,192,122526,1,0,0:0:0:0:
320,192,122526,1,0,0:0:0:0:
192,192,122526,1,0,0:0:0:0:
448,192,122629,1,0,0:0:0:0:
192,192,122629,1,0,0:0:0:0:
192,192,122731,1,0,0:0:0:0:
64,192,122731,1,0,0:0:0:0:
320,192,122732,1,0,0:0:0:0:
448,192,122732,1,0,0:0:0:0:
320,192,122834,1,0,0:0:0:0:
448,192,122834,1,0,0:0:0:0:
320,192,122937,1,0,0:0:0:0:
192,192,122937,1,0,0:0:0:0:
320,192,123040,1,0,0:0:0:0:
448,192,123040,1,0,0:0:0:0:
320,192,123142,1,0,0:0:0:0:
64,192,123142,1,0,0:0:0:0:
192,192,123142,1,0,0:0:0:0:
320,192,123245,1,0,0:0:0:0:
448,192,123245,1,0,0:0:0:0:
320,192,123348,1,0,0:0:0:0:
192,192,123348,1,0,0:0:0:0:
320,192,123451,1,0,0:0:0:0:
64,192,123451,1,0,0:0:0:0:
320,192,123553,1,0,0:0:0:0:
448,192,123553,1,0,0:0:0:0:
192,192,123553,1,0,0:0:0:0:
320,192,123656,1,0,0:0:0:0:
64,192,123656,1,0,0:0:0:0:
320,192,123759,1,0,0:0:0:0:
192,192,123759,1,0,0:0:0:0:
448,192,123759,1,0,0:0:0:0:
64,192,123759,1,0,0:0:0:0:
320,192,123862,1,0,0:0:0:0:
192,192,123862,1,0,0:0:0:0:
320,192,123964,1,0,0:0:0:0:
64,192,123964,1,0,0:0:0:0:
448,192,123964,1,0,0:0:0:0:
320,192,124067,1,0,0:0:0:0:
448,192,124067,1,0,0:0:0:0:
320,192,124170,1,0,0:0:0:0:
448,192,124170,1,0,0:0:0:0:
192,192,124170,1,0,0:0:0:0:
64,192,124170,1,0,0:0:0:0:
320,192,124273,1,0,0:0:0:0:
192,192,124273,1,0,0:0:0:0:
192,192,124375,1,0,0:0:0:0:
64,192,124375,1,0,0:0:0:0:
320,192,124375,1,0,0:0:0:0:
448,192,124375,1,0,0:0:0:0:
192,192,124478,1,0,0:0:0:0:
320,192,124478,1,0,0:0:0:0:
192,192,124581,1,0,0:0:0:0:
448,192,124581,1,0,0:0:0:0:
192,192,124684,1,0,0:0:0:0:
320,192,124684,1,0,0:0:0:0:
192,192,124786,1,0,0:0:0:0:
64,192,124786,1,0,0:0:0:0:
448,192,124786,1,0,0:0:0:0:
192,192,124889,1,0,0:0:0:0:
320,192,124889,1,0,0:0:0:0:
192,192,124992,1,0,0:0:0:0:
448,192,124992,1,0,0:0:0:0:
192,192,125095,1,0,0:0:0:0:
320,192,125095,1,0,0:0:0:0:
192,192,125197,1,0,0:0:0:0:
320,192,125197,1,0,0:0:0:0:
448,192,125197,1,0,0:0:0:0:
64,192,125197,1,0,0:0:0:0:
192,192,125300,1,0,0:0:0:0:
64,192,125300,1,0,0:0:0:0:
192,192,125403,1,0,0:0:0:0:
320,192,125403,1,0,0:0:0:0:
192,192,125505,1,0,0:0:0:0:
64,192,125505,1,0,0:0:0:0:
192,192,125608,1,0,0:0:0:0:
320,192,125608,1,0,0:0:0:0:
448,192,125608,1,0,0:0:0:0:
192,192,125711,1,0,0:0:0:0:
320,192,125711,1,0,0:0:0:0:
64,192,125814,1,0,0:0:0:0:
192,192,125814,1,0,0:0:0:0:
448,192,125916,1,0,0:0:0:0:
320,192,125916,1,0,0:0:0:0:
64,192,126019,1,0,0:0:0:0:
192,192,126019,1,0,0:0:0:0:
320,192,126019,1,0,0:0:0:0:
448,192,126019,1,0,0:0:0:0:
64,192,126122,1,0,0:0:0:0:
192,192,126122,1,0,0:0:0:0:
320,192,126122,1,0,0:0:0:0:
448,192,126122,1,0,0:0:0:0:
64,192,126225,1,0,0:0:0:0:
192,192,126225,1,0,0:0:0:0:
320,192,126225,1,0,0:0:0:0:
448,192,126225,1,0,0:0:0:0:
64,192,126327,1,0,0:0:0:0:
320,192,126327,1,0,0:0:0:0:
448,192,126327,1,0,0:0:0:0:
192,192,126327,1,0,0:0:0:0:
64,192,126430,1,0,0:0:0:0:
192,192,126430,1,0,0:0:0:0:
320,192,126430,1,0,0:0:0:0:
448,192,126430,1,0,0:0:0:0:
64,192,126533,1,0,0:0:0:0:
448,192,126533,1,0,0:0:0:0:
320,192,126533,1,0,0:0:0:0:
192,192,126533,1,0,0:0:0:0:
64,192,126636,1,0,0:0:0:0:
192,192,126636,1,0,0:0:0:0:
320,192,126636,1,0,0:0:0:0:
448,192,126636,1,0,0:0:0:0:
64,192,126738,1,0,0:0:0:0:
448,192,126738,1,0,0:0:0:0:
320,192,126738,1,0,0:0:0:0:
192,192,126738,1,0,0:0:0:0:
64,192,126841,1,0,0:0:0:0:
192,192,126841,1,0,0:0:0:0:
320,192,126841,1,0,0:0:0:0:
448,192,126841,1,0,0:0:0:0:
64,192,126944,1,0,0:0:0:0:
448,192,126944,1,0,0:0:0:0:
320,192,126944,1,0,0:0:0:0:
192,192,126944,1,0,0:0:0:0:
64,192,127047,1,0,0:0:0:0:
192,192,127047,1,0,0:0:0:0:
320,192,127047,1,0,0:0:0:0:
448,192,127047,1,0,0:0:0:0:
64,192,127149,1,0,0:0:0:0:
448,192,127149,1,0,0:0:0:0:
320,192,127149,1,0,0:0:0:0:
192,192,127149,1,0,0:0:0:0:
64,192,127252,1,0,0:0:0:0:
192,192,127252,1,0,0:0:0:0:
320,192,127252,1,0,0:0:0:0:
448,192,127252,1,0,0:0:0:0:
64,192,127355,1,0,0:0:0:0:
320,192,127355,1,0,0:0:0:0:
192,192,127355,1,0,0:0:0:0:
448,192,127355,1,0,0:0:0:0:
64,192,127458,1,0,0:0:0:0:
448,192,127458,1,0,0:0:0:0:
320,192,127458,1,0,0:0:0:0:
192,192,127458,1,0,0:0:0:0:
64,192,127560,1,0,0:0:0:0:
192,192,127560,1,0,0:0:0:0:
320,192,127560,1,0,0:0:0:0:
448,192,127560,1,0,0:0:0:0:
64,192,127663,1,0,0:0:0:0:
192,192,127663,1,0,0:0:0:0:
320,192,127663,1,0,0:0:0:0:
448,192,127663,1,0,0:0:0:0:
448,192,127766,1,0,0:0:0:0:
192,192,127766,1,0,0:0:0:0:
448,192,127868,1,0,0:0:0:0:
64,192,127868,1,0,0:0:0:0:
448,192,127971,1,0,0:0:0:0:
320,192,127971,1,0,0:0:0:0:
448,192,128074,1,0,0:0:0:0:
192,192,128074,1,0,0:0:0:0:
64,192,128074,1,0,0:0:0:0:
448,192,128177,1,0,0:0:0:0:
320,192,128177,1,0,0:0:0:0:
448,192,128279,1,0,0:0:0:0:
64,192,128279,1,0,0:0:0:0:
448,192,128382,1,0,0:0:0:0:
192,192,128382,1,0,0:0:0:0:
448,192,128485,1,0,0:0:0:0:
64,192,128485,1,0,0:0:0:0:
320,192,128485,1,0,0:0:0:0:
448,192,128588,1,0,0:0:0:0:
192,192,128588,1,0,0:0:0:0:
448,192,128690,1,0,0:0:0:0:
320,192,128690,1,0,0:0:0:0:
192,192,128690,1,0,0:0:0:0:
64,192,128690,1,0,0:0:0:0:
448,192,128793,1,0,0:0:0:0:
64,192,128793,1,0,0:0:0:0:
448,192,128896,1,0,0:0:0:0:
320,192,128896,1,0,0:0:0:0:
64,192,128896,1,0,0:0:0:0:
448,192,128999,1,0,0:0:0:0:
64,192,128999,1,0,0:0:0:0:
448,192,129101,1,0,0:0:0:0:
320,192,129101,1,0,0:0:0:0:
192,192,129101,1,0,0:0:0:0:
64,192,129101,1,0,0:0:0:0:
448,192,129204,1,0,0:0:0:0:
192,192,129204,1,0,0:0:0:0:
320,192,129307,1,0,0:0:0:0:
448,192,129307,1,0,0:0:0:0:
64,192,129307,1,0,0:0:0:0:
192,192,129307,1,0,0:0:0:0:
320,192,129410,1,0,0:0:0:0:
192,192,129410,1,0,0:0:0:0:
320,192,129512,1,0,0:0:0:0:
64,192,129512,1,0,0:0:0:0:
320,192,129615,1,0,0:0:0:0:
448,192,129615,1,0,0:0:0:0:
320,192,129718,1,0,0:0:0:0:
192,192,129718,1,0,0:0:0:0:
64,192,129718,1,0,0:0:0:0:
320,192,129821,1,0,0:0:0:0:
448,192,129821,1,0,0:0:0:0:
320,192,129923,1,0,0:0:0:0:
192,192,129923,1,0,0:0:0:0:
320,192,130026,1,0,0:0:0:0:
448,192,130026,1,0,0:0:0:0:
320,192,130129,1,0,0:0:0:0:
64,192,130129,1,0,0:0:0:0:
448,192,130129,1,0,0:0:0:0:
320,192,130232,1,0,0:0:0:0:
192,192,130232,1,0,0:0:0:0:
320,192,130334,1,0,0:0:0:0:
448,192,130334,1,0,0:0:0:0:
192,192,130334,1,0,0:0:0:0:
64,192,130334,1,0,0:0:0:0:
320,192,130437,1,0,0:0:0:0:
64,192,130437,1,0,0:0:0:0:
320,192,130540,1,0,0:0:0:0:
192,192,130540,1,0,0:0:0:0:
448,192,130540,1,0,0:0:0:0:
320,192,130642,1,0,0:0:0:0:
64,192,130642,1,0,0:0:0:0:
320,192,130745,1,0,0:0:0:0:
448,192,130745,1,0,0:0:0:0:
192,192,130745,1,0,0:0:0:0:
64,192,130745,1,0,0:0:0:0:
320,192,130848,1,0,0:0:0:0:
192,192,130848,1,0,0:0:0:0:
320,192,130951,1,0,0:0:0:0:
192,192,130951,1,0,0:0:0:0:
64,192,130951,1,0,0:0:0:0:
448,192,130951,1,0,0:0:0:0:
192,192,131053,1,0,0:0:0:0:
320,192,131053,1,0,0:0:0:0:
192,192,131156,1,0,0:0:0:0:
448,192,131156,1,0,0:0:0:0:
192,192,131259,1,0,0:0:0:0:
320,192,131259,1,0,0:0:0:0:
192,192,131362,1,0,0:0:0:0:
64,192,131362,1,0,0:0:0:0:
448,192,131362,1,0,0:0:0:0:
192,192,131464,1,0,0:0:0:0:
448,192,131464,1,0,0:0:0:0:
192,192,131567,1,0,0:0:0:0:
320,192,131567,1,0,0:0:0:0:
192,192,131670,1,0,0:0:0:0:
64,192,131670,1,0,0:0:0:0:
192,192,131773,1,0,0:0:0:0:
448,192,131773,1,0,0:0:0:0:
320,192,131773,1,0,0:0:0:0:
192,192,131875,1,0,0:0:0:0:
64,192,131875,1,0,0:0:0:0:
192,192,131978,1,0,0:0:0:0:
320,192,131978,1,0,0:0:0:0:
448,192,131978,1,0,0:0:0:0:
64,192,131978,1,0,0:0:0:0:
192,192,132081,1,0,0:0:0:0:
448,192,132081,1,0,0:0:0:0:
192,192,132184,1,0,0:0:0:0:
64,192,132184,1,0,0:0:0:0:
320,192,132184,1,0,0:0:0:0:
192,192,132286,1,0,0:0:0:0:
448,192,132286,1,0,0:0:0:0:
192,192,132389,1,0,0:0:0:0:
64,192,132389,1,0,0:0:0:0:
320,192,132389,1,0,0:0:0:0:
448,192,132389,1,0,0:0:0:0:
192,192,132492,1,0,0:0:0:0:
448,192,132492,1,0,0:0:0:0:
64,192,132595,1,0,0:0:0:0:
192,192,132595,1,0,0:0:0:0:
320,192,132595,1,0,0:0:0:0:
448,192,132595,1,0,0:0:0:0:
64,192,132697,1,0,0:0:0:0:
192,192,132697,1,0,0:0:0:0:
64,192,132800,1,0,0:0:0:0:
320,192,132800,1,0,0:0:0:0:
64,192,132903,1,0,0:0:0:0:
448,192,132903,1,0,0:0:0:0:
64,192,133005,1,0,0:0:0:0:
192,192,133005,1,0,0:0:0:0:
320,192,133005,1,0,0:0:0:0:
448,192,133005,1,0,0:0:0:0:
64,192,133108,1,0,0:0:0:0:
192,192,133108,1,0,0:0:0:0:
64,192,133211,1,0,0:0:0:0:
320,192,133211,1,0,0:0:0:0:
64,192,133314,1,0,0:0:0:0:
448,192,133314,1,0,0:0:0:0:
64,192,133416,1,0,0:0:0:0:
192,192,133416,1,0,0:0:0:0:
320,192,133416,1,0,0:0:0:0:
448,192,133416,1,0,0:0:0:0:
64,192,133519,1,0,0:0:0:0:
320,192,133519,1,0,0:0:0:0:
64,192,133622,1,0,0:0:0:0:
448,192,133622,1,0,0:0:0:0:
320,192,133622,1,0,0:0:0:0:
192,192,133622,1,0,0:0:0:0:
64,192,133725,1,0,0:0:0:0:
448,192,133725,1,0,0:0:0:0:
64,192,133827,1,0,0:0:0:0:
320,192,133827,1,0,0:0:0:0:
192,192,133827,1,0,0:0:0:0:
64,192,133930,1,0,0:0:0:0:
192,192,133930,1,0,0:0:0:0:
64,192,134033,1,0,0:0:0:0:
320,192,134033,1,0,0:0:0:0:
64,192,134136,1,0,0:0:0:0:
192,192,134136,1,0,0:0:0:0:
64,192,134238,1,0,0:0:0:0:
448,192,134238,1,0,0:0:0:0:
320,192,134238,1,0,0:0:0:0:
192,192,134238,1,0,0:0:0:0:
448,192,134341,1,0,0:0:0:0:
192,192,134341,1,0,0:0:0:0:
448,192,134444,1,0,0:0:0:0:
64,192,134444,1,0,0:0:0:0:
448,192,134547,1,0,0:0:0:0:
320,192,134547,1,0,0:0:0:0:
448,192,134649,1,0,0:0:0:0:
192,192,134649,1,0,0:0:0:0:
64,192,134649,1,0,0:0:0:0:
448,192,134752,1,0,0:0:0:0:
320,192,134752,1,0,0:0:0:0:
448,192,134855,1,0,0:0:0:0:
64,192,134855,1,0,0:0:0:0:
448,192,134958,1,0,0:0:0:0:
192,192,134958,1,0,0:0:0:0:
448,192,135060,1,0,0:0:0:0:
64,192,135060,1,0,0:0:0:0:
320,192,135060,1,0,0:0:0:0:
448,192,135163,1,0,0:0:0:0:
448,192,135266,1,0,0:0:0:0:
320,192,135266,1,0,0:0:0:0:
192,192,135266,1,0,0:0:0:0:
64,192,135266,1,0,0:0:0:0:
448,192,135368,1,0,0:0:0:0:
192,192,135368,1,0,0:0:0:0:
448,192,135471,1,0,0:0:0:0:
320,192,135471,1,0,0:0:0:0:
64,192,135471,1,0,0:0:0:0:
448,192,135574,1,0,0:0:0:0:
192,192,135574,1,0,0:0:0:0:
448,192,135677,1,0,0:0:0:0:
64,192,135677,1,0,0:0:0:0:
320,192,135677,1,0,0:0:0:0:
192,192,135677,1,0,0:0:0:0:
448,192,135779,1,0,0:0:0:0:
192,192,135779,1,0,0:0:0:0:
192,192,135882,1,0,0:0:0:0:
64,192,135882,1,0,0:0:0:0:
320,192,135882,1,0,0:0:0:0:
448,192,135882,1,0,0:0:0:0:
320,192,135985,1,0,0:0:0:0:
448,192,135985,1,0,0:0:0:0:
320,192,136088,1,0,0:0:0:0:
192,192,136088,1,0,0:0:0:0:
320,192,136190,1,0,0:0:0:0:
448,192,136190,1,0,0:0:0:0:
320,192,136293,1,0,0:0:0:0:
64,192,136293,1,0,0:0:0:0:
192,192,136293,1,0,0:0:0:0:
320,192,136396,1,0,0:0:0:0:
448,192,136396,1,0,0:0:0:0:
320,192,136499,1,0,0:0:0:0:
192,192,136499,1,0,0:0:0:0:
320,192,136601,1,0,0:0:0:0:
64,192,136601,1,0,0:0:0:0:
320,192,136704,1,0,0:0:0:0:
448,192,136704,1,0,0:0:0:0:
192,192,136704,1,0,0:0:0:0:
320,192,136807,1,0,0:0:0:0:
64,192,136807,1,0,0:0:0:0:
320,192,136910,1,0,0:0:0:0:
192,192,136910,1,0,0:0:0:0:
448,192,136910,1,0,0:0:0:0:
64,192,136910,1,0,0:0:0:0:
320,192,137012,1,0,0:0:0:0:
192,192,137012,1,0,0:0:0:0:
320,192,137115,1,0,0:0:0:0:
64,192,137115,1,0,0:0:0:0:
448,192,137115,1,0,0:0:0:0:
320,192,137218,1,0,0:0:0:0:
448,192,137218,1,0,0:0:0:0:
320,192,137321,1,0,0:0:0:0:
448,192,137321,1,0,0:0:0:0:
192,192,137321,1,0,0:0:0:0:
64,192,137321,1,0,0:0:0:0:
320,192,137423,1,0,0:0:0:0:
192,192,137423,1,0,0:0:0:0:
192,192,137526,1,0,0:0:0:0:
64,192,137526,1,0,0:0:0:0:
320,192,137526,1,0,0:0:0:0:
448,192,137526,1,0,0:0:0:0:
192,192,137629,1,0,0:0:0:0:
320,192,137629,1,0,0:0:0:0:
192,192,137732,1,0,0:0:0:0:
448,192,137732,1,0,0:0:0:0:
192,192,137834,1,0,0:0:0:0:
320,192,137834,1,0,0:0:0:0:
192,192,137937,1,0,0:0:0:0:
64,192,137937,1,0,0:0:0:0:
448,192,137937,1,0,0:0:0:0:
192,192,138040,1,0,0:0:0:0:
320,192,138040,1,0,0:0:0:0:
192,192,138142,1,0,0:0:0:0:
448,192,138142,1,0,0:0:0:0:
192,192,138245,1,0,0:0:0:0:
320,192,138245,1,0,0:0:0:0:
192,192,138348,1,0,0:0:0:0:
320,192,138348,1,0,0:0:0:0:
448,192,138348,1,0,0:0:0:0:
64,192,138348,1,0,0:0:0:0:
192,192,138451,1,0,0:0:0:0:
64,192,138451,1,0,0:0:0:0:
192,192,138553,1,0,0:0:0:0:
320,192,138553,1,0,0:0:0:0:
192,192,138656,1,0,0:0:0:0:
64,192,138656,1,0,0:0:0:0:
192,192,138759,1,0,0:0:0:0:
320,192,138759,1,0,0:0:0:0:
448,192,138759,1,0,0:0:0:0:
192,192,138862,1,0,0:0:0:0:
320,192,138862,1,0,0:0:0:0:
320,192,138964,1,0,0:0:0:0:
448,192,138964,1,0,0:0:0:0:
192,192,139067,1,0,0:0:0:0:
64,192,139067,1,0,0:0:0:0:
64,192,139170,1,0,0:0:0:0:
192,192,139170,1,0,0:0:0:0:
320,192,139170,1,0,0:0:0:0:
448,192,139170,1,0,0:0:0:0:
64,192,139273,1,0,0:0:0:0:
192,192,139273,1,0,0:0:0:0:
320,192,139273,1,0,0:0:0:0:
448,192,139273,1,0,0:0:0:0:
64,192,139375,1,0,0:0:0:0:
192,192,139375,1,0,0:0:0:0:
320,192,139375,1,0,0:0:0:0:
448,192,139375,1,0,0:0:0:0:
64,192,139478,1,0,0:0:0:0:
320,192,139478,1,0,0:0:0:0:
448,192,139478,1,0,0:0:0:0:
192,192,139478,1,0,0:0:0:0:
64,192,139581,1,0,0:0:0:0:
192,192,139581,1,0,0:0:0:0:
320,192,139581,1,0,0:0:0:0:
448,192,139581,1,0,0:0:0:0:
64,192,139684,1,0,0:0:0:0:
448,192,139684,1,0,0:0:0:0:
320,192,139684,1,0,0:0:0:0:
192,192,139684,1,0,0:0:0:0:
64,192,139786,1,0,0:0:0:0:
192,192,139786,1,0,0:0:0:0:
320,192,139786,1,0,0:0:0:0:
448,192,139786,1,0,0:0:0:0:
64,192,139889,1,0,0:0:0:0:
448,192,139889,1,0,0:0:0:0:
320,192,139889,1,0,0:0:0:0:
192,192,139889,1,0,0:0:0:0:
64,192,139992,1,0,0:0:0:0:
192,192,139992,1,0,0:0:0:0:
320,192,139992,1,0,0:0:0:0:
448,192,139992,1,0,0:0:0:0:
64,192,140095,1,0,0:0:0:0:
448,192,140095,1,0,0:0:0:0:
320,192,140095,1,0,0:0:0:0:
192,192,140095,1,0,0:0:0:0:
64,192,140197,1,0,0:0:0:0:
192,192,140197,1,0,0:0:0:0:
320,192,140197,1,0,0:0:0:0:
448,192,140197,1,0,0:0:0:0:
64,192,140300,1,0,0:0:0:0:
448,192,140300,1,0,0:0:0:0:
320,192,140300,1,0,0:0:0:0:
192,192,140300,1,0,0:0:0:0:
64,192,140403,1,0,0:0:0:0:
192,192,140403,1,0,0:0:0:0:
320,192,140403,1,0,0:0:0:0:
448,192,140403,1,0,0:0:0:0:
64,192,140505,1,0,0:0:0:0:
320,192,140505,1,0,0:0:0:0:
192,192,140505,1,0,0:0:0:0:
448,192,140505,1,0,0:0:0:0:
64,192,140608,1,0,0:0:0:0:
448,192,140608,1,0,0:0:0:0:
320,192,140608,1,0,0:0:0:0:
192,192,140608,1,0,0:0:0:0:
64,192,140711,1,0,0:0:0:0:
192,192,140711,1,0,0:0:0:0:
320,192,140711,1,0,0:0:0:0:
448,192,140711,1,0,0:0:0:0:
320,192,140814,1,0,0:0:0:0:
192,192,140814,1,0,0:0:0:0:
64,192,140814,1,0,0:0:0:0:
320,192,140916,1,0,0:0:0:0:
320,192,141019,1,0,0:0:0:0:
448,192,141019,1,0,0:0:0:0:
320,192,141122,1,0,0:0:0:0:
320,192,141225,1,0,0:0:0:0:
64,192,141225,1,0,0:0:0:0:
192,192,141225,1,0,0:0:0:0:
320,192,141327,1,0,0:0:0:0:
320,192,141430,1,0,0:0:0:0:
64,192,141430,1,0,0:0:0:0:
320,192,141533,1,0,0:0:0:0:
320,192,141636,1,0,0:0:0:0:
448,192,141636,1,0,0:0:0:0:
192,192,141636,1,0,0:0:0:0:
320,192,141738,1,0,0:0:0:0:
320,192,141841,1,0,0:0:0:0:
64,192,141841,1,0,0:0:0:0:
320,192,141944,1,0,0:0:0:0:
320,192,142047,1,0,0:0:0:0:
192,192,142047,1,0,0:0:0:0:
448,192,142047,1,0,0:0:0:0:
320,192,142149,1,0,0:0:0:0:
320,192,142252,1,0,0:0:0:0:
192,192,142252,1,0,0:0:0:0:
320,192,142355,1,0,0:0:0:0:
320,192,142458,1,0,0:0:0:0:
192,192,142458,1,0,0:0:0:0:
448,192,142458,1,0,0:0:0:0:
192,192,142560,1,0,0:0:0:0:
192,192,142663,1,0,0:0:0:0:
64,192,142663,1,0,0:0:0:0:
192,192,142766,1,0,0:0:0:0:
192,192,142868,1,0,0:0:0:0:
320,192,142868,1,0,0:0:0:0:
448,192,142868,1,0,0:0:0:0:
192,192,142971,1,0,0:0:0:0:
192,192,143074,1,0,0:0:0:0:
320,192,143074,1,0,0:0:0:0:
192,192,143177,1,0,0:0:0:0:
192,192,143279,1,0,0:0:0:0:
64,192,143279,1,0,0:0:0:0:
320,192,143279,1,0,0:0:0:0:
192,192,143382,1,0,0:0:0:0:
192,192,143485,1,0,0:0:0:0:
448,192,143485,1,0,0:0:0:0:
192,192,143588,1,0,0:0:0:0:
192,192,143690,1,0,0:0:0:0:
320,192,143690,1,0,0:0:0:0:
64,192,143690,1,0,0:0:0:0:
192,192,143793,1,0,0:0:0:0:
192,192,143896,1,0,0:0:0:0:
64,192,143896,1,0,0:0:0:0:
192,192,143999,1,0,0:0:0:0:
192,192,144101,1,0,0:0:0:0:
320,192,144101,1,0,0:0:0:0:
448,192,144101,1,0,0:0:0:0:
320,192,144204,1,0,0:0:0:0:
320,192,144307,1,0,0:0:0:0:
192,192,144307,1,0,0:0:0:0:
320,192,144410,1,0,0:0:0:0:
320,192,144512,1,0,0:0:0:0:
192,192,144512,1,0,0:0:0:0:
448,192,144512,1,0,0:0:0:0:
320,192,144615,1,0,0:0:0:0:
320,192,144718,1,0,0:0:0:0:
448,192,144718,1,0,0:0:0:0:
320,192,144821,1,0,0:0:0:0:
320,192,144923,1,0,0:0:0:0:
448,192,144923,1,0,0:0:0:0:
192,192,144923,1,0,0:0:0:0:
320,192,145026,1,0,0:0:0:0:
320,192,145129,1,0,0:0:0:0:
64,192,145129,1,0,0:0:0:0:
320,192,145232,1,0,0:0:0:0:
320,192,145334,1,0,0:0:0:0:
448,192,145334,1,0,0:0:0:0:
192,192,145334,1,0,0:0:0:0:
320,192,145437,1,0,0:0:0:0:
320,192,145540,1,0,0:0:0:0:
64,192,145540,1,0,0:0:0:0:
320,192,145642,1,0,0:0:0:0:
320,192,145745,1,0,0:0:0:0:
192,192,145745,1,0,0:0:0:0:
64,192,145745,1,0,0:0:0:0:
192,192,145848,1,0,0:0:0:0:
192,192,145951,1,0,0:0:0:0:
448,192,145951,1,0,0:0:0:0:
192,192,146053,1,0,0:0:0:0:
192,192,146156,1,0,0:0:0:0:
64,192,146156,1,0,0:0:0:0:
448,192,146156,1,0,0:0:0:0:
192,192,146259,1,0,0:0:0:0:
192,192,146362,1,0,0:0:0:0:
320,192,146362,1,0,0:0:0:0:
192,192,146464,1,0,0:0:0:0:
192,192,146567,1,0,0:0:0:0:
64,192,146567,1,0,0:0:0:0:
448,192,146567,1,0,0:0:0:0:
192,192,146670,1,0,0:0:0:0:
192,192,146773,1,0,0:0:0:0:
64,192,146773,1,0,0:0:0:0:
192,192,146875,1,0,0:0:0:0:
192,192,146978,1,0,0:0:0:0:
320,192,146978,1,0,0:0:0:0:
448,192,146978,1,0,0:0:0:0:
192,192,147081,1,0,0:0:0:0:
192,192,147184,1,0,0:0:0:0:
64,192,147184,1,0,0:0:0:0:
192,192,147286,1,0,0:0:0:0:
192,192,147389,1,0,0:0:0:0:
448,192,147389,1,0,0:0:0:0:
320,192,147389,1,0,0:0:0:0:
64,192,147389,1,0,0:0:0:0:
192,192,147492,1,0,0:0:0:0:
320,192,147595,1,0,0:0:0:0:
448,192,147697,1,0,0:0:0:0:
64,192,147800,1,0,0:0:0:0:
192,192,147800,1,0,0:0:0:0:
192,192,147903,1,0,0:0:0:0:
320,192,148005,1,0,0:0:0:0:
448,192,148108,1,0,0:0:0:0:
448,192,148211,1,0,0:0:0:0:
320,192,148314,1,0,0:0:0:0:
192,192,148416,1,0,0:0:0:0:
64,192,148519,1,0,0:0:0:0:
448,192,148622,1,0,0:0:0:0:
320,192,148622,1,0,0:0:0:0:
320,192,148725,1,0,0:0:0:0:
192,192,148827,1,0,0:0:0:0:
64,192,148930,1,0,0:0:0:0:
64,192,149033,1,0,0:0:0:0:
192,192,149136,1,0,0:0:0:0:
320,192,149238,1,0,0:0:0:0:
448,192,149341,1,0,0:0:0:0:
64,192,149444,1,0,0:0:0:0:
192,192,149444,1,0,0:0:0:0:
192,192,149547,1,0,0:0:0:0:
320,192,149649,1,0,0:0:0:0:
448,192,149752,1,0,0:0:0:0:
448,192,149855,1,0,0:0:0:0:
320,192,149958,1,0,0:0:0:0:
192,192,150060,1,0,0:0:0:0:
320,192,150060,1,0,0:0:0:0:
64,192,150163,1,0,0:0:0:0:
448,192,150266,1,0,0:0:0:0:
320,192,150266,1,0,0:0:0:0:
320,192,150368,1,0,0:0:0:0:
192,192,150471,1,0,0:0:0:0:
64,192,150574,1,0,0:0:0:0:
64,192,150677,1,0,0:0:0:0:
192,192,150779,1,0,0:0:0:0:
320,192,150882,1,0,0:0:0:0:
448,192,150985,1,0,0:0:0:0:
64,192,151088,1,0,0:0:0:0:
192,192,151088,1,0,0:0:0:0:
192,192,151190,1,0,0:0:0:0:
320,192,151293,1,0,0:0:0:0:
448,192,151396,1,0,0:0:0:0:
448,192,151499,1,0,0:0:0:0:
320,192,151601,1,0,0:0:0:0:
192,192,151704,1,0,0:0:0:0:
64,192,151807,1,0,0:0:0:0:
448,192,151910,1,0,0:0:0:0:
320,192,151910,1,0,0:0:0:0:
320,192,152012,1,0,0:0:0:0:
192,192,152115,1,0,0:0:0:0:
64,192,152218,1,0,0:0:0:0:
64,192,152321,1,0,0:0:0:0:
320,192,152321,1,0,0:0:0:0:
192,192,152423,1,0,0:0:0:0:
320,192,152526,1,0,0:0:0:0:
448,192,152629,1,0,0:0:0:0:
64,192,152732,1,0,0:0:0:0:
320,192,152732,1,0,0:0:0:0:
192,192,152834,1,0,0:0:0:0:
320,192,152937,1,0,0:0:0:0:
448,192,153040,1,0,0:0:0:0:
64,192,153142,1,0,0:0:0:0:
320,192,153142,1,0,0:0:0:0:
192,192,153245,1,0,0:0:0:0:
448,192,153348,1,0,0:0:0:0:
320,192,153451,1,0,0:0:0:0:
64,192,153553,1,0,0:0:0:0:
448,192,153553,1,0,0:0:0:0:
192,192,153656,1,0,0:0:0:0:
448,192,153759,1,0,0:0:0:0:
320,192,153862,1,0,0:0:0:0:
192,192,153964,1,0,0:0:0:0:
