osu file format v14

[General]
AudioFilename: angel_1.4.mp3
AudioLeadIn: 0
PreviewTime: -1
Countdown: 0
SampleSet: None
StackLeniency: 0.7
Mode: 3
LetterboxInBreaks: 0
SpecialStyle: 0
WidescreenStoryboard: 0

[Editor]
Bookmarks: 2732,9307,15882,22458,29033,35608,42184,48759,55334,61910,81636,88211,94786,107937,114512,121088,127663
DistanceSpacing: 1
BeatDivisor: 4
GridSize: 4
TimelineZoom: 2.1

[Metadata]
Title:angelic_layer
TitleUnicode:angelic_layer
Artist:Shiki
ArtistUnicode:Shiki
Creator:fufu-
Version:1.4
Source:
Tags:
BeatmapID:1415204
BeatmapSetID:669058

[Difficulty]
HPDrainRate:8
CircleSize:4
OverallDifficulty:9.3
ApproachRate:5
SliderMultiplier:1.4
SliderTickRate:1

[Events]
//Background and Video events
0,0,"title.jpg",0,0
//Break Periods
//Storyboard Layer 0 (Background)
//Storyboard Layer 1 (Fail)
//Storyboard Layer 2 (Pass)
//Storyboard Layer 3 (Foreground)
//Storyboard Sound Samples

[TimingPoints]
1924,293.542074363992,4,3,0,25,1,0

[HitObjects]
64,192,1924,5,4,0:0:0:0:
192,192,1924,1,0,0:0:0:0:
320,192,1924,1,0,0:0:0:0:
448,192,1924,1,0,0:0:0:0:
64,192,1997,1,0,0:0:0:0:
64,192,2070,1,2,0:0:0:0:
192,192,2070,1,0,0:0:0:0:
64,192,2144,1,0,0:0:0:0:
64,192,2217,1,8,0:0:0:0:
320,192,2217,1,0,0:0:0:0:
448,192,2217,1,0,0:0:0:0:
64,192,2290,1,0,0:0:0:0:
64,192,2364,1,2,0:0:0:0:
192,192,2364,1,0,0:0:0:0:
64,192,2437,1,0,0:0:0:0:
64,192,2511,1,8,0:0:0:0:
192,192,2511,1,0,0:0:0:0:
320,192,2511,1,0,0:0:0:0:
64,192,2584,1,0,0:0:0:0:
64,192,2657,1,2,0:0:0:0:
448,192,2657,1,0,0:0:0:0:
64,192,2731,1,0,0:0:0:0:
64,192,2804,1,8,0:0:0:0:
192,192,2804,1,0,0:0:0:0:
448,192,2804,1,0,0:0:0:0:
64,192,2878,1,0,0:0:0:0:
64,192,2951,1,2,0:0:0:0:
320,192,2951,1,0,0:0:0:0:
64,192,3024,1,0,0:0:0:0:
64,192,3098,1,8,0:0:0:0:
192,192,3098,1,0,0:0:0:0:
320,192,3098,1,0,0:0:0:0:
64,192,3171,1,0,0:0:0:0:
64,192,3244,1,2,0:0:0:0:
192,192,3244,1,0,0:0:0:0:
64,192,3318,1,0,0:0:0:0:
64,192,3391,1,8,0:0:0:0:
320,192,3391,1,0,0:0:0:0:
448,192,3391,1,0,0:0:0:0:
64,192,3465,1,0,0:0:0:0:
64,192,3538,1,2,0:0:0:0:
448,192,3538,1,0,0:0:0:0:
64,192,3611,1,0,0:0:0:0:
64,192,3685,1,8,0:0:0:0:
192,192,3685,1,0,0:0:0:0:
320,192,3685,1,0,0:0:0:0:
64,192,3758,1,0,0:0:0:0:
448,192,3758,1,0,0:0:0:0:
64,192,3832,1,2,0:0:0:0:
320,192,3832,1,0,0:0:0:0:
192,192,3832,1,0,0:0:0:0:
64,192,3905,1,0,0:0:0:0:
64,192,3978,1,8,0:0:0:0:
192,192,3978,1,0,0:0:0:0:
448,192,3978,1,0,0:0:0:0:
64,192,4052,1,0,0:0:0:0:
64,192,4125,1,2,0:0:0:0:
320,192,4125,1,0,0:0:0:0:
64,192,4198,1,0,0:0:0:0:
64,192,4272,1,8,0:0:0:0:
192,192,4272,1,0,0:0:0:0:
448,192,4272,1,0,0:0:0:0:
64,192,4345,1,0,0:0:0:0:
64,192,4419,1,2,0:0:0:0:
192,192,4419,1,0,0:0:0:0:
64,192,4492,1,0,0:0:0:0:
64,192,4565,1,8,0:0:0:0:
320,192,4565,1,0,0:0:0:0:
448,192,4565,1,0,0:0:0:0:
64,192,4639,1,0,0:0:0:0:
64,192,4712,1,2,0:0:0:0:
192,192,4712,1,0,0:0:0:0:
64,192,4786,1,0,0:0:0:0:
64,192,4859,1,8,0:0:0:0:
192,192,4859,1,0,0:0:0:0:
320,192,4859,1,0,0:0:0:0:
64,192,4932,1,0,0:0:0:0:
64,192,5006,1,2,0:0:0:0:
320,192,5006,1,0,0:0:0:0:
64,192,5079,1,0,0:0:0:0:
64,192,5152,1,8,0:0:0:0:
320,192,5152,1,0,0:0:0:0:
192,192,5152,1,0,0:0:0:0:
64,192,5226,1,0,0:0:0:0:
64,192,5299,1,2,0:0:0:0:
448,192,5299,1,0,0:0:0:0:
64,192,5373,1,0,0:0:0:0:
64,192,5446,1,8,0:0:0:0:
192,192,5446,1,0,0:0:0:0:
320,192,5446,1,0,0:0:0:0:
64,192,5519,1,0,0:0:0:0:
64,192,5593,1,2,0:0:0:0:
192,192,5593,1,0,0:0:0:0:
64,192,5666,1,0,0:0:0:0:
64,192,5740,1,8,0:0:0:0:
320,192,5740,1,0,0:0:0:0:
448,192,5740,1,0,0:0:0:0:
64,192,5813,1,0,0:0:0:0:
64,192,5886,1,2,0:0:0:0:
192,192,5886,1,0,0:0:0:0:
64,192,5960,1,0,0:0:0:0:
64,192,6033,1,2,0:0:0:0:
320,192,6033,1,0,0:0:0:0:
448,192,6033,1,0,0:0:0:0:
64,192,6106,1,8,0:0:0:0:
192,192,6106,1,0,0:0:0:0:
64,192,6180,1,8,0:0:0:0:
320,192,6180,1,0,0:0:0:0:
448,192,6180,1,0,0:0:0:0:
64,192,6253,1,0,0:0:0:0:
64,192,6327,1,8,0:0:0:0:
192,192,6327,1,0,0:0:0:0:
320,192,6327,1,0,0:0:0:0:
64,192,6400,1,0,0:0:0:0:
64,192,6473,1,2,0:0:0:0:
448,192,6473,1,0,0:0:0:0:
64,192,6547,1,0,0:0:0:0:
64,192,6620,1,8,0:0:0:0:
192,192,6620,1,0,0:0:0:0:
320,192,6620,1,0,0:0:0:0:
64,192,10143,1,0,0:0:0:0:
320,192,11317,1,0,0:0:0:0:
64,192,11317,1,0,0:0:0:0:
448,192,11317,1,0,0:0:0:0:
320,192,11390,1,0,0:0:0:0:
192,192,11390,1,0,0:0:0:0:
320,192,11464,1,0,0:0:0:0:
64,192,11464,1,0,0:0:0:0:
320,192,11537,1,0,0:0:0:0:
192,192,11537,1,0,0:0:0:0:
320,192,11610,1,0,0:0:0:0:
64,192,11610,1,0,0:0:0:0:
448,192,11610,1,0,0:0:0:0:
320,192,11684,1,0,0:0:0:0:
192,192,11684,1,0,0:0:0:0:
320,192,11757,1,0,0:0:0:0:
64,192,11757,1,0,0:0:0:0:
320,192,11831,1,0,0:0:0:0:
448,192,11831,1,0,0:0:0:0:
320,192,11904,1,0,0:0:0:0:
64,192,11904,1,0,0:0:0:0:
320,192,11977,1,0,0:0:0:0:
192,192,11977,1,0,0:0:0:0:
320,192,12051,1,0,0:0:0:0:
448,192,12051,1,0,0:0:0:0:
320,192,12124,1,0,0:0:0:0:
192,192,12124,1,0,0:0:0:0:
320,192,12197,1,0,0:0:0:0:
64,192,12197,1,0,0:0:0:0:
448,192,12197,1,0,0:0:0:0:
320,192,12271,1,0,0:0:0:0:
192,192,12271,1,0,0:0:0:0:
320,192,12344,1,0,0:0:0:0:
448,192,12344,1,0,0:0:0:0:
320,192,12418,1,0,0:0:0:0:
192,192,12418,1,0,0:0:0:0:
320,192,12491,1,0,0:0:0:0:
64,192,12491,1,0,0:0:0:0:
192,192,12491,1,0,0:0:0:0:
320,192,12564,1,0,0:0:0:0:
448,192,12564,1,0,0:0:0:0:
320,192,12638,1,0,0:0:0:0:
192,192,12638,1,0,0:0:0:0:
320,192,12711,1,0,0:0:0:0:
64,192,12711,1,0,0:0:0:0:
320,192,12785,1,0,0:0:0:0:
192,192,12785,1,0,0:0:0:0:
448,192,12785,1,0,0:0:0:0:
320,192,12858,1,0,0:0:0:0:
64,192,12858,1,0,0:0:0:0:
320,192,12931,1,0,0:0:0:0:
192,192,12931,1,0,0:0:0:0:
320,192,13005,1,0,0:0:0:0:
64,192,13005,1,0,0:0:0:0:
320,192,13078,1,0,0:0:0:0:
192,192,13078,1,0,0:0:0:0:
448,192,13078,1,0,0:0:0:0:
320,192,13151,1,0,0:0:0:0:
192,192,13151,1,0,0:0:0:0:
64,192,13151,1,0,0:0:0:0:
320,192,13225,1,0,0:0:0:0:
192,192,13225,1,0,0:0:0:0:
320,192,13298,1,0,0:0:0:0:
448,192,13298,1,0,0:0:0:0:
320,192,13372,1,0,0:0:0:0:
64,192,13372,1,0,0:0:0:0:
192,192,13372,1,0,0:0:0:0:
320,192,13445,1,0,0:0:0:0:
192,192,13445,1,0,0:0:0:0:
320,192,13518,1,0,0:0:0:0:
448,192,13518,1,0,0:0:0:0:
320,192,13592,1,0,0:0:0:0:
192,192,13592,1,0,0:0:0:0:
320,192,13665,1,0,0:0:0:0:
64,192,13665,1,0,0:0:0:0:
448,192,13665,1,0,0:0:0:0:
320,192,13739,1,0,0:0:0:0:
192,192,13739,1,0,0:0:0:0:
320,192,13812,1,0,0:0:0:0:
64,192,13812,1,0,0:0:0:0:
320,192,13885,1,0,0:0:0:0:
448,192,13885,1,0,0:0:0:0:
320,192,13959,1,0,0:0:0:0:
192,192,13959,1,0,0:0:0:0:
64,192,13959,1,0,0:0:0:0:
320,192,14032,1,0,0:0:0:0:
448,192,14032,1,0,0:0:0:0:
320,192,14105,1,0,0:0:0:0:
192,192,14105,1,0,0:0:0:0:
320,192,14179,1,0,0:0:0:0:
448,192,14179,1,0,0:0:0:0:
320,192,14252,1,0,0:0:0:0:
192,192,14252,1,0,0:0:0:0:
320,192,14326,1,0,0:0:0:0:
64,192,14326,1,0,0:0:0:0:
320,192,14399,1,0,0:0:0:0:
64,192,14399,1,0,0:0:0:0:
320,192,14472,1,0,0:0:0:0:
192,192,14472,1,0,0:0:0:0:
320,192,14546,1,0,0:0:0:0:
64,192,14546,1,0,0:0:0:0:
448,192,14546,1,0,0:0:0:0:
320,192,14619,1,0,0:0:0:0:
448,192,14619,1,0,0:0:0:0:
320,192,14693,1,0,0:0:0:0:
192,192,14693,1,0,0:0:0:0:
320,192,14766,1,0,0:0:0:0:
64,192,14766,1,0,0:0:0:0:
320,192,14839,1,0,0:0:0:0:
192,192,14839,1,0,0:0:0:0:
320,192,14913,1,0,0:0:0:0:
448,192,14913,1,0,0:0:0:0:
320,192,14986,1,0,0:0:0:0:
192,192,14986,1,0,0:0:0:0:
320,192,15060,1,0,0:0:0:0:
448,192,15060,1,0,0:0:0:0:
320,192,15133,1,0,0:0:0:0:
192,192,15133,1,0,0:0:0:0:
64,192,15133,1,0,0:0:0:0:
320,192,15206,1,0,0:0:0:0:
448,192,15206,1,0,0:0:0:0:
320,192,15280,1,0,0:0:0:0:
192,192,15280,1,0,0:0:0:0:
320,192,15353,1,0,0:0:0:0:
64,192,15353,1,0,0:0:0:0:
320,192,15426,1,0,0:0:0:0:
192,192,15426,1,0,0:0:0:0:
320,192,15500,1,0,0:0:0:0:
64,192,15500,1,0,0:0:0:0:
448,192,15500,1,0,0:0:0:0:
320,192,15573,1,0,0:0:0:0:
192,192,15573,1,0,0:0:0:0:
320,192,15647,1,0,0:0:0:0:
64,192,15647,1,0,0:0:0:0:
320,192,15720,1,0,0:0:0:0:
192,192,15720,1,0,0:0:0:0:
448,192,15720,1,0,0:0:0:0:
320,192,15793,1,0,0:0:0:0:
320,192,15867,1,0,0:0:0:0:
448,192,15867,1,0,0:0:0:0:
64,192,15867,1,0,0:0:0:0:
320,192,15940,1,0,0:0:0:0:
448,192,15940,1,0,0:0:0:0:
64,192,15940,1,0,0:0:0:0:
192,192,16014,1,0,0:0:0:0:
448,192,16014,1,0,0:0:0:0:
64,192,16014,1,0,0:0:0:0:
192,192,16087,1,0,0:0:0:0:
320,192,16087,1,0,0:0:0:0:
192,192,16160,1,0,0:0:0:0:
448,192,16160,1,0,0:0:0:0:
192,192,16234,1,0,0:0:0:0:
320,192,16234,1,0,0:0:0:0:
192,192,16307,1,0,0:0:0:0:
448,192,16307,1,0,0:0:0:0:
64,192,16307,1,0,0:0:0:0:
192,192,16380,1,0,0:0:0:0:
320,192,16380,1,0,0:0:0:0:
192,192,16454,1,0,0:0:0:0:
448,192,16454,1,0,0:0:0:0:
192,192,16527,1,0,0:0:0:0:
64,192,16527,1,0,0:0:0:0:
192,192,16601,1,0,0:0:0:0:
448,192,16601,1,0,0:0:0:0:
192,192,16674,1,0,0:0:0:0:
320,192,16674,1,0,0:0:0:0:
192,192,16747,1,0,0:0:0:0:
64,192,16747,1,0,0:0:0:0:
192,192,16821,1,0,0:0:0:0:
320,192,16821,1,0,0:0:0:0:
192,192,16894,1,0,0:0:0:0:
448,192,16894,1,0,0:0:0:0:
64,192,16894,1,0,0:0:0:0:
192,192,16968,1,0,0:0:0:0:
320,192,16968,1,0,0:0:0:0:
192,192,17041,1,0,0:0:0:0:
64,192,17041,1,0,0:0:0:0:
192,192,17114,1,0,0:0:0:0:
320,192,17114,1,0,0:0:0:0:
192,192,17188,1,0,0:0:0:0:
448,192,17188,1,0,0:0:0:0:
320,192,17188,1,0,0:0:0:0:
192,192,17261,1,0,0:0:0:0:
64,192,17261,1,0,0:0:0:0:
192,192,17334,1,0,0:0:0:0:
320,192,17334,1,0,0:0:0:0:
192,192,17408,1,0,0:0:0:0:
448,192,17408,1,0,0:0:0:0:
192,192,17481,1,0,0:0:0:0:
320,192,17481,1,0,0:0:0:0:
64,192,17481,1,0,0:0:0:0:
192,192,17555,1,0,0:0:0:0:
448,192,17555,1,0,0:0:0:0:
192,192,17628,1,0,0:0:0:0:
320,192,17628,1,0,0:0:0:0:
192,192,17701,1,0,0:0:0:0:
448,192,17701,1,0,0:0:0:0:
192,192,17775,1,0,0:0:0:0:
320,192,17775,1,0,0:0:0:0:
64,192,17775,1,0,0:0:0:0:
192,192,17848,1,0,0:0:0:0:
320,192,17848,1,0,0:0:0:0:
448,192,17848,1,0,0:0:0:0:
192,192,17922,1,0,0:0:0:0:
320,192,17922,1,0,0:0:0:0:
192,192,17995,1,0,0:0:0:0:
64,192,17995,1,0,0:0:0:0:
192,192,18068,1,0,0:0:0:0:
448,192,18068,1,0,0:0:0:0:
320,192,18068,1,0,0:0:0:0:
192,192,18142,1,0,0:0:0:0:
320,192,18142,1,0,0:0:0:0:
192,192,18215,1,0,0:0:0:0:
64,192,18215,1,0,0:0:0:0:
192,192,18288,1,0,0:0:0:0:
320,192,18288,1,0,0:0:0:0:
192,192,18362,1,0,0:0:0:0:
448,192,18362,1,0,0:0:0:0:
64,192,18362,1,0,0:0:0:0:
192,192,18435,1,0,0:0:0:0:
320,192,18435,1,0,0:0:0:0:
192,192,18509,1,0,0:0:0:0:
448,192,18509,1,0,0:0:0:0:
192,192,18582,1,0,0:0:0:0:
64,192,18582,1,0,0:0:0:0:
192,192,18655,1,0,0:0:0:0:
320,192,18655,1,0,0:0:0:0:
448,192,18655,1,0,0:0:0:0:
192,192,18729,1,0,0:0:0:0:
64,192,18729,1,0,0:0:0:0:
192,192,18802,1,0,0:0:0:0:
320,192,18802,1,0,0:0:0:0:
192,192,18876,1,0,0:0:0:0:
64,192,18876,1,0,0:0:0:0:
192,192,18949,1,0,0:0:0:0:
320,192,18949,1,0,0:0:0:0:
192,192,19022,1,0,0:0:0:0:
448,192,19022,1,0,0:0:0:0:
192,192,19096,1,0,0:0:0:0:
448,192,19096,1,0,0:0:0:0:
192,192,19169,1,0,0:0:0:0:
320,192,19169,1,0,0:0:0:0:
192,192,19242,1,0,0:0:0:0:
448,192,19242,1,0,0:0:0:0:
64,192,19242,1,0,0:0:0:0:
192,192,19316,1,0,0:0:0:0:
64,192,19316,1,0,0:0:0:0:
192,192,19389,1,0,0:0:0:0:
320,192,19389,1,0,0:0:0:0:
192,192,19463,1,0,0:0:0:0:
448,192,19463,1,0,0:0:0:0:
192,192,19536,1,0,0:0:0:0:
320,192,19536,1,0,0:0:0:0:
192,192,19609,1,0,0:0:0:0:
64,192,19609,1,0,0:0:0:0:
192,192,19683,1,0,0:0:0:0:
320,192,19683,1,0,0:0:0:0:
192,192,19756,1,0,0:0:0:0:
64,192,19756,1,0,0:0:0:0:
192,192,19830,1,0,0:0:0:0:
320,192,19830,1,0,0:0:0:0:
448,192,19830,1,0,0:0:0:0:
192,192,19903,1,0,0:0:0:0:
64,192,19903,1,0,0:0:0:0:
192,192,19976,1,0,0:0:0:0:
320,192,19976,1,0,0:0:0:0:
192,192,20050,1,0,0:0:0:0:
448,192,20050,1,0,0:0:0:0:
192,192,20123,1,0,0:0:0:0:
320,192,20123,1,0,0:0:0:0:
192,192,20196,1,0,0:0:0:0:
448,192,20196,1,0,0:0:0:0:
64,192,20196,1,0,0:0:0:0:
192,192,20270,1,0,0:0:0:0:
320,192,20270,1,0,0:0:0:0:
192,192,20343,1,0,0:0:0:0:
448,192,20343,1,0,0:0:0:0:
192,192,20417,1,0,0:0:0:0:
320,192,20417,1,0,0:0:0:0:
64,192,20417,1,0,0:0:0:0:
192,192,20490,1,0,0:0:0:0:
192,192,20563,1,0,0:0:0:0:
64,192,20563,1,0,0:0:0:0:
448,192,20563,1,0,0:0:0:0:
192,192,20637,1,0,0:0:0:0:
64,192,20637,1,0,0:0:0:0:
448,192,20637,1,0,0:0:0:0:
192,192,20710,1,0,0:0:0:0:
64,192,20710,1,0,0:0:0:0:
448,192,20710,1,0,0:0:0:0:
448,192,20784,1,0,0:0:0:0:
448,192,20857,1,0,0:0:0:0:
448,192,20930,1,0,0:0:0:0:
448,192,21004,1,0,0:0:0:0:
448,192,21077,1,0,0:0:0:0:
448,192,21151,1,0,0:0:0:0:
448,192,21224,1,0,0:0:0:0:
448,192,21297,1,0,0:0:0:0:
448,192,21371,1,0,0:0:0:0:
448,192,21444,1,0,0:0:0:0:
64,192,21444,1,0,0:0:0:0:
448,192,21517,1,0,0:0:0:0:
448,192,21591,1,0,0:0:0:0:
448,192,21664,1,0,0:0:0:0:
448,192,21738,1,0,0:0:0:0:
192,192,21738,1,0,0:0:0:0:
448,192,21811,1,0,0:0:0:0:
320,192,21884,1,0,0:0:0:0:
448,192,21884,1,0,0:0:0:0:
64,192,21884,1,0,0:0:0:0:
448,192,21958,1,0,0:0:0:0:
448,192,22031,1,0,0:0:0:0:
448,192,22105,1,0,0:0:0:0:
448,192,22178,1,0,0:0:0:0:
448,192,22251,1,0,0:0:0:0:
448,192,22325,1,0,0:0:0:0:
448,192,22398,1,0,0:0:0:0:
448,192,22471,1,0,0:0:0:0:
448,192,22545,1,0,0:0:0:0:
448,192,22618,1,0,0:0:0:0:
192,192,22618,1,0,0:0:0:0:
448,192,22692,1,0,0:0:0:0:
448,192,22765,1,0,0:0:0:0:
448,192,22838,1,0,0:0:0:0:
448,192,22912,1,0,0:0:0:0:
320,192,22912,1,0,0:0:0:0:
448,192,22985,1,0,0:0:0:0:
448,192,23059,1,0,0:0:0:0:
192,192,23059,1,0,0:0:0:0:
64,192,23059,1,0,0:0:0:0:
448,192,23132,1,0,0:0:0:0:
448,192,23205,1,0,0:0:0:0:
448,192,23279,1,0,0:0:0:0:
448,192,23352,1,0,0:0:0:0:
448,192,23425,1,0,0:0:0:0:
448,192,23499,1,0,0:0:0:0:
448,192,23572,1,0,0:0:0:0:
448,192,23646,1,0,0:0:0:0:
448,192,23719,1,0,0:0:0:0:
448,192,23792,1,0,0:0:0:0:
320,192,23792,1,0,0:0:0:0:
448,192,23866,1,0,0:0:0:0:
448,192,23939,1,0,0:0:0:0:
448,192,24013,1,0,0:0:0:0:
448,192,24086,1,0,0:0:0:0:
64,192,24086,1,0,0:0:0:0:
448,192,24159,1,0,0:0:0:0:
448,192,24233,1,0,0:0:0:0:
192,192,24233,1,0,0:0:0:0:
320,192,24233,1,0,0:0:0:0:
448,192,24306,1,0,0:0:0:0:
448,192,24379,1,0,0:0:0:0:
448,192,24453,1,0,0:0:0:0:
448,192,24526,1,0,0:0:0:0:
320,192,24526,1,0,0:0:0:0:
448,192,24600,1,0,0:0:0:0:
448,192,24673,1,0,0:0:0:0:
448,192,24746,1,0,0:0:0:0:
448,192,24820,1,0,0:0:0:0:
192,192,24820,1,0,0:0:0:0:
448,192,24893,1,0,0:0:0:0:
64,192,24967,1,0,0:0:0:0:
448,192,24967,1,0,0:0:0:0:
448,192,25040,1,0,0:0:0:0:
320,192,25113,1,0,0:0:0:0:
448,192,25113,1,0,0:0:0:0:
448,192,25187,1,0,0:0:0:0:
448,192,25260,1,0,0:0:0:0:
448,192,25333,1,0,0:0:0:0:
448,192,25407,1,0,0:0:0:0:
320,192,25407,1,0,0:0:0:0:
64,192,25407,1,0,0:0:0:0:
448,192,25480,1,0,0:0:0:0:
448,192,25554,1,0,0:0:0:0:
448,192,25627,1,0,0:0:0:0:
448,192,25700,1,0,0:0:0:0:
448,192,25774,1,0,0:0:0:0:
448,192,25847,1,0,0:0:0:0:
448,192,25921,1,0,0:0:0:0:
448,192,25994,1,0,0:0:0:0:
448,192,26067,1,0,0:0:0:0:
448,192,26141,1,0,0:0:0:0:
192,192,26141,1,0,0:0:0:0:
448,192,26214,1,0,0:0:0:0:
448,192,26287,1,0,0:0:0:0:
448,192,26361,1,0,0:0:0:0:
448,192,26434,1,0,0:0:0:0:
192,192,26434,1,0,0:0:0:0:
448,192,26508,1,0,0:0:0:0:
448,192,26581,1,0,0:0:0:0:
64,192,26581,1,0,0:0:0:0:
320,192,26581,1,0,0:0:0:0:
448,192,26654,1,0,0:0:0:0:
448,192,26728,1,0,0:0:0:0:
448,192,26801,1,0,0:0:0:0:
448,192,26875,1,0,0:0:0:0:
448,192,26948,1,0,0:0:0:0:
448,192,27021,1,0,0:0:0:0:
448,192,27095,1,0,0:0:0:0:
448,192,27168,1,0,0:0:0:0:
448,192,27242,1,0,0:0:0:0:
448,192,27315,1,0,0:0:0:0:
320,192,27315,1,0,0:0:0:0:
448,192,27388,1,0,0:0:0:0:
448,192,27462,1,0,0:0:0:0:
448,192,27535,1,0,0:0:0:0:
192,192,27608,1,0,0:0:0:0:
448,192,27608,1,0,0:0:0:0:
448,192,27682,1,0,0:0:0:0:
64,192,27755,1,0,0:0:0:0:
192,192,27755,1,0,0:0:0:0:
448,192,27755,1,0,0:0:0:0:
448,192,27829,1,0,0:0:0:0:
448,192,27902,1,0,0:0:0:0:
448,192,27975,1,0,0:0:0:0:
448,192,28049,1,0,0:0:0:0:
448,192,28122,1,0,0:0:0:0:
448,192,28196,1,0,0:0:0:0:
448,192,28269,1,0,0:0:0:0:
448,192,28342,1,0,0:0:0:0:
320,192,28342,1,0,0:0:0:0:
192,192,28342,1,0,0:0:0:0:
448,192,28416,1,0,0:0:0:0:
448,192,28489,1,0,0:0:0:0:
448,192,28562,1,0,0:0:0:0:
448,192,28636,1,0,0:0:0:0:
448,192,28709,1,0,0:0:0:0:
448,192,28783,1,0,0:0:0:0:
320,192,28783,1,0,0:0:0:0:
448,192,28856,1,0,0:0:0:0:
192,192,28856,1,0,0:0:0:0:
448,192,28929,1,0,0:0:0:0:
64,192,28929,1,0,0:0:0:0:
448,192,29003,1,0,0:0:0:0:
192,192,29003,1,0,0:0:0:0:
448,192,29076,1,0,0:0:0:0:
320,192,29076,1,0,0:0:0:0:
448,192,29150,1,0,0:0:0:0:
192,192,29150,1,0,0:0:0:0:
448,192,29223,1,0,0:0:0:0:
64,192,29223,1,0,0:0:0:0:
448,192,29296,1,0,0:0:0:0:
192,192,29296,1,0,0:0:0:0:
448,192,29370,1,0,0:0:0:0:
320,192,29370,1,0,0:0:0:0:
448,192,29443,1,0,0:0:0:0:
192,192,29443,1,0,0:0:0:0:
448,192,29516,1,0,0:0:0:0:
64,192,29516,1,0,0:0:0:0:
448,192,29590,1,0,0:0:0:0:
192,192,29590,1,0,0:0:0:0:
448,192,29663,1,0,0:0:0:0:
320,192,29663,1,0,0:0:0:0:
448,192,29737,1,0,0:0:0:0:
192,192,29737,1,0,0:0:0:0:
448,192,29810,1,0,0:0:0:0:
64,192,29810,1,0,0:0:0:0:
448,192,29883,1,0,0:0:0:0:
192,192,29883,1,0,0:0:0:0:
448,192,29957,1,0,0:0:0:0:
320,192,29957,1,0,0:0:0:0:
448,192,30030,1,0,0:0:0:0:
192,192,30030,1,0,0:0:0:0:
448,192,30104,1,0,0:0:0:0:
64,192,30104,1,0,0:0:0:0:
64,192,30177,1,0,0:0:0:0:
64,192,30250,1,0,0:0:0:0:
64,192,30324,1,0,0:0:0:0:
64,192,30397,1,0,0:0:0:0:
64,192,30470,1,0,0:0:0:0:
64,192,30544,1,0,0:0:0:0:
64,192,30617,1,0,0:0:0:0:
64,192,30691,1,0,0:0:0:0:
64,192,30764,1,0,0:0:0:0:
64,192,30837,1,0,0:0:0:0:
192,192,30837,1,0,0:0:0:0:
64,192,30911,1,0,0:0:0:0:
64,192,30984,1,0,0:0:0:0:
64,192,31058,1,0,0:0:0:0:
64,192,31131,1,0,0:0:0:0:
192,192,31131,1,0,0:0:0:0:
64,192,31204,1,0,0:0:0:0:
64,192,31278,1,0,0:0:0:0:
192,192,31278,1,0,0:0:0:0:
320,192,31278,1,0,0:0:0:0:
64,192,31351,1,0,0:0:0:0:
64,192,31424,1,0,0:0:0:0:
64,192,31498,1,0,0:0:0:0:
64,192,31571,1,0,0:0:0:0:
64,192,31645,1,0,0:0:0:0:
64,192,31718,1,0,0:0:0:0:
64,192,31791,1,0,0:0:0:0:
64,192,31865,1,0,0:0:0:0:
64,192,31938,1,0,0:0:0:0:
64,192,32012,1,0,0:0:0:0:
320,192,32012,1,0,0:0:0:0:
64,192,32085,1,0,0:0:0:0:
64,192,32158,1,0,0:0:0:0:
64,192,32232,1,0,0:0:0:0:
64,192,32305,1,0,0:0:0:0:
320,192,32305,1,0,0:0:0:0:
64,192,32378,1,0,0:0:0:0:
64,192,32452,1,0,0:0:0:0:
448,192,32452,1,0,0:0:0:0:
192,192,32452,1,0,0:0:0:0:
64,192,32525,1,0,0:0:0:0:
64,192,32599,1,0,0:0:0:0:
64,192,32672,1,0,0:0:0:0:
64,192,32745,1,0,0:0:0:0:
64,192,32819,1,0,0:0:0:0:
64,192,32892,1,0,0:0:0:0:
64,192,32966,1,0,0:0:0:0:
64,192,33039,1,0,0:0:0:0:
64,192,33112,1,0,0:0:0:0:
64,192,33186,1,0,0:0:0:0:
448,192,33186,1,0,0:0:0:0:
64,192,33259,1,0,0:0:0:0:
64,192,33333,1,0,0:0:0:0:
64,192,33406,1,0,0:0:0:0:
64,192,33479,1,0,0:0:0:0:
448,192,33479,1,0,0:0:0:0:
64,192,33553,1,0,0:0:0:0:
64,192,33626,1,0,0:0:0:0:
448,192,33626,1,0,0:0:0:0:
320,192,33626,1,0,0:0:0:0:
64,192,33699,1,0,0:0:0:0:
64,192,33773,1,0,0:0:0:0:
64,192,33846,1,0,0:0:0:0:
64,192,33920,1,0,0:0:0:0:
448,192,33920,1,0,0:0:0:0:
192,192,33920,1,0,0:0:0:0:
64,192,33993,1,0,0:0:0:0:
64,192,34066,1,0,0:0:0:0:
64,192,34140,1,0,0:0:0:0:
64,192,34213,1,0,0:0:0:0:
320,192,34213,1,0,0:0:0:0:
192,192,34213,1,0,0:0:0:0:
64,192,34287,1,0,0:0:0:0:
64,192,34360,1,0,0:0:0:0:
448,192,34360,1,0,0:0:0:0:
64,192,34433,1,0,0:0:0:0:
64,192,34507,1,0,0:0:0:0:
64,192,34580,1,0,0:0:0:0:
64,192,34653,1,0,0:0:0:0:
64,192,34727,1,0,0:0:0:0:
192,192,34800,1,0,0:0:0:0:
64,192,34800,1,0,0:0:0:0:
192,192,34874,1,0,0:0:0:0:
192,192,34947,1,0,0:0:0:0:
192,192,35020,1,0,0:0:0:0:
192,192,35094,1,0,0:0:0:0:
192,192,35167,1,0,0:0:0:0:
192,192,35241,1,0,0:0:0:0:
192,192,35314,1,0,0:0:0:0:
192,192,35387,1,0,0:0:0:0:
192,192,35461,1,0,0:0:0:0:
192,192,35534,1,0,0:0:0:0:
448,192,35534,1,0,0:0:0:0:
192,192,35607,1,0,0:0:0:0:
192,192,35681,1,0,0:0:0:0:
192,192,35754,1,0,0:0:0:0:
192,192,35828,1,0,0:0:0:0:
448,192,35828,1,0,0:0:0:0:
192,192,35901,1,0,0:0:0:0:
192,192,35974,1,0,0:0:0:0:
448,192,35974,1,0,0:0:0:0:
64,192,35974,1,0,0:0:0:0:
192,192,36048,1,0,0:0:0:0:
192,192,36121,1,0,0:0:0:0:
192,192,36195,1,0,0:0:0:0:
192,192,36268,1,0,0:0:0:0:
192,192,36341,1,0,0:0:0:0:
192,192,36415,1,0,0:0:0:0:
192,192,36488,1,0,0:0:0:0:
192,192,36561,1,0,0:0:0:0:
192,192,36635,1,0,0:0:0:0:
192,192,36708,1,0,0:0:0:0:
448,192,36708,1,0,0:0:0:0:
192,192,36782,1,0,0:0:0:0:
192,192,36855,1,0,0:0:0:0:
192,192,36928,1,0,0:0:0:0:
192,192,37002,1,0,0:0:0:0:
448,192,37002,1,0,0:0:0:0:
192,192,37075,1,0,0:0:0:0:
192,192,37149,1,0,0:0:0:0:
64,192,37149,1,0,0:0:0:0:
448,192,37149,1,0,0:0:0:0:
192,192,37222,1,0,0:0:0:0:
192,192,37295,1,0,0:0:0:0:
192,192,37369,1,0,0:0:0:0:
192,192,37442,1,0,0:0:0:0:
192,192,37515,1,0,0:0:0:0:
192,192,37589,1,0,0:0:0:0:
192,192,37662,1,0,0:0:0:0:
192,192,37736,1,0,0:0:0:0:
448,192,37736,1,0,0:0:0:0:
64,192,37736,1,0,0:0:0:0:
192,192,37809,1,0,0:0:0:0:
192,192,37882,1,0,0:0:0:0:
192,192,37956,1,0,0:0:0:0:
192,192,38029,1,0,0:0:0:0:
192,192,38103,1,0,0:0:0:0:
192,192,38176,1,0,0:0:0:0:
448,192,38176,1,0,0:0:0:0:
192,192,38249,1,0,0:0:0:0:
320,192,38249,1,0,0:0:0:0:
192,192,38323,1,0,0:0:0:0:
64,192,38323,1,0,0:0:0:0:
192,192,38396,1,0,0:0:0:0:
320,192,38396,1,0,0:0:0:0:
192,192,38469,1,0,0:0:0:0:
448,192,38469,1,0,0:0:0:0:
192,192,38543,1,0,0:0:0:0:
320,192,38543,1,0,0:0:0:0:
192,192,38616,1,0,0:0:0:0:
64,192,38616,1,0,0:0:0:0:
192,192,38690,1,0,0:0:0:0:
320,192,38690,1,0,0:0:0:0:
192,192,38763,1,0,0:0:0:0:
448,192,38763,1,0,0:0:0:0:
192,192,38836,1,0,0:0:0:0:
320,192,38836,1,0,0:0:0:0:
192,192,38910,1,0,0:0:0:0:
64,192,38910,1,0,0:0:0:0:
192,192,38983,1,0,0:0:0:0:
320,192,38983,1,0,0:0:0:0:
192,192,39057,1,0,0:0:0:0:
448,192,39057,1,0,0:0:0:0:
192,192,39130,1,0,0:0:0:0:
320,192,39130,1,0,0:0:0:0:
192,192,39203,1,0,0:0:0:0:
64,192,39203,1,0,0:0:0:0:
192,192,39277,1,0,0:0:0:0:
320,192,39277,1,0,0:0:0:0:
192,192,39350,1,0,0:0:0:0:
448,192,39350,1,0,0:0:0:0:
192,192,39423,1,0,0:0:0:0:
320,192,39423,1,0,0:0:0:0:
64,192,39497,1,0,0:0:0:0:
448,192,39497,1,0,0:0:0:0:
192,192,39497,1,0,0:0:0:0:
320,192,39497,1,0,0:0:0:0:
192,192,39644,1,0,0:0:0:0:
192,192,39717,1,0,0:0:0:0:
192,192,39790,1,0,0:0:0:0:
320,192,39790,1,0,0:0:0:0:
448,192,39790,1,0,0:0:0:0:
64,192,39790,1,0,0:0:0:0:
448,192,39864,1,0,0:0:0:0:
448,192,40011,1,0,0:0:0:0:
320,192,40084,1,0,0:0:0:0:
192,192,40084,1,0,0:0:0:0:
64,192,40084,1,0,0:0:0:0:
448,192,40084,1,0,0:0:0:0:
448,192,40157,1,0,0:0:0:0:
448,192,40304,1,0,0:0:0:0:
448,192,40378,1,0,0:0:0:0:
64,192,40378,1,0,0:0:0:0:
320,192,40378,1,0,0:0:0:0:
192,192,40378,1,0,0:0:0:0:
64,192,40451,1,0,0:0:0:0:
448,192,40524,1,0,0:0:0:0:
448,192,40598,1,0,0:0:0:0:
448,192,40671,1,0,0:0:0:0:
320,192,40671,1,0,0:0:0:0:
192,192,40671,1,0,0:0:0:0:
64,192,40671,1,0,0:0:0:0:
192,192,40818,1,0,0:0:0:0:
192,192,40891,1,0,0:0:0:0:
192,192,40965,1,0,0:0:0:0:
64,192,40965,1,0,0:0:0:0:
320,192,40965,1,0,0:0:0:0:
448,192,40965,1,0,0:0:0:0:
64,192,41038,1,0,0:0:0:0:
192,192,41185,1,0,0:0:0:0:
64,192,41258,1,0,0:0:0:0:
192,192,41258,1,0,0:0:0:0:
320,192,41258,1,0,0:0:0:0:
448,192,41258,1,0,0:0:0:0:
320,192,41332,1,0,0:0:0:0:
448,192,41478,1,0,0:0:0:0:
192,192,41552,1,0,0:0:0:0:
320,192,41552,1,0,0:0:0:0:
64,192,41552,1,0,0:0:0:0:
448,192,41552,1,0,0:0:0:0:
192,192,41625,1,0,0:0:0:0:
320,192,41698,1,0,0:0:0:0:
320,192,41772,1,0,0:0:0:0:
320,192,41845,1,0,0:0:0:0:
192,192,41845,1,0,0:0:0:0:
448,192,41845,1,0,0:0:0:0:
64,192,41845,1,0,0:0:0:0:
320,192,41992,1,0,0:0:0:0:
320,192,42065,1,0,0:0:0:0:
320,192,42139,1,0,0:0:0:0:
192,192,42139,1,0,0:0:0:0:
64,192,42139,1,0,0:0:0:0:
448,192,42139,1,0,0:0:0:0:
320,192,42212,1,0,0:0:0:0:
320,192,42359,1,0,0:0:0:0:
320,192,42432,1,0,0:0:0:0:
448,192,42432,1,0,0:0:0:0:
192,192,42432,1,0,0:0:0:0:
64,192,42432,1,0,0:0:0:0:
448,192,42506,1,0,0:0:0:0:
320,192,42579,1,0,0:0:0:0:
320,192,42652,1,0,0:0:0:0:
192,192,42726,1,0,0:0:0:0:
448,192,42726,1,0,0:0:0:0:
64,192,42726,1,0,0:0:0:0:
320,192,42726,1,0,0:0:0:0:
192,192,42799,1,0,0:0:0:0:
64,192,42873,1,0,0:0:0:0:
64,192,42946,1,0,0:0:0:0:
192,192,43019,1,0,0:0:0:0:
448,192,43019,1,0,0:0:0:0:
320,192,43019,1,0,0:0:0:0:
64,192,43019,1,0,0:0:0:0:
192,192,43166,1,0,0:0:0:0:
192,192,43240,1,0,0:0:0:0:
192,192,43313,1,0,0:0:0:0:
64,192,43313,1,0,0:0:0:0:
448,192,43313,1,0,0:0:0:0:
320,192,43313,1,0,0:0:0:0:
192,192,43386,1,0,0:0:0:0:
448,192,43533,1,0,0:0:0:0:
192,192,43606,1,0,0:0:0:0:
64,192,43606,1,0,0:0:0:0:
320,192,43606,1,0,0:0:0:0:
448,192,43606,1,0,0:0:0:0:
320,192,43680,1,0,0:0:0:0:
192,192,43827,1,0,0:0:0:0:
192,192,43900,1,0,0:0:0:0:
64,192,43900,1,0,0:0:0:0:
448,192,43900,1,0,0:0:0:0:
320,192,43900,1,0,0:0:0:0:
64,192,44047,1,0,0:0:0:0:
64,192,44120,1,0,0:0:0:0:
448,192,44194,1,0,0:0:0:0:
64,192,44194,1,0,0:0:0:0:
320,192,44194,1,0,0:0:0:0:
192,192,44194,1,0,0:0:0:0:
320,192,44340,1,0,0:0:0:0:
320,192,44414,1,0,0:0:0:0:
320,192,44487,1,0,0:0:0:0:
192,192,44487,1,0,0:0:0:0:
64,192,44487,1,0,0:0:0:0:
448,192,44487,1,0,0:0:0:0:
64,192,44560,1,0,0:0:0:0:
64,192,44707,1,0,0:0:0:0:
192,192,44781,1,0,0:0:0:0:
320,192,44781,1,0,0:0:0:0:
448,192,44781,1,0,0:0:0:0:
64,192,44781,1,0,0:0:0:0:
64,192,44854,1,0,0:0:0:0:
64,192,45001,1,0,0:0:0:0:
64,192,45074,1,0,0:0:0:0:
448,192,45074,1,0,0:0:0:0:
192,192,45074,1,0,0:0:0:0:
320,192,45074,1,0,0:0:0:0:
448,192,45148,1,0,0:0:0:0:
64,192,45221,1,0,0:0:0:0:
64,192,45294,1,0,0:0:0:0:
64,192,45368,1,0,0:0:0:0:
192,192,45368,1,0,0:0:0:0:
320,192,45368,1,0,0:0:0:0:
448,192,45368,1,0,0:0:0:0:
320,192,45514,1,0,0:0:0:0:
320,192,45588,1,0,0:0:0:0:
320,192,45661,1,0,0:0:0:0:
448,192,45661,1,0,0:0:0:0:
192,192,45661,1,0,0:0:0:0:
64,192,45661,1,0,0:0:0:0:
448,192,45735,1,0,0:0:0:0:
320,192,45881,1,0,0:0:0:0:
448,192,45955,1,0,0:0:0:0:
320,192,45955,1,0,0:0:0:0:
192,192,45955,1,0,0:0:0:0:
64,192,45955,1,0,0:0:0:0:
192,192,46028,1,0,0:0:0:0:
64,192,46175,1,0,0:0:0:0:
320,192,46248,1,0,0:0:0:0:
192,192,46248,1,0,0:0:0:0:
448,192,46248,1,0,0:0:0:0:
64,192,46248,1,0,0:0:0:0:
320,192,46322,1,0,0:0:0:0:
192,192,46395,1,0,0:0:0:0:
192,192,46469,1,0,0:0:0:0:
192,192,46542,1,0,0:0:0:0:
320,192,46542,1,0,0:0:0:0:
64,192,46542,1,0,0:0:0:0:
448,192,46542,1,0,0:0:0:0:
192,192,46689,1,0,0:0:0:0:
192,192,46762,1,0,0:0:0:0:
192,192,46835,1,0,0:0:0:0:
320,192,46835,1,0,0:0:0:0:
448,192,46835,1,0,0:0:0:0:
64,192,46835,1,0,0:0:0:0:
192,192,46909,1,0,0:0:0:0:
192,192,47056,1,0,0:0:0:0:
192,192,47129,1,0,0:0:0:0:
64,192,47129,1,0,0:0:0:0:
320,192,47129,1,0,0:0:0:0:
448,192,47129,1,0,0:0:0:0:
64,192,47202,1,0,0:0:0:0:
192,192,47276,1,0,0:0:0:0:
192,192,47349,1,0,0:0:0:0:
320,192,47423,1,0,0:0:0:0:
64,192,47423,1,0,0:0:0:0:
448,192,47423,1,0,0:0:0:0:
192,192,47423,1,0,0:0:0:0:
320,192,47496,1,0,0:0:0:0:
448,192,47569,1,0,0:0:0:0:
448,192,47643,1,0,0:0:0:0:
320,192,47716,1,0,0:0:0:0:
64,192,47716,1,0,0:0:0:0:
192,192,47716,1,0,0:0:0:0:
448,192,47716,1,0,0:0:0:0:
320,192,47863,1,0,0:0:0:0:
320,192,47936,1,0,0:0:0:0:
320,192,48010,1,0,0:0:0:0:
448,192,48010,1,0,0:0:0:0:
64,192,48010,1,0,0:0:0:0:
192,192,48010,1,0,0:0:0:0:
320,192,48083,1,0,0:0:0:0:
64,192,48230,1,0,0:0:0:0:
320,192,48303,1,0,0:0:0:0:
448,192,48303,1,0,0:0:0:0:
192,192,48303,1,0,0:0:0:0:
64,192,48303,1,0,0:0:0:0:
192,192,48377,1,0,0:0:0:0:
320,192,48523,1,0,0:0:0:0:
320,192,48597,1,0,0:0:0:0:
448,192,48597,1,0,0:0:0:0:
64,192,48597,1,0,0:0:0:0:
192,192,48597,1,0,0:0:0:0:
448,192,48743,1,0,0:0:0:0:
448,192,48817,1,0,0:0:0:0:
192,192,48890,1,0,0:0:0:0:
448,192,48890,1,0,0:0:0:0:
64,192,48890,1,0,0:0:0:0:
320,192,48890,1,0,0:0:0:0:
192,192,49037,1,0,0:0:0:0:
192,192,49110,1,0,0:0:0:0:
448,192,49184,1,0,0:0:0:0:
320,192,49184,1,0,0:0:0:0:
192,192,49184,1,0,0:0:0:0:
64,192,49184,1,0,0:0:0:0:
448,192,49257,1,0,0:0:0:0:
448,192,49404,1,0,0:0:0:0:
64,192,49477,1,0,0:0:0:0:
192,192,49477,1,0,0:0:0:0:
320,192,49477,1,0,0:0:0:0:
448,192,49477,1,0,0:0:0:0:
448,192,49551,1,0,0:0:0:0:
448,192,49697,1,0,0:0:0:0:
320,192,49771,1,0,0:0:0:0:
64,192,49771,1,0,0:0:0:0:
448,192,49771,1,0,0:0:0:0:
192,192,49771,1,0,0:0:0:0:
64,192,49844,1,0,0:0:0:0:
448,192,49918,1,0,0:0:0:0:
448,192,49991,1,0,0:0:0:0:
192,192,50064,1,0,0:0:0:0:
320,192,50064,1,0,0:0:0:0:
448,192,50064,1,0,0:0:0:0:
64,192,50064,1,0,0:0:0:0:
192,192,50211,1,0,0:0:0:0:
192,192,50285,1,0,0:0:0:0:
320,192,50358,1,0,0:0:0:0:
64,192,50358,1,0,0:0:0:0:
192,192,50358,1,0,0:0:0:0:
448,192,50358,1,0,0:0:0:0:
64,192,50431,1,0,0:0:0:0:
192,192,50578,1,0,0:0:0:0:
320,192,50651,1,0,0:0:0:0:
192,192,50651,1,0,0:0:0:0:
64,192,50651,1,0,0:0:0:0:
448,192,50651,1,0,0:0:0:0:
320,192,50725,1,0,0:0:0:0:
448,192,50872,1,0,0:0:0:0:
64,192,50945,1,0,0:0:0:0:
320,192,50945,1,0,0:0:0:0:
192,192,50945,1,0,0:0:0:0:
448,192,50945,1,0,0:0:0:0:
192,192,51018,1,0,0:0:0:0:
320,192,51092,1,0,0:0:0:0:
320,192,51165,1,0,0:0:0:0:
448,192,51239,1,0,0:0:0:0:
192,192,51239,1,0,0:0:0:0:
320,192,51239,1,0,0:0:0:0:
64,192,51239,1,0,0:0:0:0:
320,192,51385,1,0,0:0:0:0:
320,192,51459,1,0,0:0:0:0:
64,192,51532,1,0,0:0:0:0:
192,192,51532,1,0,0:0:0:0:
320,192,51532,1,0,0:0:0:0:
448,192,51532,1,0,0:0:0:0:
320,192,51605,1,0,0:0:0:0:
320,192,51752,1,0,0:0:0:0:
192,192,51826,1,0,0:0:0:0:
448,192,51826,1,0,0:0:0:0:
320,192,51826,1,0,0:0:0:0:
64,192,51826,1,0,0:0:0:0:
448,192,51899,1,0,0:0:0:0:
320,192,51972,1,0,0:0:0:0:
320,192,52046,1,0,0:0:0:0:
64,192,52119,1,0,0:0:0:0:
448,192,52119,1,0,0:0:0:0:
192,192,52119,1,0,0:0:0:0:
320,192,52119,1,0,0:0:0:0:
192,192,52193,1,0,0:0:0:0:
64,192,52266,1,0,0:0:0:0:
64,192,52339,1,0,0:0:0:0:
320,192,52413,1,0,0:0:0:0:
448,192,52413,1,0,0:0:0:0:
192,192,52413,1,0,0:0:0:0:
64,192,52413,1,0,0:0:0:0:
192,192,52560,1,0,0:0:0:0:
192,192,52633,1,0,0:0:0:0:
448,192,52706,1,0,0:0:0:0:
64,192,52706,1,0,0:0:0:0:
192,192,52706,1,0,0:0:0:0:
320,192,52706,1,0,0:0:0:0:
192,192,52780,1,0,0:0:0:0:
448,192,52926,1,0,0:0:0:0:
320,192,53000,1,0,0:0:0:0:
64,192,53000,1,0,0:0:0:0:
192,192,53000,1,0,0:0:0:0:
448,192,53000,1,0,0:0:0:0:
320,192,53073,1,0,0:0:0:0:
192,192,53220,1,0,0:0:0:0:
448,192,53293,1,0,0:0:0:0:
64,192,53293,1,0,0:0:0:0:
192,192,53293,1,0,0:0:0:0:
320,192,53293,1,0,0:0:0:0:
64,192,53440,1,0,0:0:0:0:
64,192,53514,1,0,0:0:0:0:
448,192,53587,1,0,0:0:0:0:
64,192,53587,1,0,0:0:0:0:
320,192,53587,1,0,0:0:0:0:
192,192,53587,1,0,0:0:0:0:
320,192,53734,1,0,0:0:0:0:
320,192,53807,1,0,0:0:0:0:
320,192,53880,1,0,0:0:0:0:
192,192,53880,1,0,0:0:0:0:
64,192,53880,1,0,0:0:0:0:
448,192,53880,1,0,0:0:0:0:
64,192,53954,1,0,0:0:0:0:
64,192,54101,1,0,0:0:0:0:
192,192,54174,1,0,0:0:0:0:
320,192,54174,1,0,0:0:0:0:
448,192,54174,1,0,0:0:0:0:
64,192,54174,1,0,0:0:0:0:
64,192,54247,1,0,0:0:0:0:
64,192,54394,1,0,0:0:0:0:
64,192,54468,1,0,0:0:0:0:
448,192,54468,1,0,0:0:0:0:
192,192,54468,1,0,0:0:0:0:
320,192,54468,1,0,0:0:0:0:
448,192,54541,1,0,0:0:0:0:
64,192,54614,1,0,0:0:0:0:
64,192,54688,1,0,0:0:0:0:
64,192,54761,1,0,0:0:0:0:
192,192,54761,1,0,0:0:0:0:
320,192,54761,1,0,0:0:0:0:
448,192,54761,1,0,0:0:0:0:
320,192,54908,1,0,0:0:0:0:
320,192,54981,1,0,0:0:0:0:
320,192,55055,1,0,0:0:0:0:
448,192,55055,1,0,0:0:0:0:
192,192,55055,1,0,0:0:0:0:
64,192,55055,1,0,0:0:0:0:
448,192,55128,1,0,0:0:0:0:
320,192,55275,1,0,0:0:0:0:
448,192,55348,1,0,0:0:0:0:
320,192,55348,1,0,0:0:0:0:
192,192,55348,1,0,0:0:0:0:
64,192,55348,1,0,0:0:0:0:
192,192,55422,1,0,0:0:0:0:
64,192,55568,1,0,0:0:0:0:
320,192,55642,1,0,0:0:0:0:
192,192,55642,1,0,0:0:0:0:
448,192,55642,1,0,0:0:0:0:
64,192,55642,1,0,0:0:0:0:
320,192,55715,1,0,0:0:0:0:
192,192,55788,1,0,0:0:0:0:
192,192,55862,1,0,0:0:0:0:
192,192,55935,1,0,0:0:0:0:
320,192,55935,1,0,0:0:0:0:
64,192,55935,1,0,0:0:0:0:
448,192,55935,1,0,0:0:0:0:
192,192,56082,1,0,0:0:0:0:
192,192,56155,1,0,0:0:0:0:
192,192,56229,1,0,0:0:0:0:
320,192,56229,1,0,0:0:0:0:
448,192,56229,1,0,0:0:0:0:
64,192,56229,1,0,0:0:0:0:
192,192,56302,1,0,0:0:0:0:
192,192,56449,1,0,0:0:0:0:
192,192,56522,1,0,0:0:0:0:
64,192,56522,1,0,0:0:0:0:
320,192,56522,1,0,0:0:0:0:
448,192,56522,1,0,0:0:0:0:
64,192,56596,1,0,0:0:0:0:
192,192,56669,1,0,0:0:0:0:
192,192,56742,1,0,0:0:0:0:
320,192,56816,1,0,0:0:0:0:
64,192,56816,1,0,0:0:0:0:
448,192,56816,1,0,0:0:0:0:
192,192,56816,1,0,0:0:0:0:
320,192,56889,1,0,0:0:0:0:
448,192,56963,1,0,0:0:0:0:
448,192,57036,1,0,0:0:0:0:
320,192,57109,1,0,0:0:0:0:
64,192,57109,1,0,0:0:0:0:
192,192,57109,1,0,0:0:0:0:
448,192,57109,1,0,0:0:0:0:
320,192,57256,1,0,0:0:0:0:
320,192,57330,1,0,0:0:0:0:
320,192,57403,1,0,0:0:0:0:
448,192,57403,1,0,0:0:0:0:
64,192,57403,1,0,0:0:0:0:
192,192,57403,1,0,0:0:0:0:
320,192,57476,1,0,0:0:0:0:
64,192,57623,1,0,0:0:0:0:
320,192,57696,1,0,0:0:0:0:
448,192,57696,1,0,0:0:0:0:
192,192,57696,1,0,0:0:0:0:
64,192,57696,1,0,0:0:0:0:
192,192,57770,1,0,0:0:0:0:
320,192,57917,1,0,0:0:0:0:
320,192,57990,1,0,0:0:0:0:
448,192,57990,1,0,0:0:0:0:
64,192,57990,1,0,0:0:0:0:
192,192,57990,1,0,0:0:0:0:
448,192,58137,1,0,0:0:0:0:
448,192,58210,1,0,0:0:0:0:
448,192,58284,1,0,0:0:0:0:
64,192,58284,1,0,0:0:0:0:
320,192,58284,1,0,0:0:0:0:
192,192,58284,1,0,0:0:0:0:
64,192,58357,1,0,0:0:0:0:
64,192,58430,1,0,0:0:0:0:
64,192,58504,1,0,0:0:0:0:
64,192,58577,1,0,0:0:0:0:
320,192,58577,1,0,0:0:0:0:
64,192,58651,1,0,0:0:0:0:
64,192,58724,1,0,0:0:0:0:
64,192,58797,1,0,0:0:0:0:
64,192,58871,1,0,0:0:0:0:
448,192,58871,1,0,0:0:0:0:
64,192,58944,1,0,0:0:0:0:
64,192,59017,1,0,0:0:0:0:
64,192,59091,1,0,0:0:0:0:
64,192,59164,1,0,0:0:0:0:
448,192,59164,1,0,0:0:0:0:
64,192,59238,1,0,0:0:0:0:
64,192,59311,1,0,0:0:0:0:
192,192,59311,1,0,0:0:0:0:
64,192,59384,1,0,0:0:0:0:
64,192,59458,1,0,0:0:0:0:
64,192,59531,1,0,0:0:0:0:
64,192,59605,1,0,0:0:0:0:
192,192,59605,1,0,0:0:0:0:
64,192,59678,1,0,0:0:0:0:
64,192,59751,1,0,0:0:0:0:
64,192,59825,1,0,0:0:0:0:
64,192,59898,1,0,0:0:0:0:
192,192,59898,1,0,0:0:0:0:
64,192,59971,1,0,0:0:0:0:
64,192,60045,1,0,0:0:0:0:
320,192,60045,1,0,0:0:0:0:
64,192,60118,1,0,0:0:0:0:
64,192,60192,1,0,0:0:0:0:
448,192,60192,1,0,0:0:0:0:
64,192,60265,1,0,0:0:0:0:
64,192,60338,1,0,0:0:0:0:
320,192,60338,1,0,0:0:0:0:
64,192,60412,1,0,0:0:0:0:
64,192,60485,1,0,0:0:0:0:
64,192,60559,1,0,0:0:0:0:
64,192,60632,1,0,0:0:0:0:
320,192,60632,1,0,0:0:0:0:
192,192,60632,1,0,0:0:0:0:
320,192,60705,1,0,0:0:0:0:
320,192,60779,1,0,0:0:0:0:
320,192,60852,1,0,0:0:0:0:
320,192,60925,1,0,0:0:0:0:
64,192,60925,1,0,0:0:0:0:
320,192,60999,1,0,0:0:0:0:
320,192,61072,1,0,0:0:0:0:
320,192,61146,1,0,0:0:0:0:
320,192,61219,1,0,0:0:0:0:
448,192,61219,1,0,0:0:0:0:
320,192,61292,1,0,0:0:0:0:
320,192,61366,1,0,0:0:0:0:
320,192,61439,1,0,0:0:0:0:
320,192,61513,1,0,0:0:0:0:
448,192,61513,1,0,0:0:0:0:
320,192,61586,1,0,0:0:0:0:
320,192,61659,1,0,0:0:0:0:
64,192,61659,1,0,0:0:0:0:
320,192,61733,1,0,0:0:0:0:
320,192,61806,1,0,0:0:0:0:
320,192,61879,1,0,0:0:0:0:
320,192,61953,1,0,0:0:0:0:
64,192,61953,1,0,0:0:0:0:
320,192,62026,1,0,0:0:0:0:
320,192,62100,1,0,0:0:0:0:
320,192,62173,1,0,0:0:0:0:
320,192,62246,1,0,0:0:0:0:
64,192,62246,1,0,0:0:0:0:
320,192,62320,1,0,0:0:0:0:
320,192,62393,1,0,0:0:0:0:
192,192,62393,1,0,0:0:0:0:
320,192,62467,1,0,0:0:0:0:
320,192,62540,1,0,0:0:0:0:
448,192,62540,1,0,0:0:0:0:
320,192,62613,1,0,0:0:0:0:
320,192,62687,1,0,0:0:0:0:
192,192,62687,1,0,0:0:0:0:
320,192,62760,1,0,0:0:0:0:
320,192,62833,1,0,0:0:0:0:
320,192,62907,1,0,0:0:0:0:
320,192,62980,1,0,0:0:0:0:
64,192,62980,1,0,0:0:0:0:
192,192,62980,1,0,0:0:0:0:
64,192,63274,1,0,0:0:0:0:
192,192,63567,1,0,0:0:0:0:
192,192,63861,1,0,0:0:0:0:
320,192,64008,1,0,0:0:0:0:
320,192,64301,1,0,0:0:0:0:
320,192,64595,1,0,0:0:0:0:
448,192,64742,1,0,0:0:0:0:
64,192,64888,1,0,0:0:0:0:
192,192,65035,1,0,0:0:0:0:
448,192,65329,1,0,0:0:0:0:
192,192,65622,1,0,0:0:0:0:
320,192,65916,1,0,0:0:0:0:
64,192,66209,1,0,0:0:0:0:
192,192,66356,1,0,0:0:0:0:
320,192,66503,1,0,0:0:0:0:
448,192,66503,1,0,0:0:0:0:
192,192,66650,1,0,0:0:0:0:
64,192,66796,1,0,0:0:0:0:
320,192,66943,1,0,0:0:0:0:
192,192,67090,1,0,0:0:0:0:
448,192,67237,1,0,0:0:0:0:
320,192,67383,1,0,0:0:0:0:
64,192,67530,1,0,0:0:0:0:
448,192,67530,1,0,0:0:0:0:
64,192,67604,1,0,0:0:0:0:
448,192,67604,1,0,0:0:0:0:
64,192,67677,1,0,0:0:0:0:
320,192,67677,1,0,0:0:0:0:
448,192,67677,1,0,0:0:0:0:
320,192,67750,1,0,0:0:0:0:
320,192,67824,1,0,0:0:0:0:
192,192,67824,1,0,0:0:0:0:
448,192,67970,1,0,0:0:0:0:
448,192,68044,1,0,0:0:0:0:
448,192,68117,1,0,0:0:0:0:
320,192,68117,1,0,0:0:0:0:
320,192,68264,1,0,0:0:0:0:
320,192,68337,1,0,0:0:0:0:
320,192,68411,1,0,0:0:0:0:
192,192,68411,1,0,0:0:0:0:
64,192,68558,1,0,0:0:0:0:
64,192,68631,1,0,0:0:0:0:
64,192,68704,1,0,0:0:0:0:
192,192,68704,1,0,0:0:0:0:
192,192,68851,1,0,0:0:0:0:
192,192,68924,1,0,0:0:0:0:
192,192,68998,1,0,0:0:0:0:
320,192,68998,1,0,0:0:0:0:
320,192,69145,1,0,0:0:0:0:
320,192,69218,1,0,0:0:0:0:
320,192,69291,1,0,0:0:0:0:
448,192,69291,1,0,0:0:0:0:
448,192,69438,1,0,0:0:0:0:
448,192,69512,1,0,0:0:0:0:
448,192,69585,1,0,0:0:0:0:
320,192,69585,1,0,0:0:0:0:
192,192,69732,1,0,0:0:0:0:
192,192,69805,1,0,0:0:0:0:
192,192,69878,1,0,0:0:0:0:
320,192,69878,1,0,0:0:0:0:
320,192,70025,1,0,0:0:0:0:
320,192,70099,1,0,0:0:0:0:
320,192,70172,1,0,0:0:0:0:
192,192,70172,1,0,0:0:0:0:
64,192,70319,1,0,0:0:0:0:
64,192,70392,1,0,0:0:0:0:
64,192,70466,1,0,0:0:0:0:
192,192,70466,1,0,0:0:0:0:
320,192,70612,1,0,0:0:0:0:
320,192,70686,1,0,0:0:0:0:
320,192,70759,1,0,0:0:0:0:
448,192,70759,1,0,0:0:0:0:
192,192,70906,1,0,0:0:0:0:
192,192,70979,1,0,0:0:0:0:
192,192,71053,1,0,0:0:0:0:
320,192,71053,1,0,0:0:0:0:
448,192,71199,1,0,0:0:0:0:
448,192,71273,1,0,0:0:0:0:
448,192,71346,1,0,0:0:0:0:
320,192,71346,1,0,0:0:0:0:
320,192,71493,1,0,0:0:0:0:
320,192,71566,1,0,0:0:0:0:
320,192,71640,1,0,0:0:0:0:
192,192,71640,1,0,0:0:0:0:
192,192,71787,1,0,0:0:0:0:
192,192,71860,1,0,0:0:0:0:
192,192,71933,1,0,0:0:0:0:
64,192,71933,1,0,0:0:0:0:
320,192,72080,1,0,0:0:0:0:
320,192,72153,1,0,0:0:0:0:
320,192,72227,1,0,0:0:0:0:
448,192,72227,1,0,0:0:0:0:
64,192,72374,1,0,0:0:0:0:
64,192,72447,1,0,0:0:0:0:
64,192,72520,1,0,0:0:0:0:
192,192,72520,1,0,0:0:0:0:
192,192,72667,1,0,0:0:0:0:
192,192,72741,1,0,0:0:0:0:
192,192,72814,1,0,0:0:0:0:
320,192,72814,1,0,0:0:0:0:
320,192,72961,1,0,0:0:0:0:
320,192,73034,1,0,0:0:0:0:
320,192,73107,1,0,0:0:0:0:
448,192,73107,1,0,0:0:0:0:
192,192,73254,1,0,0:0:0:0:
192,192,73328,1,0,0:0:0:0:
192,192,73401,1,0,0:0:0:0:
320,192,73401,1,0,0:0:0:0:
64,192,73548,1,0,0:0:0:0:
64,192,73621,1,0,0:0:0:0:
64,192,73695,1,0,0:0:0:0:
192,192,73695,1,0,0:0:0:0:
192,192,73841,1,0,0:0:0:0:
192,192,73915,1,0,0:0:0:0:
192,192,73988,1,0,0:0:0:0:
320,192,73988,1,0,0:0:0:0:
64,192,74135,1,0,0:0:0:0:
64,192,74208,1,0,0:0:0:0:
64,192,74282,1,0,0:0:0:0:
192,192,74282,1,0,0:0:0:0:
320,192,74428,1,0,0:0:0:0:
320,192,74502,1,0,0:0:0:0:
320,192,74575,1,0,0:0:0:0:
192,192,74575,1,0,0:0:0:0:
320,192,74722,1,0,0:0:0:0:
320,192,74795,1,0,0:0:0:0:
320,192,74869,1,0,0:0:0:0:
448,192,74869,1,0,0:0:0:0:
192,192,75015,1,0,0:0:0:0:
192,192,75089,1,0,0:0:0:0:
192,192,75162,1,0,0:0:0:0:
320,192,75162,1,0,0:0:0:0:
448,192,75309,1,0,0:0:0:0:
448,192,75382,1,0,0:0:0:0:
448,192,75456,1,0,0:0:0:0:
320,192,75456,1,0,0:0:0:0:
192,192,75603,1,0,0:0:0:0:
192,192,75676,1,0,0:0:0:0:
192,192,75749,1,0,0:0:0:0:
64,192,75749,1,0,0:0:0:0:
320,192,75896,1,0,0:0:0:0:
320,192,75969,1,0,0:0:0:0:
320,192,76043,1,0,0:0:0:0:
320,192,76116,1,0,0:0:0:0:
192,192,76190,1,0,0:0:0:0:
320,192,76190,1,0,0:0:0:0:
192,192,76263,1,0,0:0:0:0:
192,192,76336,1,0,0:0:0:0:
192,192,76410,1,0,0:0:0:0:
192,192,76483,1,0,0:0:0:0:
448,192,76483,1,0,0:0:0:0:
448,192,76557,1,0,0:0:0:0:
448,192,76630,1,0,0:0:0:0:
448,192,76703,1,0,0:0:0:0:
448,192,76777,1,0,0:0:0:0:
64,192,76777,1,0,0:0:0:0:
64,192,76850,1,0,0:0:0:0:
64,192,76923,1,0,0:0:0:0:
64,192,76997,1,0,0:0:0:0:
64,192,77070,1,0,0:0:0:0:
192,192,77070,1,0,0:0:0:0:
448,192,77070,1,0,0:0:0:0:
192,192,81327,5,0,0:0:0:0:
320,192,81327,1,0,0:0:0:0:
320,192,81400,1,0,0:0:0:0:
192,192,81400,1,0,0:0:0:0:
192,192,81473,1,0,0:0:0:0:
320,192,81473,1,0,0:0:0:0:
320,192,81547,1,0,0:0:0:0:
192,192,81547,1,0,0:0:0:0:
192,192,81620,1,0,0:0:0:0:
320,192,81620,1,0,0:0:0:0:
64,192,81767,1,0,0:0:0:0:
192,192,81767,1,0,0:0:0:0:
320,192,81767,1,0,0:0:0:0:
448,192,81767,1,0,0:0:0:0:
448,192,81840,1,0,0:0:0:0:
192,192,81840,1,0,0:0:0:0:
448,192,81914,1,0,0:0:0:0:
64,192,81914,1,0,0:0:0:0:
448,192,81987,1,0,0:0:0:0:
320,192,81987,1,0,0:0:0:0:
448,192,82060,1,0,0:0:0:0:
192,192,82060,1,0,0:0:0:0:
64,192,82060,1,0,0:0:0:0:
448,192,82134,1,0,0:0:0:0:
320,192,82134,1,0,0:0:0:0:
448,192,82207,1,0,0:0:0:0:
64,192,82207,1,0,0:0:0:0:
448,192,82281,1,0,0:0:0:0:
192,192,82281,1,0,0:0:0:0:
448,192,82354,1,0,0:0:0:0:
64,192,82354,1,0,0:0:0:0:
320,192,82354,1,0,0:0:0:0:
448,192,82427,1,0,0:0:0:0:
192,192,82427,1,0,0:0:0:0:
448,192,82501,1,0,0:0:0:0:
320,192,82501,1,0,0:0:0:0:
192,192,82501,1,0,0:0:0:0:
64,192,82501,1,0,0:0:0:0:
448,192,82574,1,0,0:0:0:0:
64,192,82574,1,0,0:0:0:0:
448,192,82648,1,0,0:0:0:0:
320,192,82648,1,0,0:0:0:0:
64,192,82648,1,0,0:0:0:0:
448,192,82721,1,0,0:0:0:0:
64,192,82721,1,0,0:0:0:0:
448,192,82794,1,0,0:0:0:0:
320,192,82794,1,0,0:0:0:0:
192,192,82794,1,0,0:0:0:0:
64,192,82794,1,0,0:0:0:0:
448,192,82868,1,0,0:0:0:0:
192,192,82868,1,0,0:0:0:0:
320,192,82941,1,0,0:0:0:0:
448,192,82941,1,0,0:0:0:0:
64,192,82941,1,0,0:0:0:0:
192,192,82941,1,0,0:0:0:0:
320,192,83014,1,0,0:0:0:0:
192,192,83014,1,0,0:0:0:0:
320,192,83088,1,0,0:0:0:0:
64,192,83088,1,0,0:0:0:0:
320,192,83161,1,0,0:0:0:0:
448,192,83161,1,0,0:0:0:0:
320,192,83235,1,0,0:0:0:0:
192,192,83235,1,0,0:0:0:0:
64,192,83235,1,0,0:0:0:0:
320,192,83308,1,0,0:0:0:0:
448,192,83308,1,0,0:0:0:0:
320,192,83381,1,0,0:0:0:0:
192,192,83381,1,0,0:0:0:0:
320,192,83455,1,0,0:0:0:0:
448,192,83455,1,0,0:0:0:0:
320,192,83528,1,0,0:0:0:0:
64,192,83528,1,0,0:0:0:0:
448,192,83528,1,0,0:0:0:0:
320,192,83602,1,0,0:0:0:0:
192,192,83602,1,0,0:0:0:0:
320,192,83675,1,0,0:0:0:0:
448,192,83675,1,0,0:0:0:0:
192,192,83675,1,0,0:0:0:0:
64,192,83675,1,0,0:0:0:0:
320,192,83748,1,0,0:0:0:0:
64,192,83748,1,0,0:0:0:0:
320,192,83822,1,0,0:0:0:0:
192,192,83822,1,0,0:0:0:0:
448,192,83822,1,0,0:0:0:0:
320,192,83895,1,0,0:0:0:0:
64,192,83895,1,0,0:0:0:0:
320,192,83969,1,0,0:0:0:0:
448,192,83969,1,0,0:0:0:0:
192,192,83969,1,0,0:0:0:0:
64,192,83969,1,0,0:0:0:0:
320,192,84042,1,0,0:0:0:0:
192,192,84042,1,0,0:0:0:0:
320,192,84115,1,0,0:0:0:0:
192,192,84115,1,0,0:0:0:0:
64,192,84115,1,0,0:0:0:0:
448,192,84115,1,0,0:0:0:0:
192,192,84189,1,0,0:0:0:0:
320,192,84189,1,0,0:0:0:0:
192,192,84262,1,0,0:0:0:0:
448,192,84262,1,0,0:0:0:0:
192,192,84335,1,0,0:0:0:0:
320,192,84335,1,0,0:0:0:0:
192,192,84409,1,0,0:0:0:0:
64,192,84409,1,0,0:0:0:0:
448,192,84409,1,0,0:0:0:0:
192,192,84482,1,0,0:0:0:0:
448,192,84482,1,0,0:0:0:0:
192,192,84556,1,0,0:0:0:0:
320,192,84556,1,0,0:0:0:0:
192,192,84629,1,0,0:0:0:0:
64,192,84629,1,0,0:0:0:0:
192,192,84702,1,0,0:0:0:0:
448,192,84702,1,0,0:0:0:0:
320,192,84702,1,0,0:0:0:0:
192,192,84776,1,0,0:0:0:0:
64,192,84776,1,0,0:0:0:0:
192,192,84849,1,0,0:0:0:0:
320,192,84849,1,0,0:0:0:0:
448,192,84849,1,0,0:0:0:0:
64,192,84849,1,0,0:0:0:0:
192,192,84923,1,0,0:0:0:0:
448,192,84923,1,0,0:0:0:0:
192,192,84996,1,0,0:0:0:0:
64,192,84996,1,0,0:0:0:0:
320,192,84996,1,0,0:0:0:0:
192,192,85069,1,0,0:0:0:0:
448,192,85069,1,0,0:0:0:0:
192,192,85143,1,0,0:0:0:0:
64,192,85143,1,0,0:0:0:0:
320,192,85143,1,0,0:0:0:0:
448,192,85143,1,0,0:0:0:0:
192,192,85216,1,0,0:0:0:0:
448,192,85216,1,0,0:0:0:0:
64,192,85289,1,0,0:0:0:0:
192,192,85289,1,0,0:0:0:0:
320,192,85289,1,0,0:0:0:0:
448,192,85289,1,0,0:0:0:0:
64,192,85363,1,0,0:0:0:0:
192,192,85363,1,0,0:0:0:0:
64,192,85436,1,0,0:0:0:0:
320,192,85436,1,0,0:0:0:0:
64,192,85510,1,0,0:0:0:0:
448,192,85510,1,0,0:0:0:0:
64,192,85583,1,0,0:0:0:0:
192,192,85583,1,0,0:0:0:0:
320,192,85583,1,0,0:0:0:0:
448,192,85583,1,0,0:0:0:0:
64,192,85656,1,0,0:0:0:0:
192,192,85656,1,0,0:0:0:0:
64,192,85730,1,0,0:0:0:0:
320,192,85730,1,0,0:0:0:0:
64,192,85803,1,0,0:0:0:0:
448,192,85803,1,0,0:0:0:0:
64,192,85877,1,0,0:0:0:0:
192,192,85877,1,0,0:0:0:0:
320,192,85877,1,0,0:0:0:0:
448,192,85877,1,0,0:0:0:0:
64,192,85950,1,0,0:0:0:0:
320,192,85950,1,0,0:0:0:0:
64,192,86023,1,0,0:0:0:0:
448,192,86023,1,0,0:0:0:0:
320,192,86023,1,0,0:0:0:0:
192,192,86023,1,0,0:0:0:0:
64,192,86097,1,0,0:0:0:0:
448,192,86097,1,0,0:0:0:0:
64,192,86170,1,0,0:0:0:0:
320,192,86170,1,0,0:0:0:0:
192,192,86170,1,0,0:0:0:0:
64,192,86243,1,0,0:0:0:0:
192,192,86243,1,0,0:0:0:0:
64,192,86317,1,0,0:0:0:0:
320,192,86317,1,0,0:0:0:0:
64,192,86390,1,0,0:0:0:0:
192,192,86390,1,0,0:0:0:0:
64,192,86464,1,0,0:0:0:0:
448,192,86464,1,0,0:0:0:0:
320,192,86464,1,0,0:0:0:0:
192,192,86464,1,0,0:0:0:0:
448,192,86537,1,0,0:0:0:0:
192,192,86537,1,0,0:0:0:0:
448,192,86610,1,0,0:0:0:0:
64,192,86610,1,0,0:0:0:0:
448,192,86684,1,0,0:0:0:0:
320,192,86684,1,0,0:0:0:0:
448,192,86757,1,0,0:0:0:0:
192,192,86757,1,0,0:0:0:0:
64,192,86757,1,0,0:0:0:0:
448,192,86831,1,0,0:0:0:0:
320,192,86831,1,0,0:0:0:0:
448,192,86904,1,0,0:0:0:0:
64,192,86904,1,0,0:0:0:0:
448,192,86977,1,0,0:0:0:0:
192,192,86977,1,0,0:0:0:0:
448,192,87051,1,0,0:0:0:0:
64,192,87051,1,0,0:0:0:0:
320,192,87051,1,0,0:0:0:0:
448,192,87124,1,0,0:0:0:0:
448,192,87197,1,0,0:0:0:0:
320,192,87197,1,0,0:0:0:0:
192,192,87197,1,0,0:0:0:0:
64,192,87197,1,0,0:0:0:0:
448,192,87271,1,0,0:0:0:0:
192,192,87271,1,0,0:0:0:0:
448,192,87344,1,0,0:0:0:0:
320,192,87344,1,0,0:0:0:0:
64,192,87344,1,0,0:0:0:0:
448,192,87418,1,0,0:0:0:0:
192,192,87418,1,0,0:0:0:0:
448,192,87491,1,0,0:0:0:0:
64,192,87491,1,0,0:0:0:0:
320,192,87491,1,0,0:0:0:0:
192,192,87491,1,0,0:0:0:0:
448,192,87564,1,0,0:0:0:0:
192,192,87564,1,0,0:0:0:0:
192,192,87638,1,0,0:0:0:0:
64,192,87638,1,0,0:0:0:0:
320,192,87638,1,0,0:0:0:0:
448,192,87638,1,0,0:0:0:0:
320,192,87711,1,0,0:0:0:0:
448,192,87711,1,0,0:0:0:0:
320,192,87785,1,0,0:0:0:0:
192,192,87785,1,0,0:0:0:0:
320,192,87858,1,0,0:0:0:0:
448,192,87858,1,0,0:0:0:0:
320,192,87931,1,0,0:0:0:0:
64,192,87931,1,0,0:0:0:0:
192,192,87931,1,0,0:0:0:0:
320,192,88005,1,0,0:0:0:0:
448,192,88005,1,0,0:0:0:0:
320,192,88078,1,0,0:0:0:0:
192,192,88078,1,0,0:0:0:0:
320,192,88151,1,0,0:0:0:0:
64,192,88151,1,0,0:0:0:0:
320,192,88225,1,0,0:0:0:0:
448,192,88225,1,0,0:0:0:0:
192,192,88225,1,0,0:0:0:0:
320,192,88298,1,0,0:0:0:0:
64,192,88298,1,0,0:0:0:0:
320,192,88372,1,0,0:0:0:0:
192,192,88372,1,0,0:0:0:0:
448,192,88372,1,0,0:0:0:0:
64,192,88372,1,0,0:0:0:0:
320,192,88445,1,0,0:0:0:0:
192,192,88445,1,0,0:0:0:0:
320,192,88518,1,0,0:0:0:0:
64,192,88518,1,0,0:0:0:0:
448,192,88518,1,0,0:0:0:0:
320,192,88592,1,0,0:0:0:0:
448,192,88592,1,0,0:0:0:0:
320,192,88665,1,0,0:0:0:0:
448,192,88665,1,0,0:0:0:0:
192,192,88665,1,0,0:0:0:0:
64,192,88665,1,0,0:0:0:0:
320,192,88739,1,0,0:0:0:0:
192,192,88739,1,0,0:0:0:0:
192,192,88812,1,0,0:0:0:0:
64,192,88812,1,0,0:0:0:0:
320,192,88812,1,0,0:0:0:0:
448,192,88812,1,0,0:0:0:0:
192,192,88885,1,0,0:0:0:0:
320,192,88885,1,0,0:0:0:0:
192,192,88959,1,0,0:0:0:0:
448,192,88959,1,0,0:0:0:0:
192,192,89032,1,0,0:0:0:0:
320,192,89032,1,0,0:0:0:0:
192,192,89105,1,0,0:0:0:0:
64,192,89105,1,0,0:0:0:0:
448,192,89105,1,0,0:0:0:0:
192,192,89179,1,0,0:0:0:0:
320,192,89179,1,0,0:0:0:0:
192,192,89252,1,0,0:0:0:0:
448,192,89252,1,0,0:0:0:0:
192,192,89326,1,0,0:0:0:0:
320,192,89326,1,0,0:0:0:0:
192,192,89399,1,0,0:0:0:0:
320,192,89399,1,0,0:0:0:0:
448,192,89399,1,0,0:0:0:0:
64,192,89399,1,0,0:0:0:0:
192,192,89472,1,0,0:0:0:0:
64,192,89472,1,0,0:0:0:0:
192,192,89546,1,0,0:0:0:0:
320,192,89546,1,0,0:0:0:0:
192,192,89619,1,0,0:0:0:0:
64,192,89619,1,0,0:0:0:0:
192,192,89693,1,0,0:0:0:0:
320,192,89693,1,0,0:0:0:0:
448,192,89693,1,0,0:0:0:0:
192,192,89766,1,0,0:0:0:0:
320,192,89766,1,0,0:0:0:0:
64,192,89839,1,0,0:0:0:0:
192,192,89839,1,0,0:0:0:0:
448,192,89913,1,0,0:0:0:0:
320,192,89913,1,0,0:0:0:0:
64,192,89986,1,0,0:0:0:0:
192,192,89986,1,0,0:0:0:0:
320,192,89986,1,0,0:0:0:0:
448,192,89986,1,0,0:0:0:0:
64,192,90060,1,0,0:0:0:0:
192,192,90060,1,0,0:0:0:0:
320,192,90060,1,0,0:0:0:0:
448,192,90060,1,0,0:0:0:0:
64,192,90133,1,0,0:0:0:0:
192,192,90133,1,0,0:0:0:0:
320,192,90133,1,0,0:0:0:0:
448,192,90133,1,0,0:0:0:0:
64,192,90206,1,0,0:0:0:0:
320,192,90206,1,0,0:0:0:0:
448,192,90206,1,0,0:0:0:0:
192,192,90206,1,0,0:0:0:0:
64,192,90280,1,0,0:0:0:0:
192,192,90280,1,0,0:0:0:0:
320,192,90280,1,0,0:0:0:0:
448,192,90280,1,0,0:0:0:0:
64,192,90353,1,0,0:0:0:0:
448,192,90353,1,0,0:0:0:0:
320,192,90353,1,0,0:0:0:0:
192,192,90353,1,0,0:0:0:0:
64,192,90426,1,0,0:0:0:0:
192,192,90426,1,0,0:0:0:0:
320,192,90426,1,0,0:0:0:0:
448,192,90426,1,0,0:0:0:0:
64,192,90500,1,0,0:0:0:0:
448,192,90500,1,0,0:0:0:0:
320,192,90500,1,0,0:0:0:0:
192,192,90500,1,0,0:0:0:0:
64,192,90573,1,0,0:0:0:0:
192,192,90573,1,0,0:0:0:0:
320,192,90573,1,0,0:0:0:0:
448,192,90573,1,0,0:0:0:0:
64,192,90647,1,0,0:0:0:0:
448,192,90647,1,0,0:0:0:0:
320,192,90647,1,0,0:0:0:0:
192,192,90647,1,0,0:0:0:0:
64,192,90720,1,0,0:0:0:0:
192,192,90720,1,0,0:0:0:0:
320,192,90720,1,0,0:0:0:0:
448,192,90720,1,0,0:0:0:0:
64,192,90793,1,0,0:0:0:0:
448,192,90793,1,0,0:0:0:0:
320,192,90793,1,0,0:0:0:0:
192,192,90793,1,0,0:0:0:0:
64,192,90867,1,0,0:0:0:0:
192,192,90867,1,0,0:0:0:0:
320,192,90867,1,0,0:0:0:0:
448,192,90867,1,0,0:0:0:0:
64,192,90940,1,0,0:0:0:0:
320,192,90940,1,0,0:0:0:0:
192,192,90940,1,0,0:0:0:0:
448,192,90940,1,0,0:0:0:0:
64,192,91014,1,0,0:0:0:0:
448,192,91014,1,0,0:0:0:0:
320,192,91014,1,0,0:0:0:0:
192,192,91014,1,0,0:0:0:0:
64,192,91087,1,0,0:0:0:0:
192,192,91087,1,0,0:0:0:0:
320,192,91087,1,0,0:0:0:0:
448,192,91087,1,0,0:0:0:0:
64,192,91160,1,0,0:0:0:0:
192,192,91160,1,0,0:0:0:0:
320,192,91160,1,0,0:0:0:0:
448,192,91160,1,0,0:0:0:0:
448,192,91234,1,0,0:0:0:0:
192,192,91234,1,0,0:0:0:0:
448,192,91307,1,0,0:0:0:0:
64,192,91307,1,0,0:0:0:0:
448,192,91380,1,0,0:0:0:0:
320,192,91380,1,0,0:0:0:0:
448,192,91454,1,0,0:0:0:0:
192,192,91454,1,0,0:0:0:0:
64,192,91454,1,0,0:0:0:0:
448,192,91527,1,0,0:0:0:0:
320,192,91527,1,0,0:0:0:0:
448,192,91601,1,0,0:0:0:0:
64,192,91601,1,0,0:0:0:0:
448,192,91674,1,0,0:0:0:0:
192,192,91674,1,0,0:0:0:0:
448,192,91747,1,0,0:0:0:0:
64,192,91747,1,0,0:0:0:0:
320,192,91747,1,0,0:0:0:0:
448,192,91821,1,0,0:0:0:0:
192,192,91821,1,0,0:0:0:0:
448,192,91894,1,0,0:0:0:0:
320,192,91894,1,0,0:0:0:0:
192,192,91894,1,0,0:0:0:0:
64,192,91894,1,0,0:0:0:0:
448,192,91968,1,0,0:0:0:0:
64,192,91968,1,0,0:0:0:0:
448,192,92041,1,0,0:0:0:0:
320,192,92041,1,0,0:0:0:0:
64,192,92041,1,0,0:0:0:0:
448,192,92114,1,0,0:0:0:0:
64,192,92114,1,0,0:0:0:0:
448,192,92188,1,0,0:0:0:0:
320,192,92188,1,0,0:0:0:0:
192,192,92188,1,0,0:0:0:0:
64,192,92188,1,0,0:0:0:0:
448,192,92261,1,0,0:0:0:0:
192,192,92261,1,0,0:0:0:0:
320,192,92334,1,0,0:0:0:0:
448,192,92334,1,0,0:0:0:0:
64,192,92334,1,0,0:0:0:0:
192,192,92334,1,0,0:0:0:0:
320,192,92408,1,0,0:0:0:0:
192,192,92408,1,0,0:0:0:0:
320,192,92481,1,0,0:0:0:0:
64,192,92481,1,0,0:0:0:0:
320,192,92555,1,0,0:0:0:0:
448,192,92555,1,0,0:0:0:0:
320,192,92628,1,0,0:0:0:0:
192,192,92628,1,0,0:0:0:0:
64,192,92628,1,0,0:0:0:0:
320,192,92701,1,0,0:0:0:0:
448,192,92701,1,0,0:0:0:0:
320,192,92775,1,0,0:0:0:0:
192,192,92775,1,0,0:0:0:0:
320,192,92848,1,0,0:0:0:0:
448,192,92848,1,0,0:0:0:0:
320,192,92922,1,0,0:0:0:0:
64,192,92922,1,0,0:0:0:0:
448,192,92922,1,0,0:0:0:0:
320,192,92995,1,0,0:0:0:0:
192,192,92995,1,0,0:0:0:0:
320,192,93068,1,0,0:0:0:0:
448,192,93068,1,0,0:0:0:0:
192,192,93068,1,0,0:0:0:0:
64,192,93068,1,0,0:0:0:0:
320,192,93142,1,0,0:0:0:0:
64,192,93142,1,0,0:0:0:0:
320,192,93215,1,0,0:0:0:0:
192,192,93215,1,0,0:0:0:0:
448,192,93215,1,0,0:0:0:0:
320,192,93288,1,0,0:0:0:0:
64,192,93288,1,0,0:0:0:0:
320,192,93362,1,0,0:0:0:0:
448,192,93362,1,0,0:0:0:0:
192,192,93362,1,0,0:0:0:0:
64,192,93362,1,0,0:0:0:0:
320,192,93435,1,0,0:0:0:0:
192,192,93435,1,0,0:0:0:0:
320,192,93509,1,0,0:0:0:0:
192,192,93509,1,0,0:0:0:0:
64,192,93509,1,0,0:0:0:0:
448,192,93509,1,0,0:0:0:0:
192,192,93582,1,0,0:0:0:0:
320,192,93582,1,0,0:0:0:0:
192,192,93655,1,0,0:0:0:0:
448,192,93655,1,0,0:0:0:0:
192,192,93729,1,0,0:0:0:0:
320,192,93729,1,0,0:0:0:0:
192,192,93802,1,0,0:0:0:0:
64,192,93802,1,0,0:0:0:0:
448,192,93802,1,0,0:0:0:0:
192,192,93876,1,0,0:0:0:0:
448,192,93876,1,0,0:0:0:0:
192,192,93949,1,0,0:0:0:0:
320,192,93949,1,0,0:0:0:0:
192,192,94022,1,0,0:0:0:0:
64,192,94022,1,0,0:0:0:0:
192,192,94096,1,0,0:0:0:0:
448,192,94096,1,0,0:0:0:0:
320,192,94096,1,0,0:0:0:0:
192,192,94169,1,0,0:0:0:0:
64,192,94169,1,0,0:0:0:0:
192,192,94242,1,0,0:0:0:0:
320,192,94242,1,0,0:0:0:0:
448,192,94242,1,0,0:0:0:0:
64,192,94242,1,0,0:0:0:0:
192,192,94316,1,0,0:0:0:0:
448,192,94316,1,0,0:0:0:0:
192,192,94389,1,0,0:0:0:0:
64,192,94389,1,0,0:0:0:0:
320,192,94389,1,0,0:0:0:0:
192,192,94463,1,0,0:0:0:0:
448,192,94463,1,0,0:0:0:0:
192,192,94536,1,0,0:0:0:0:
64,192,94536,1,0,0:0:0:0:
320,192,94536,1,0,0:0:0:0:
448,192,94536,1,0,0:0:0:0:
192,192,94609,1,0,0:0:0:0:
448,192,94609,1,0,0:0:0:0:
64,192,94683,1,0,0:0:0:0:
192,192,94683,1,0,0:0:0:0:
320,192,94683,1,0,0:0:0:0:
448,192,94683,1,0,0:0:0:0:
64,192,94756,1,0,0:0:0:0:
192,192,94756,1,0,0:0:0:0:
64,192,94830,1,0,0:0:0:0:
320,192,94830,1,0,0:0:0:0:
64,192,94903,1,0,0:0:0:0:
448,192,94903,1,0,0:0:0:0:
64,192,94976,1,0,0:0:0:0:
192,192,94976,1,0,0:0:0:0:
320,192,94976,1,0,0:0:0:0:
448,192,94976,1,0,0:0:0:0:
64,192,95050,1,0,0:0:0:0:
192,192,95050,1,0,0:0:0:0:
64,192,95123,1,0,0:0:0:0:
320,192,95123,1,0,0:0:0:0:
64,192,95196,1,0,0:0:0:0:
448,192,95196,1,0,0:0:0:0:
64,192,95270,1,0,0:0:0:0:
192,192,95270,1,0,0:0:0:0:
320,192,95270,1,0,0:0:0:0:
448,192,95270,1,0,0:0:0:0:
64,192,95343,1,0,0:0:0:0:
320,192,95343,1,0,0:0:0:0:
64,192,95417,1,0,0:0:0:0:
448,192,95417,1,0,0:0:0:0:
320,192,95417,1,0,0:0:0:0:
192,192,95417,1,0,0:0:0:0:
64,192,95490,1,0,0:0:0:0:
448,192,95490,1,0,0:0:0:0:
64,192,95563,1,0,0:0:0:0:
320,192,95563,1,0,0:0:0:0:
192,192,95563,1,0,0:0:0:0:
64,192,95637,1,0,0:0:0:0:
192,192,95637,1,0,0:0:0:0:
64,192,95710,1,0,0:0:0:0:
320,192,95710,1,0,0:0:0:0:
64,192,95784,1,0,0:0:0:0:
192,192,95784,1,0,0:0:0:0:
64,192,95857,1,0,0:0:0:0:
448,192,95857,1,0,0:0:0:0:
320,192,95857,1,0,0:0:0:0:
192,192,95857,1,0,0:0:0:0:
448,192,95930,1,0,0:0:0:0:
192,192,95930,1,0,0:0:0:0:
448,192,96004,1,0,0:0:0:0:
64,192,96004,1,0,0:0:0:0:
448,192,96077,1,0,0:0:0:0:
320,192,96077,1,0,0:0:0:0:
448,192,96151,1,0,0:0:0:0:
192,192,96151,1,0,0:0:0:0:
64,192,96151,1,0,0:0:0:0:
448,192,96224,1,0,0:0:0:0:
320,192,96224,1,0,0:0:0:0:
448,192,96297,1,0,0:0:0:0:
64,192,96297,1,0,0:0:0:0:
448,192,96371,1,0,0:0:0:0:
192,192,96371,1,0,0:0:0:0:
448,192,96444,1,0,0:0:0:0:
64,192,96444,1,0,0:0:0:0:
320,192,96444,1,0,0:0:0:0:
448,192,96517,1,0,0:0:0:0:
448,192,96591,1,0,0:0:0:0:
320,192,96591,1,0,0:0:0:0:
192,192,96591,1,0,0:0:0:0:
64,192,96591,1,0,0:0:0:0:
448,192,96664,1,0,0:0:0:0:
192,192,96664,1,0,0:0:0:0:
448,192,96738,1,0,0:0:0:0:
320,192,96738,1,0,0:0:0:0:
64,192,96738,1,0,0:0:0:0:
448,192,96811,1,0,0:0:0:0:
192,192,96811,1,0,0:0:0:0:
448,192,96884,1,0,0:0:0:0:
64,192,96884,1,0,0:0:0:0:
320,192,96884,1,0,0:0:0:0:
192,192,96884,1,0,0:0:0:0:
448,192,96958,1,0,0:0:0:0:
192,192,96958,1,0,0:0:0:0:
192,192,97031,1,0,0:0:0:0:
64,192,97031,1,0,0:0:0:0:
320,192,97031,1,0,0:0:0:0:
448,192,97031,1,0,0:0:0:0:
320,192,97105,1,0,0:0:0:0:
448,192,97105,1,0,0:0:0:0:
320,192,97178,1,0,0:0:0:0:
192,192,97178,1,0,0:0:0:0:
320,192,97251,1,0,0:0:0:0:
448,192,97251,1,0,0:0:0:0:
320,192,97325,1,0,0:0:0:0:
64,192,97325,1,0,0:0:0:0:
192,192,97325,1,0,0:0:0:0:
320,192,97398,1,0,0:0:0:0:
448,192,97398,1,0,0:0:0:0:
320,192,97471,1,0,0:0:0:0:
192,192,97471,1,0,0:0:0:0:
320,192,97545,1,0,0:0:0:0:
64,192,97545,1,0,0:0:0:0:
320,192,97618,1,0,0:0:0:0:
448,192,97618,1,0,0:0:0:0:
192,192,97618,1,0,0:0:0:0:
320,192,97692,1,0,0:0:0:0:
64,192,97692,1,0,0:0:0:0:
320,192,97765,1,0,0:0:0:0:
192,192,97765,1,0,0:0:0:0:
448,192,97765,1,0,0:0:0:0:
64,192,97765,1,0,0:0:0:0:
320,192,97838,1,0,0:0:0:0:
192,192,97838,1,0,0:0:0:0:
320,192,97912,1,0,0:0:0:0:
64,192,97912,1,0,0:0:0:0:
448,192,97912,1,0,0:0:0:0:
320,192,97985,1,0,0:0:0:0:
448,192,97985,1,0,0:0:0:0:
320,192,98059,1,0,0:0:0:0:
448,192,98059,1,0,0:0:0:0:
192,192,98059,1,0,0:0:0:0:
64,192,98059,1,0,0:0:0:0:
320,192,98132,1,0,0:0:0:0:
192,192,98132,1,0,0:0:0:0:
192,192,98205,1,0,0:0:0:0:
64,192,98205,1,0,0:0:0:0:
320,192,98205,1,0,0:0:0:0:
448,192,98205,1,0,0:0:0:0:
192,192,98279,1,0,0:0:0:0:
320,192,98279,1,0,0:0:0:0:
192,192,98352,1,0,0:0:0:0:
448,192,98352,1,0,0:0:0:0:
192,192,98425,1,0,0:0:0:0:
320,192,98425,1,0,0:0:0:0:
192,192,98499,1,0,0:0:0:0:
64,192,98499,1,0,0:0:0:0:
448,192,98499,1,0,0:0:0:0:
192,192,98572,1,0,0:0:0:0:
320,192,98572,1,0,0:0:0:0:
192,192,98646,1,0,0:0:0:0:
448,192,98646,1,0,0:0:0:0:
192,192,98719,1,0,0:0:0:0:
320,192,98719,1,0,0:0:0:0:
192,192,98792,1,0,0:0:0:0:
320,192,98792,1,0,0:0:0:0:
448,192,98792,1,0,0:0:0:0:
64,192,98792,1,0,0:0:0:0:
192,192,98866,1,0,0:0:0:0:
64,192,98866,1,0,0:0:0:0:
192,192,98939,1,0,0:0:0:0:
320,192,98939,1,0,0:0:0:0:
192,192,99013,1,0,0:0:0:0:
64,192,99013,1,0,0:0:0:0:
192,192,99086,1,0,0:0:0:0:
320,192,99086,1,0,0:0:0:0:
448,192,99086,1,0,0:0:0:0:
192,192,99159,1,0,0:0:0:0:
320,192,99159,1,0,0:0:0:0:
320,192,99233,1,0,0:0:0:0:
448,192,99233,1,0,0:0:0:0:
192,192,99306,1,0,0:0:0:0:
64,192,99306,1,0,0:0:0:0:
64,192,99379,1,0,0:0:0:0:
192,192,99379,1,0,0:0:0:0:
320,192,99379,1,0,0:0:0:0:
448,192,99379,1,0,0:0:0:0:
64,192,99453,1,0,0:0:0:0:
192,192,99453,1,0,0:0:0:0:
320,192,99453,1,0,0:0:0:0:
448,192,99453,1,0,0:0:0:0:
64,192,99526,1,0,0:0:0:0:
192,192,99526,1,0,0:0:0:0:
320,192,99526,1,0,0:0:0:0:
448,192,99526,1,0,0:0:0:0:
64,192,99600,1,0,0:0:0:0:
320,192,99600,1,0,0:0:0:0:
448,192,99600,1,0,0:0:0:0:
192,192,99600,1,0,0:0:0:0:
64,192,99673,1,0,0:0:0:0:
192,192,99673,1,0,0:0:0:0:
320,192,99673,1,0,0:0:0:0:
448,192,99673,1,0,0:0:0:0:
64,192,99746,1,0,0:0:0:0:
448,192,99746,1,0,0:0:0:0:
320,192,99746,1,0,0:0:0:0:
192,192,99746,1,0,0:0:0:0:
64,192,99820,1,0,0:0:0:0:
192,192,99820,1,0,0:0:0:0:
320,192,99820,1,0,0:0:0:0:
448,192,99820,1,0,0:0:0:0:
64,192,99893,1,0,0:0:0:0:
448,192,99893,1,0,0:0:0:0:
320,192,99893,1,0,0:0:0:0:
192,192,99893,1,0,0:0:0:0:
64,192,99967,1,0,0:0:0:0:
192,192,99967,1,0,0:0:0:0:
320,192,99967,1,0,0:0:0:0:
448,192,99967,1,0,0:0:0:0:
64,192,100040,1,0,0:0:0:0:
448,192,100040,1,0,0:0:0:0:
320,192,100040,1,0,0:0:0:0:
192,192,100040,1,0,0:0:0:0:
64,192,100113,1,0,0:0:0:0:
192,192,100113,1,0,0:0:0:0:
320,192,100113,1,0,0:0:0:0:
448,192,100113,1,0,0:0:0:0:
64,192,100187,1,0,0:0:0:0:
448,192,100187,1,0,0:0:0:0:
320,192,100187,1,0,0:0:0:0:
192,192,100187,1,0,0:0:0:0:
64,192,100260,1,0,0:0:0:0:
192,192,100260,1,0,0:0:0:0:
320,192,100260,1,0,0:0:0:0:
448,192,100260,1,0,0:0:0:0:
64,192,100333,1,0,0:0:0:0:
320,192,100333,1,0,0:0:0:0:
192,192,100333,1,0,0:0:0:0:
448,192,100333,1,0,0:0:0:0:
64,192,100407,1,0,0:0:0:0:
448,192,100407,1,0,0:0:0:0:
320,192,100407,1,0,0:0:0:0:
192,192,100407,1,0,0:0:0:0:
64,192,100480,1,0,0:0:0:0:
192,192,100480,1,0,0:0:0:0:
320,192,100480,1,0,0:0:0:0:
448,192,100480,1,0,0:0:0:0:
320,192,100554,1,0,0:0:0:0:
192,192,100554,1,0,0:0:0:0:
64,192,100554,1,0,0:0:0:0:
320,192,100627,1,0,0:0:0:0:
320,192,100700,1,0,0:0:0:0:
448,192,100700,1,0,0:0:0:0:
320,192,100774,1,0,0:0:0:0:
320,192,100847,1,0,0:0:0:0:
64,192,100847,1,0,0:0:0:0:
192,192,100847,1,0,0:0:0:0:
320,192,100921,1,0,0:0:0:0:
320,192,100994,1,0,0:0:0:0:
64,192,100994,1,0,0:0:0:0:
320,192,101067,1,0,0:0:0:0:
320,192,101141,1,0,0:0:0:0:
448,192,101141,1,0,0:0:0:0:
192,192,101141,1,0,0:0:0:0:
320,192,101214,1,0,0:0:0:0:
320,192,101287,1,0,0:0:0:0:
64,192,101287,1,0,0:0:0:0:
320,192,101361,1,0,0:0:0:0:
320,192,101434,1,0,0:0:0:0:
192,192,101434,1,0,0:0:0:0:
448,192,101434,1,0,0:0:0:0:
320,192,101508,1,0,0:0:0:0:
320,192,101581,1,0,0:0:0:0:
192,192,101581,1,0,0:0:0:0:
320,192,101654,1,0,0:0:0:0:
320,192,101728,1,0,0:0:0:0:
192,192,101728,1,0,0:0:0:0:
448,192,101728,1,0,0:0:0:0:
192,192,101801,1,0,0:0:0:0:
192,192,101875,1,0,0:0:0:0:
64,192,101875,1,0,0:0:0:0:
192,192,101948,1,0,0:0:0:0:
192,192,102021,1,0,0:0:0:0:
320,192,102021,1,0,0:0:0:0:
448,192,102021,1,0,0:0:0:0:
192,192,102095,1,0,0:0:0:0:
192,192,102168,1,0,0:0:0:0:
320,192,102168,1,0,0:0:0:0:
192,192,102242,1,0,0:0:0:0:
192,192,102315,1,0,0:0:0:0:
64,192,102315,1,0,0:0:0:0:
320,192,102315,1,0,0:0:0:0:
192,192,102388,1,0,0:0:0:0:
192,192,102462,1,0,0:0:0:0:
448,192,102462,1,0,0:0:0:0:
192,192,102535,1,0,0:0:0:0:
192,192,102608,1,0,0:0:0:0:
320,192,102608,1,0,0:0:0:0:
64,192,102608,1,0,0:0:0:0:
192,192,102682,1,0,0:0:0:0:
192,192,102755,1,0,0:0:0:0:
64,192,102755,1,0,0:0:0:0:
192,192,102829,1,0,0:0:0:0:
192,192,102902,1,0,0:0:0:0:
320,192,102902,1,0,0:0:0:0:
448,192,102902,1,0,0:0:0:0:
320,192,102975,1,0,0:0:0:0:
320,192,103049,1,0,0:0:0:0:
192,192,103049,1,0,0:0:0:0:
320,192,103122,1,0,0:0:0:0:
320,192,103196,1,0,0:0:0:0:
192,192,103196,1,0,0:0:0:0:
448,192,103196,1,0,0:0:0:0:
320,192,103269,1,0,0:0:0:0:
320,192,103342,1,0,0:0:0:0:
448,192,103342,1,0,0:0:0:0:
320,192,103416,1,0,0:0:0:0:
320,192,103489,1,0,0:0:0:0:
448,192,103489,1,0,0:0:0:0:
192,192,103489,1,0,0:0:0:0:
320,192,103562,1,0,0:0:0:0:
320,192,103636,1,0,0:0:0:0:
64,192,103636,1,0,0:0:0:0:
320,192,103709,1,0,0:0:0:0:
320,192,103783,1,0,0:0:0:0:
448,192,103783,1,0,0:0:0:0:
192,192,103783,1,0,0:0:0:0:
320,192,103856,1,0,0:0:0:0:
320,192,103929,1,0,0:0:0:0:
64,192,103929,1,0,0:0:0:0:
320,192,104003,1,0,0:0:0:0:
320,192,104076,1,0,0:0:0:0:
192,192,104076,1,0,0:0:0:0:
64,192,104076,1,0,0:0:0:0:
192,192,104150,1,0,0:0:0:0:
192,192,104223,1,0,0:0:0:0:
448,192,104223,1,0,0:0:0:0:
192,192,104296,1,0,0:0:0:0:
192,192,104370,1,0,0:0:0:0:
64,192,104370,1,0,0:0:0:0:
448,192,104370,1,0,0:0:0:0:
192,192,104443,1,0,0:0:0:0:
192,192,104516,1,0,0:0:0:0:
320,192,104516,1,0,0:0:0:0:
192,192,104590,1,0,0:0:0:0:
192,192,104663,1,0,0:0:0:0:
64,192,104663,1,0,0:0:0:0:
448,192,104663,1,0,0:0:0:0:
192,192,104737,1,0,0:0:0:0:
192,192,104810,1,0,0:0:0:0:
64,192,104810,1,0,0:0:0:0:
192,192,104883,1,0,0:0:0:0:
192,192,104957,1,0,0:0:0:0:
320,192,104957,1,0,0:0:0:0:
448,192,104957,1,0,0:0:0:0:
192,192,105030,1,0,0:0:0:0:
192,192,105104,1,0,0:0:0:0:
64,192,105104,1,0,0:0:0:0:
192,192,105177,1,0,0:0:0:0:
192,192,105250,1,0,0:0:0:0:
448,192,105250,1,0,0:0:0:0:
320,192,105250,1,0,0:0:0:0:
64,192,105250,1,0,0:0:0:0:
192,192,105324,1,0,0:0:0:0:
320,192,105397,1,0,0:0:0:0:
448,192,105470,1,0,0:0:0:0:
64,192,105544,1,0,0:0:0:0:
192,192,105544,1,0,0:0:0:0:
192,192,105617,1,0,0:0:0:0:
320,192,105691,1,0,0:0:0:0:
448,192,105764,1,0,0:0:0:0:
448,192,105837,1,0,0:0:0:0:
320,192,105911,1,0,0:0:0:0:
192,192,105984,1,0,0:0:0:0:
64,192,106058,1,0,0:0:0:0:
448,192,106131,1,0,0:0:0:0:
320,192,106131,1,0,0:0:0:0:
320,192,106204,1,0,0:0:0:0:
192,192,106278,1,0,0:0:0:0:
64,192,106351,1,0,0:0:0:0:
64,192,106424,1,0,0:0:0:0:
192,192,106498,1,0,0:0:0:0:
320,192,106571,1,0,0:0:0:0:
448,192,106645,1,0,0:0:0:0:
64,192,106718,1,0,0:0:0:0:
192,192,106718,1,0,0:0:0:0:
192,192,106791,1,0,0:0:0:0:
320,192,106865,1,0,0:0:0:0:
448,192,106938,1,0,0:0:0:0:
448,192,107012,1,0,0:0:0:0:
320,192,107085,1,0,0:0:0:0:
192,192,107158,1,0,0:0:0:0:
320,192,107158,1,0,0:0:0:0:
64,192,107232,1,0,0:0:0:0:
448,192,107305,1,0,0:0:0:0:
320,192,107305,1,0,0:0:0:0:
320,192,107378,1,0,0:0:0:0:
192,192,107452,1,0,0:0:0:0:
64,192,107525,1,0,0:0:0:0:
64,192,107599,1,0,0:0:0:0:
192,192,107672,1,0,0:0:0:0:
320,192,107745,1,0,0:0:0:0:
448,192,107819,1,0,0:0:0:0:
64,192,107892,1,0,0:0:0:0:
192,192,107892,1,0,0:0:0:0:
192,192,107966,1,0,0:0:0:0:
320,192,108039,1,0,0:0:0:0:
448,192,108112,1,0,0:0:0:0:
448,192,108186,1,0,0:0:0:0:
320,192,108259,1,0,0:0:0:0:
192,192,108333,1,0,0:0:0:0:
64,192,108406,1,0,0:0:0:0:
448,192,108479,1,0,0:0:0:0:
320,192,108479,1,0,0:0:0:0:
320,192,108553,1,0,0:0:0:0:
192,192,108626,1,0,0:0:0:0:
64,192,108699,1,0,0:0:0:0:
64,192,108773,1,0,0:0:0:0:
320,192,108773,1,0,0:0:0:0:
192,192,108846,1,0,0:0:0:0:
320,192,108920,1,0,0:0:0:0:
448,192,108993,1,0,0:0:0:0:
64,192,109066,1,0,0:0:0:0:
320,192,109066,1,0,0:0:0:0:
192,192,109140,1,0,0:0:0:0:
320,192,109213,1,0,0:0:0:0:
448,192,109287,1,0,0:0:0:0:
64,192,109360,1,0,0:0:0:0:
320,192,109360,1,0,0:0:0:0:
192,192,109433,1,0,0:0:0:0:
448,192,109507,1,0,0:0:0:0:
320,192,109580,1,0,0:0:0:0:
64,192,109653,1,0,0:0:0:0:
448,192,109653,1,0,0:0:0:0:
192,192,109727,1,0,0:0:0:0:
448,192,109800,1,0,0:0:0:0:
320,192,109874,1,0,0:0:0:0:
192,192,109947,1,0,0:0:0:0:
