osu file format v14

[General]
AudioFilename: angel_1.3.mp3
AudioLeadIn: 0
PreviewTime: -1
Countdown: 0
SampleSet: None
StackLeniency: 0.7
Mode: 3
LetterboxInBreaks: 0
SpecialStyle: 0
WidescreenStoryboard: 0

[Editor]
Bookmarks: 2732,9307,15882,22458,29033,35608,42184,48759,55334,61910,81636,88211,94786,107937,114512,121088,127663
DistanceSpacing: 1
BeatDivisor: 4
GridSize: 4
TimelineZoom: 2.1

[Metadata]
Title:angelic_layer
TitleUnicode:angelic_layer
Artist:Shiki
ArtistUnicode:Shiki
Creator:fufu-
Version:1.3
Source:
Tags:
BeatmapID:1415203
BeatmapSetID:669058

[Difficulty]
HPDrainRate:8
CircleSize:4
OverallDifficulty:9.3
ApproachRate:5
SliderMultiplier:1.4
SliderTickRate:1

[Events]
//Background and Video events
0,0,"title.jpg",0,0
//Break Periods
//Storyboard Layer 0 (Background)
//Storyboard Layer 1 (Fail)
//Storyboard Layer 2 (Pass)
//Storyboard Layer 3 (Foreground)
//Storyboard Sound Samples

[TimingPoints]
2099,316.122233930453,4,3,0,25,1,0

[HitObjects]
64,192,2099,5,4,0:0:0:0:
192,192,2099,1,0,0:0:0:0:
320,192,2099,1,0,0:0:0:0:
448,192,2099,1,0,0:0:0:0:
64,192,2178,1,0,0:0:0:0:
64,192,2257,1,2,0:0:0:0:
192,192,2257,1,0,0:0:0:0:
64,192,2336,1,0,0:0:0:0:
64,192,2415,1,8,0:0:0:0:
320,192,2415,1,0,0:0:0:0:
448,192,2415,1,0,0:0:0:0:
64,192,2494,1,0,0:0:0:0:
64,192,2573,1,2,0:0:0:0:
192,192,2573,1,0,0:0:0:0:
64,192,2652,1,0,0:0:0:0:
64,192,2731,1,8,0:0:0:0:
192,192,2731,1,0,0:0:0:0:
320,192,2731,1,0,0:0:0:0:
64,192,2810,1,0,0:0:0:0:
64,192,2889,1,2,0:0:0:0:
448,192,2889,1,0,0:0:0:0:
64,192,2968,1,0,0:0:0:0:
64,192,3047,1,8,0:0:0:0:
192,192,3047,1,0,0:0:0:0:
448,192,3047,1,0,0:0:0:0:
64,192,3126,1,0,0:0:0:0:
64,192,3205,1,2,0:0:0:0:
320,192,3205,1,0,0:0:0:0:
64,192,3284,1,0,0:0:0:0:
64,192,3363,1,8,0:0:0:0:
192,192,3363,1,0,0:0:0:0:
320,192,3363,1,0,0:0:0:0:
64,192,3442,1,0,0:0:0:0:
64,192,3521,1,2,0:0:0:0:
192,192,3521,1,0,0:0:0:0:
64,192,3600,1,0,0:0:0:0:
64,192,3679,1,8,0:0:0:0:
320,192,3679,1,0,0:0:0:0:
448,192,3679,1,0,0:0:0:0:
64,192,3758,1,0,0:0:0:0:
64,192,3837,1,2,0:0:0:0:
448,192,3837,1,0,0:0:0:0:
64,192,3916,1,0,0:0:0:0:
64,192,3995,1,8,0:0:0:0:
192,192,3995,1,0,0:0:0:0:
320,192,3995,1,0,0:0:0:0:
64,192,4074,1,0,0:0:0:0:
448,192,4074,1,0,0:0:0:0:
64,192,4153,1,2,0:0:0:0:
320,192,4153,1,0,0:0:0:0:
192,192,4153,1,0,0:0:0:0:
64,192,4232,1,0,0:0:0:0:
64,192,4311,1,8,0:0:0:0:
192,192,4311,1,0,0:0:0:0:
448,192,4311,1,0,0:0:0:0:
64,192,4390,1,0,0:0:0:0:
64,192,4469,1,2,0:0:0:0:
320,192,4469,1,0,0:0:0:0:
64,192,4548,1,0,0:0:0:0:
64,192,4627,1,8,0:0:0:0:
192,192,4627,1,0,0:0:0:0:
448,192,4627,1,0,0:0:0:0:
64,192,4707,1,0,0:0:0:0:
64,192,4786,1,2,0:0:0:0:
192,192,4786,1,0,0:0:0:0:
64,192,4865,1,0,0:0:0:0:
64,192,4944,1,8,0:0:0:0:
320,192,4944,1,0,0:0:0:0:
448,192,4944,1,0,0:0:0:0:
64,192,5023,1,0,0:0:0:0:
64,192,5102,1,2,0:0:0:0:
192,192,5102,1,0,0:0:0:0:
64,192,5181,1,0,0:0:0:0:
64,192,5260,1,8,0:0:0:0:
192,192,5260,1,0,0:0:0:0:
320,192,5260,1,0,0:0:0:0:
64,192,5339,1,0,0:0:0:0:
64,192,5418,1,2,0:0:0:0:
320,192,5418,1,0,0:0:0:0:
64,192,5497,1,0,0:0:0:0:
64,192,5576,1,8,0:0:0:0:
320,192,5576,1,0,0:0:0:0:
192,192,5576,1,0,0:0:0:0:
64,192,5655,1,0,0:0:0:0:
64,192,5734,1,2,0:0:0:0:
448,192,5734,1,0,0:0:0:0:
64,192,5813,1,0,0:0:0:0:
64,192,5892,1,8,0:0:0:0:
192,192,5892,1,0,0:0:0:0:
320,192,5892,1,0,0:0:0:0:
64,192,5971,1,0,0:0:0:0:
64,192,6050,1,2,0:0:0:0:
192,192,6050,1,0,0:0:0:0:
64,192,6129,1,0,0:0:0:0:
64,192,6208,1,8,0:0:0:0:
320,192,6208,1,0,0:0:0:0:
448,192,6208,1,0,0:0:0:0:
64,192,6287,1,0,0:0:0:0:
64,192,6366,1,2,0:0:0:0:
192,192,6366,1,0,0:0:0:0:
64,192,6445,1,0,0:0:0:0:
64,192,6524,1,2,0:0:0:0:
320,192,6524,1,0,0:0:0:0:
448,192,6524,1,0,0:0:0:0:
64,192,6603,1,8,0:0:0:0:
192,192,6603,1,0,0:0:0:0:
64,192,6682,1,8,0:0:0:0:
320,192,6682,1,0,0:0:0:0:
448,192,6682,1,0,0:0:0:0:
64,192,6761,1,0,0:0:0:0:
64,192,6840,1,8,0:0:0:0:
192,192,6840,1,0,0:0:0:0:
320,192,6840,1,0,0:0:0:0:
64,192,6919,1,0,0:0:0:0:
64,192,6998,1,2,0:0:0:0:
448,192,6998,1,0,0:0:0:0:
64,192,7077,1,0,0:0:0:0:
64,192,7156,1,8,0:0:0:0:
192,192,7156,1,0,0:0:0:0:
320,192,7156,1,0,0:0:0:0:
64,192,10950,1,0,0:0:0:0:
320,192,12214,1,0,0:0:0:0:
64,192,12214,1,0,0:0:0:0:
448,192,12214,1,0,0:0:0:0:
320,192,12293,1,0,0:0:0:0:
192,192,12293,1,0,0:0:0:0:
320,192,12372,1,0,0:0:0:0:
64,192,12372,1,0,0:0:0:0:
320,192,12452,1,0,0:0:0:0:
192,192,12452,1,0,0:0:0:0:
320,192,12531,1,0,0:0:0:0:
64,192,12531,1,0,0:0:0:0:
448,192,12531,1,0,0:0:0:0:
320,192,12610,1,0,0:0:0:0:
192,192,12610,1,0,0:0:0:0:
320,192,12689,1,0,0:0:0:0:
64,192,12689,1,0,0:0:0:0:
320,192,12768,1,0,0:0:0:0:
448,192,12768,1,0,0:0:0:0:
320,192,12847,1,0,0:0:0:0:
64,192,12847,1,0,0:0:0:0:
320,192,12926,1,0,0:0:0:0:
192,192,12926,1,0,0:0:0:0:
320,192,13005,1,0,0:0:0:0:
448,192,13005,1,0,0:0:0:0:
320,192,13084,1,0,0:0:0:0:
192,192,13084,1,0,0:0:0:0:
320,192,13163,1,0,0:0:0:0:
64,192,13163,1,0,0:0:0:0:
448,192,13163,1,0,0:0:0:0:
320,192,13242,1,0,0:0:0:0:
192,192,13242,1,0,0:0:0:0:
320,192,13321,1,0,0:0:0:0:
448,192,13321,1,0,0:0:0:0:
320,192,13400,1,0,0:0:0:0:
192,192,13400,1,0,0:0:0:0:
320,192,13479,1,0,0:0:0:0:
64,192,13479,1,0,0:0:0:0:
192,192,13479,1,0,0:0:0:0:
320,192,13558,1,0,0:0:0:0:
448,192,13558,1,0,0:0:0:0:
320,192,13637,1,0,0:0:0:0:
192,192,13637,1,0,0:0:0:0:
320,192,13716,1,0,0:0:0:0:
64,192,13716,1,0,0:0:0:0:
320,192,13795,1,0,0:0:0:0:
192,192,13795,1,0,0:0:0:0:
448,192,13795,1,0,0:0:0:0:
320,192,13874,1,0,0:0:0:0:
64,192,13874,1,0,0:0:0:0:
320,192,13953,1,0,0:0:0:0:
192,192,13953,1,0,0:0:0:0:
320,192,14032,1,0,0:0:0:0:
64,192,14032,1,0,0:0:0:0:
320,192,14111,1,0,0:0:0:0:
192,192,14111,1,0,0:0:0:0:
448,192,14111,1,0,0:0:0:0:
320,192,14190,1,0,0:0:0:0:
192,192,14190,1,0,0:0:0:0:
64,192,14190,1,0,0:0:0:0:
320,192,14269,1,0,0:0:0:0:
192,192,14269,1,0,0:0:0:0:
320,192,14348,1,0,0:0:0:0:
448,192,14348,1,0,0:0:0:0:
320,192,14427,1,0,0:0:0:0:
64,192,14427,1,0,0:0:0:0:
192,192,14427,1,0,0:0:0:0:
320,192,14506,1,0,0:0:0:0:
192,192,14506,1,0,0:0:0:0:
320,192,14585,1,0,0:0:0:0:
448,192,14585,1,0,0:0:0:0:
320,192,14664,1,0,0:0:0:0:
192,192,14664,1,0,0:0:0:0:
320,192,14743,1,0,0:0:0:0:
64,192,14743,1,0,0:0:0:0:
448,192,14743,1,0,0:0:0:0:
320,192,14822,1,0,0:0:0:0:
192,192,14822,1,0,0:0:0:0:
320,192,14901,1,0,0:0:0:0:
64,192,14901,1,0,0:0:0:0:
320,192,14980,1,0,0:0:0:0:
448,192,14980,1,0,0:0:0:0:
320,192,15060,1,0,0:0:0:0:
192,192,15060,1,0,0:0:0:0:
64,192,15060,1,0,0:0:0:0:
320,192,15139,1,0,0:0:0:0:
448,192,15139,1,0,0:0:0:0:
320,192,15218,1,0,0:0:0:0:
192,192,15218,1,0,0:0:0:0:
320,192,15297,1,0,0:0:0:0:
448,192,15297,1,0,0:0:0:0:
320,192,15376,1,0,0:0:0:0:
192,192,15376,1,0,0:0:0:0:
320,192,15455,1,0,0:0:0:0:
64,192,15455,1,0,0:0:0:0:
320,192,15534,1,0,0:0:0:0:
64,192,15534,1,0,0:0:0:0:
320,192,15613,1,0,0:0:0:0:
192,192,15613,1,0,0:0:0:0:
320,192,15692,1,0,0:0:0:0:
64,192,15692,1,0,0:0:0:0:
448,192,15692,1,0,0:0:0:0:
320,192,15771,1,0,0:0:0:0:
448,192,15771,1,0,0:0:0:0:
320,192,15850,1,0,0:0:0:0:
192,192,15850,1,0,0:0:0:0:
320,192,15929,1,0,0:0:0:0:
64,192,15929,1,0,0:0:0:0:
320,192,16008,1,0,0:0:0:0:
192,192,16008,1,0,0:0:0:0:
320,192,16087,1,0,0:0:0:0:
448,192,16087,1,0,0:0:0:0:
320,192,16166,1,0,0:0:0:0:
192,192,16166,1,0,0:0:0:0:
320,192,16245,1,0,0:0:0:0:
448,192,16245,1,0,0:0:0:0:
320,192,16324,1,0,0:0:0:0:
192,192,16324,1,0,0:0:0:0:
64,192,16324,1,0,0:0:0:0:
320,192,16403,1,0,0:0:0:0:
448,192,16403,1,0,0:0:0:0:
320,192,16482,1,0,0:0:0:0:
192,192,16482,1,0,0:0:0:0:
320,192,16561,1,0,0:0:0:0:
64,192,16561,1,0,0:0:0:0:
320,192,16640,1,0,0:0:0:0:
192,192,16640,1,0,0:0:0:0:
320,192,16719,1,0,0:0:0:0:
64,192,16719,1,0,0:0:0:0:
448,192,16719,1,0,0:0:0:0:
320,192,16798,1,0,0:0:0:0:
192,192,16798,1,0,0:0:0:0:
320,192,16877,1,0,0:0:0:0:
64,192,16877,1,0,0:0:0:0:
320,192,16956,1,0,0:0:0:0:
192,192,16956,1,0,0:0:0:0:
448,192,16956,1,0,0:0:0:0:
320,192,17035,1,0,0:0:0:0:
320,192,17114,1,0,0:0:0:0:
448,192,17114,1,0,0:0:0:0:
64,192,17114,1,0,0:0:0:0:
320,192,17193,1,0,0:0:0:0:
448,192,17193,1,0,0:0:0:0:
64,192,17193,1,0,0:0:0:0:
192,192,17272,1,0,0:0:0:0:
448,192,17272,1,0,0:0:0:0:
64,192,17272,1,0,0:0:0:0:
192,192,17351,1,0,0:0:0:0:
320,192,17351,1,0,0:0:0:0:
192,192,17430,1,0,0:0:0:0:
448,192,17430,1,0,0:0:0:0:
192,192,17509,1,0,0:0:0:0:
320,192,17509,1,0,0:0:0:0:
192,192,17588,1,0,0:0:0:0:
448,192,17588,1,0,0:0:0:0:
64,192,17588,1,0,0:0:0:0:
192,192,17668,1,0,0:0:0:0:
320,192,17668,1,0,0:0:0:0:
192,192,17747,1,0,0:0:0:0:
448,192,17747,1,0,0:0:0:0:
192,192,17826,1,0,0:0:0:0:
64,192,17826,1,0,0:0:0:0:
192,192,17905,1,0,0:0:0:0:
448,192,17905,1,0,0:0:0:0:
192,192,17984,1,0,0:0:0:0:
320,192,17984,1,0,0:0:0:0:
192,192,18063,1,0,0:0:0:0:
64,192,18063,1,0,0:0:0:0:
192,192,18142,1,0,0:0:0:0:
320,192,18142,1,0,0:0:0:0:
192,192,18221,1,0,0:0:0:0:
448,192,18221,1,0,0:0:0:0:
64,192,18221,1,0,0:0:0:0:
192,192,18300,1,0,0:0:0:0:
320,192,18300,1,0,0:0:0:0:
192,192,18379,1,0,0:0:0:0:
64,192,18379,1,0,0:0:0:0:
192,192,18458,1,0,0:0:0:0:
320,192,18458,1,0,0:0:0:0:
192,192,18537,1,0,0:0:0:0:
448,192,18537,1,0,0:0:0:0:
320,192,18537,1,0,0:0:0:0:
192,192,18616,1,0,0:0:0:0:
64,192,18616,1,0,0:0:0:0:
192,192,18695,1,0,0:0:0:0:
320,192,18695,1,0,0:0:0:0:
192,192,18774,1,0,0:0:0:0:
448,192,18774,1,0,0:0:0:0:
192,192,18853,1,0,0:0:0:0:
320,192,18853,1,0,0:0:0:0:
64,192,18853,1,0,0:0:0:0:
192,192,18932,1,0,0:0:0:0:
448,192,18932,1,0,0:0:0:0:
192,192,19011,1,0,0:0:0:0:
320,192,19011,1,0,0:0:0:0:
192,192,19090,1,0,0:0:0:0:
448,192,19090,1,0,0:0:0:0:
192,192,19169,1,0,0:0:0:0:
320,192,19169,1,0,0:0:0:0:
64,192,19169,1,0,0:0:0:0:
192,192,19248,1,0,0:0:0:0:
320,192,19248,1,0,0:0:0:0:
448,192,19248,1,0,0:0:0:0:
192,192,19327,1,0,0:0:0:0:
320,192,19327,1,0,0:0:0:0:
192,192,19406,1,0,0:0:0:0:
64,192,19406,1,0,0:0:0:0:
192,192,19485,1,0,0:0:0:0:
448,192,19485,1,0,0:0:0:0:
320,192,19485,1,0,0:0:0:0:
192,192,19564,1,0,0:0:0:0:
320,192,19564,1,0,0:0:0:0:
192,192,19643,1,0,0:0:0:0:
64,192,19643,1,0,0:0:0:0:
192,192,19722,1,0,0:0:0:0:
320,192,19722,1,0,0:0:0:0:
192,192,19801,1,0,0:0:0:0:
448,192,19801,1,0,0:0:0:0:
64,192,19801,1,0,0:0:0:0:
192,192,19880,1,0,0:0:0:0:
320,192,19880,1,0,0:0:0:0:
192,192,19959,1,0,0:0:0:0:
448,192,19959,1,0,0:0:0:0:
192,192,20038,1,0,0:0:0:0:
64,192,20038,1,0,0:0:0:0:
192,192,20117,1,0,0:0:0:0:
320,192,20117,1,0,0:0:0:0:
448,192,20117,1,0,0:0:0:0:
192,192,20196,1,0,0:0:0:0:
64,192,20196,1,0,0:0:0:0:
192,192,20276,1,0,0:0:0:0:
320,192,20276,1,0,0:0:0:0:
192,192,20355,1,0,0:0:0:0:
64,192,20355,1,0,0:0:0:0:
192,192,20434,1,0,0:0:0:0:
320,192,20434,1,0,0:0:0:0:
192,192,20513,1,0,0:0:0:0:
448,192,20513,1,0,0:0:0:0:
192,192,20592,1,0,0:0:0:0:
448,192,20592,1,0,0:0:0:0:
192,192,20671,1,0,0:0:0:0:
320,192,20671,1,0,0:0:0:0:
192,192,20750,1,0,0:0:0:0:
448,192,20750,1,0,0:0:0:0:
64,192,20750,1,0,0:0:0:0:
192,192,20829,1,0,0:0:0:0:
64,192,20829,1,0,0:0:0:0:
192,192,20908,1,0,0:0:0:0:
320,192,20908,1,0,0:0:0:0:
192,192,20987,1,0,0:0:0:0:
448,192,20987,1,0,0:0:0:0:
192,192,21066,1,0,0:0:0:0:
320,192,21066,1,0,0:0:0:0:
192,192,21145,1,0,0:0:0:0:
64,192,21145,1,0,0:0:0:0:
192,192,21224,1,0,0:0:0:0:
320,192,21224,1,0,0:0:0:0:
192,192,21303,1,0,0:0:0:0:
64,192,21303,1,0,0:0:0:0:
192,192,21382,1,0,0:0:0:0:
320,192,21382,1,0,0:0:0:0:
448,192,21382,1,0,0:0:0:0:
192,192,21461,1,0,0:0:0:0:
64,192,21461,1,0,0:0:0:0:
192,192,21540,1,0,0:0:0:0:
320,192,21540,1,0,0:0:0:0:
192,192,21619,1,0,0:0:0:0:
448,192,21619,1,0,0:0:0:0:
192,192,21698,1,0,0:0:0:0:
320,192,21698,1,0,0:0:0:0:
192,192,21777,1,0,0:0:0:0:
448,192,21777,1,0,0:0:0:0:
64,192,21777,1,0,0:0:0:0:
192,192,21856,1,0,0:0:0:0:
320,192,21856,1,0,0:0:0:0:
192,192,21935,1,0,0:0:0:0:
448,192,21935,1,0,0:0:0:0:
192,192,22014,1,0,0:0:0:0:
320,192,22014,1,0,0:0:0:0:
64,192,22014,1,0,0:0:0:0:
192,192,22093,1,0,0:0:0:0:
192,192,22172,1,0,0:0:0:0:
64,192,22172,1,0,0:0:0:0:
448,192,22172,1,0,0:0:0:0:
192,192,22251,1,0,0:0:0:0:
64,192,22251,1,0,0:0:0:0:
448,192,22251,1,0,0:0:0:0:
192,192,22330,1,0,0:0:0:0:
64,192,22330,1,0,0:0:0:0:
448,192,22330,1,0,0:0:0:0:
448,192,22409,1,0,0:0:0:0:
448,192,22488,1,0,0:0:0:0:
448,192,22567,1,0,0:0:0:0:
448,192,22646,1,0,0:0:0:0:
448,192,22725,1,0,0:0:0:0:
448,192,22805,1,0,0:0:0:0:
448,192,22884,1,0,0:0:0:0:
448,192,22963,1,0,0:0:0:0:
448,192,23042,1,0,0:0:0:0:
448,192,23121,1,0,0:0:0:0:
64,192,23121,1,0,0:0:0:0:
448,192,23200,1,0,0:0:0:0:
448,192,23279,1,0,0:0:0:0:
448,192,23358,1,0,0:0:0:0:
448,192,23437,1,0,0:0:0:0:
192,192,23437,1,0,0:0:0:0:
448,192,23516,1,0,0:0:0:0:
320,192,23595,1,0,0:0:0:0:
448,192,23595,1,0,0:0:0:0:
64,192,23595,1,0,0:0:0:0:
448,192,23674,1,0,0:0:0:0:
448,192,23753,1,0,0:0:0:0:
448,192,23832,1,0,0:0:0:0:
448,192,23911,1,0,0:0:0:0:
448,192,23990,1,0,0:0:0:0:
448,192,24069,1,0,0:0:0:0:
448,192,24148,1,0,0:0:0:0:
448,192,24227,1,0,0:0:0:0:
448,192,24306,1,0,0:0:0:0:
448,192,24385,1,0,0:0:0:0:
192,192,24385,1,0,0:0:0:0:
448,192,24464,1,0,0:0:0:0:
448,192,24543,1,0,0:0:0:0:
448,192,24622,1,0,0:0:0:0:
448,192,24701,1,0,0:0:0:0:
320,192,24701,1,0,0:0:0:0:
448,192,24780,1,0,0:0:0:0:
448,192,24859,1,0,0:0:0:0:
192,192,24859,1,0,0:0:0:0:
64,192,24859,1,0,0:0:0:0:
448,192,24938,1,0,0:0:0:0:
448,192,25017,1,0,0:0:0:0:
448,192,25096,1,0,0:0:0:0:
448,192,25175,1,0,0:0:0:0:
448,192,25254,1,0,0:0:0:0:
448,192,25333,1,0,0:0:0:0:
448,192,25413,1,0,0:0:0:0:
448,192,25492,1,0,0:0:0:0:
448,192,25571,1,0,0:0:0:0:
448,192,25650,1,0,0:0:0:0:
320,192,25650,1,0,0:0:0:0:
448,192,25729,1,0,0:0:0:0:
448,192,25808,1,0,0:0:0:0:
448,192,25887,1,0,0:0:0:0:
448,192,25966,1,0,0:0:0:0:
64,192,25966,1,0,0:0:0:0:
448,192,26045,1,0,0:0:0:0:
448,192,26124,1,0,0:0:0:0:
192,192,26124,1,0,0:0:0:0:
320,192,26124,1,0,0:0:0:0:
448,192,26203,1,0,0:0:0:0:
448,192,26282,1,0,0:0:0:0:
448,192,26361,1,0,0:0:0:0:
448,192,26440,1,0,0:0:0:0:
320,192,26440,1,0,0:0:0:0:
448,192,26519,1,0,0:0:0:0:
448,192,26598,1,0,0:0:0:0:
448,192,26677,1,0,0:0:0:0:
448,192,26756,1,0,0:0:0:0:
192,192,26756,1,0,0:0:0:0:
448,192,26835,1,0,0:0:0:0:
64,192,26914,1,0,0:0:0:0:
448,192,26914,1,0,0:0:0:0:
448,192,26993,1,0,0:0:0:0:
320,192,27072,1,0,0:0:0:0:
448,192,27072,1,0,0:0:0:0:
448,192,27151,1,0,0:0:0:0:
448,192,27230,1,0,0:0:0:0:
448,192,27309,1,0,0:0:0:0:
448,192,27388,1,0,0:0:0:0:
320,192,27388,1,0,0:0:0:0:
64,192,27388,1,0,0:0:0:0:
448,192,27467,1,0,0:0:0:0:
448,192,27546,1,0,0:0:0:0:
448,192,27625,1,0,0:0:0:0:
448,192,27704,1,0,0:0:0:0:
448,192,27783,1,0,0:0:0:0:
448,192,27862,1,0,0:0:0:0:
448,192,27941,1,0,0:0:0:0:
448,192,28021,1,0,0:0:0:0:
448,192,28100,1,0,0:0:0:0:
448,192,28179,1,0,0:0:0:0:
192,192,28179,1,0,0:0:0:0:
448,192,28258,1,0,0:0:0:0:
448,192,28337,1,0,0:0:0:0:
448,192,28416,1,0,0:0:0:0:
448,192,28495,1,0,0:0:0:0:
192,192,28495,1,0,0:0:0:0:
448,192,28574,1,0,0:0:0:0:
448,192,28653,1,0,0:0:0:0:
64,192,28653,1,0,0:0:0:0:
320,192,28653,1,0,0:0:0:0:
448,192,28732,1,0,0:0:0:0:
448,192,28811,1,0,0:0:0:0:
448,192,28890,1,0,0:0:0:0:
448,192,28969,1,0,0:0:0:0:
448,192,29048,1,0,0:0:0:0:
448,192,29127,1,0,0:0:0:0:
448,192,29206,1,0,0:0:0:0:
448,192,29285,1,0,0:0:0:0:
448,192,29364,1,0,0:0:0:0:
448,192,29443,1,0,0:0:0:0:
320,192,29443,1,0,0:0:0:0:
448,192,29522,1,0,0:0:0:0:
448,192,29601,1,0,0:0:0:0:
448,192,29680,1,0,0:0:0:0:
192,192,29759,1,0,0:0:0:0:
448,192,29759,1,0,0:0:0:0:
448,192,29838,1,0,0:0:0:0:
64,192,29917,1,0,0:0:0:0:
192,192,29917,1,0,0:0:0:0:
448,192,29917,1,0,0:0:0:0:
448,192,29996,1,0,0:0:0:0:
448,192,30075,1,0,0:0:0:0:
448,192,30154,1,0,0:0:0:0:
448,192,30233,1,0,0:0:0:0:
448,192,30312,1,0,0:0:0:0:
448,192,30391,1,0,0:0:0:0:
448,192,30470,1,0,0:0:0:0:
448,192,30550,1,0,0:0:0:0:
320,192,30550,1,0,0:0:0:0:
192,192,30550,1,0,0:0:0:0:
448,192,30629,1,0,0:0:0:0:
448,192,30708,1,0,0:0:0:0:
448,192,30787,1,0,0:0:0:0:
448,192,30866,1,0,0:0:0:0:
448,192,30945,1,0,0:0:0:0:
448,192,31024,1,0,0:0:0:0:
320,192,31024,1,0,0:0:0:0:
448,192,31103,1,0,0:0:0:0:
192,192,31103,1,0,0:0:0:0:
448,192,31182,1,0,0:0:0:0:
64,192,31182,1,0,0:0:0:0:
448,192,31261,1,0,0:0:0:0:
192,192,31261,1,0,0:0:0:0:
448,192,31340,1,0,0:0:0:0:
320,192,31340,1,0,0:0:0:0:
448,192,31419,1,0,0:0:0:0:
192,192,31419,1,0,0:0:0:0:
448,192,31498,1,0,0:0:0:0:
64,192,31498,1,0,0:0:0:0:
448,192,31577,1,0,0:0:0:0:
192,192,31577,1,0,0:0:0:0:
448,192,31656,1,0,0:0:0:0:
320,192,31656,1,0,0:0:0:0:
448,192,31735,1,0,0:0:0:0:
192,192,31735,1,0,0:0:0:0:
448,192,31814,1,0,0:0:0:0:
64,192,31814,1,0,0:0:0:0:
448,192,31893,1,0,0:0:0:0:
192,192,31893,1,0,0:0:0:0:
448,192,31972,1,0,0:0:0:0:
320,192,31972,1,0,0:0:0:0:
448,192,32051,1,0,0:0:0:0:
192,192,32051,1,0,0:0:0:0:
448,192,32130,1,0,0:0:0:0:
64,192,32130,1,0,0:0:0:0:
448,192,32209,1,0,0:0:0:0:
192,192,32209,1,0,0:0:0:0:
448,192,32288,1,0,0:0:0:0:
320,192,32288,1,0,0:0:0:0:
448,192,32367,1,0,0:0:0:0:
192,192,32367,1,0,0:0:0:0:
448,192,32446,1,0,0:0:0:0:
64,192,32446,1,0,0:0:0:0:
64,192,32525,1,0,0:0:0:0:
64,192,32604,1,0,0:0:0:0:
64,192,32683,1,0,0:0:0:0:
64,192,32762,1,0,0:0:0:0:
64,192,32841,1,0,0:0:0:0:
64,192,32920,1,0,0:0:0:0:
64,192,32999,1,0,0:0:0:0:
64,192,33078,1,0,0:0:0:0:
64,192,33158,1,0,0:0:0:0:
64,192,33237,1,0,0:0:0:0:
192,192,33237,1,0,0:0:0:0:
64,192,33316,1,0,0:0:0:0:
64,192,33395,1,0,0:0:0:0:
64,192,33474,1,0,0:0:0:0:
64,192,33553,1,0,0:0:0:0:
192,192,33553,1,0,0:0:0:0:
64,192,33632,1,0,0:0:0:0:
64,192,33711,1,0,0:0:0:0:
192,192,33711,1,0,0:0:0:0:
320,192,33711,1,0,0:0:0:0:
64,192,33790,1,0,0:0:0:0:
64,192,33869,1,0,0:0:0:0:
64,192,33948,1,0,0:0:0:0:
64,192,34027,1,0,0:0:0:0:
64,192,34106,1,0,0:0:0:0:
64,192,34185,1,0,0:0:0:0:
64,192,34264,1,0,0:0:0:0:
64,192,34343,1,0,0:0:0:0:
64,192,34422,1,0,0:0:0:0:
64,192,34501,1,0,0:0:0:0:
320,192,34501,1,0,0:0:0:0:
64,192,34580,1,0,0:0:0:0:
64,192,34659,1,0,0:0:0:0:
64,192,34738,1,0,0:0:0:0:
64,192,34817,1,0,0:0:0:0:
320,192,34817,1,0,0:0:0:0:
64,192,34896,1,0,0:0:0:0:
64,192,34975,1,0,0:0:0:0:
448,192,34975,1,0,0:0:0:0:
192,192,34975,1,0,0:0:0:0:
64,192,35054,1,0,0:0:0:0:
64,192,35133,1,0,0:0:0:0:
64,192,35212,1,0,0:0:0:0:
64,192,35291,1,0,0:0:0:0:
64,192,35370,1,0,0:0:0:0:
64,192,35449,1,0,0:0:0:0:
64,192,35528,1,0,0:0:0:0:
64,192,35607,1,0,0:0:0:0:
64,192,35686,1,0,0:0:0:0:
64,192,35766,1,0,0:0:0:0:
448,192,35766,1,0,0:0:0:0:
64,192,35845,1,0,0:0:0:0:
64,192,35924,1,0,0:0:0:0:
64,192,36003,1,0,0:0:0:0:
64,192,36082,1,0,0:0:0:0:
448,192,36082,1,0,0:0:0:0:
64,192,36161,1,0,0:0:0:0:
64,192,36240,1,0,0:0:0:0:
448,192,36240,1,0,0:0:0:0:
320,192,36240,1,0,0:0:0:0:
64,192,36319,1,0,0:0:0:0:
64,192,36398,1,0,0:0:0:0:
64,192,36477,1,0,0:0:0:0:
64,192,36556,1,0,0:0:0:0:
448,192,36556,1,0,0:0:0:0:
192,192,36556,1,0,0:0:0:0:
64,192,36635,1,0,0:0:0:0:
64,192,36714,1,0,0:0:0:0:
64,192,36793,1,0,0:0:0:0:
64,192,36872,1,0,0:0:0:0:
320,192,36872,1,0,0:0:0:0:
192,192,36872,1,0,0:0:0:0:
64,192,36951,1,0,0:0:0:0:
64,192,37030,1,0,0:0:0:0:
448,192,37030,1,0,0:0:0:0:
64,192,37109,1,0,0:0:0:0:
64,192,37188,1,0,0:0:0:0:
64,192,37267,1,0,0:0:0:0:
64,192,37346,1,0,0:0:0:0:
64,192,37425,1,0,0:0:0:0:
192,192,37504,1,0,0:0:0:0:
64,192,37504,1,0,0:0:0:0:
192,192,37583,1,0,0:0:0:0:
192,192,37662,1,0,0:0:0:0:
192,192,37741,1,0,0:0:0:0:
192,192,37820,1,0,0:0:0:0:
192,192,37899,1,0,0:0:0:0:
192,192,37978,1,0,0:0:0:0:
192,192,38057,1,0,0:0:0:0:
192,192,38136,1,0,0:0:0:0:
192,192,38215,1,0,0:0:0:0:
192,192,38294,1,0,0:0:0:0:
448,192,38294,1,0,0:0:0:0:
192,192,38374,1,0,0:0:0:0:
192,192,38453,1,0,0:0:0:0:
192,192,38532,1,0,0:0:0:0:
192,192,38611,1,0,0:0:0:0:
448,192,38611,1,0,0:0:0:0:
192,192,38690,1,0,0:0:0:0:
192,192,38769,1,0,0:0:0:0:
448,192,38769,1,0,0:0:0:0:
64,192,38769,1,0,0:0:0:0:
192,192,38848,1,0,0:0:0:0:
192,192,38927,1,0,0:0:0:0:
192,192,39006,1,0,0:0:0:0:
192,192,39085,1,0,0:0:0:0:
192,192,39164,1,0,0:0:0:0:
192,192,39243,1,0,0:0:0:0:
192,192,39322,1,0,0:0:0:0:
192,192,39401,1,0,0:0:0:0:
192,192,39480,1,0,0:0:0:0:
192,192,39559,1,0,0:0:0:0:
448,192,39559,1,0,0:0:0:0:
192,192,39638,1,0,0:0:0:0:
192,192,39717,1,0,0:0:0:0:
192,192,39796,1,0,0:0:0:0:
192,192,39875,1,0,0:0:0:0:
448,192,39875,1,0,0:0:0:0:
192,192,39954,1,0,0:0:0:0:
192,192,40033,1,0,0:0:0:0:
64,192,40033,1,0,0:0:0:0:
448,192,40033,1,0,0:0:0:0:
192,192,40112,1,0,0:0:0:0:
192,192,40191,1,0,0:0:0:0:
192,192,40270,1,0,0:0:0:0:
192,192,40349,1,0,0:0:0:0:
192,192,40428,1,0,0:0:0:0:
192,192,40507,1,0,0:0:0:0:
192,192,40586,1,0,0:0:0:0:
192,192,40665,1,0,0:0:0:0:
448,192,40665,1,0,0:0:0:0:
64,192,40665,1,0,0:0:0:0:
192,192,40744,1,0,0:0:0:0:
192,192,40823,1,0,0:0:0:0:
192,192,40903,1,0,0:0:0:0:
192,192,40982,1,0,0:0:0:0:
192,192,41061,1,0,0:0:0:0:
192,192,41140,1,0,0:0:0:0:
448,192,41140,1,0,0:0:0:0:
192,192,41219,1,0,0:0:0:0:
320,192,41219,1,0,0:0:0:0:
192,192,41298,1,0,0:0:0:0:
64,192,41298,1,0,0:0:0:0:
192,192,41377,1,0,0:0:0:0:
320,192,41377,1,0,0:0:0:0:
192,192,41456,1,0,0:0:0:0:
448,192,41456,1,0,0:0:0:0:
192,192,41535,1,0,0:0:0:0:
320,192,41535,1,0,0:0:0:0:
192,192,41614,1,0,0:0:0:0:
64,192,41614,1,0,0:0:0:0:
192,192,41693,1,0,0:0:0:0:
320,192,41693,1,0,0:0:0:0:
192,192,41772,1,0,0:0:0:0:
448,192,41772,1,0,0:0:0:0:
192,192,41851,1,0,0:0:0:0:
320,192,41851,1,0,0:0:0:0:
192,192,41930,1,0,0:0:0:0:
64,192,41930,1,0,0:0:0:0:
192,192,42009,1,0,0:0:0:0:
320,192,42009,1,0,0:0:0:0:
192,192,42088,1,0,0:0:0:0:
448,192,42088,1,0,0:0:0:0:
192,192,42167,1,0,0:0:0:0:
320,192,42167,1,0,0:0:0:0:
192,192,42246,1,0,0:0:0:0:
64,192,42246,1,0,0:0:0:0:
192,192,42325,1,0,0:0:0:0:
320,192,42325,1,0,0:0:0:0:
192,192,42404,1,0,0:0:0:0:
448,192,42404,1,0,0:0:0:0:
192,192,42483,1,0,0:0:0:0:
320,192,42483,1,0,0:0:0:0:
64,192,42562,1,0,0:0:0:0:
448,192,42562,1,0,0:0:0:0:
192,192,42562,1,0,0:0:0:0:
320,192,42562,1,0,0:0:0:0:
192,192,42720,1,0,0:0:0:0:
192,192,42799,1,0,0:0:0:0:
192,192,42878,1,0,0:0:0:0:
320,192,42878,1,0,0:0:0:0:
448,192,42878,1,0,0:0:0:0:
64,192,42878,1,0,0:0:0:0:
448,192,42957,1,0,0:0:0:0:
448,192,43115,1,0,0:0:0:0:
320,192,43194,1,0,0:0:0:0:
192,192,43194,1,0,0:0:0:0:
64,192,43194,1,0,0:0:0:0:
448,192,43194,1,0,0:0:0:0:
448,192,43273,1,0,0:0:0:0:
448,192,43431,1,0,0:0:0:0:
448,192,43511,1,0,0:0:0:0:
64,192,43511,1,0,0:0:0:0:
320,192,43511,1,0,0:0:0:0:
192,192,43511,1,0,0:0:0:0:
64,192,43590,1,0,0:0:0:0:
448,192,43669,1,0,0:0:0:0:
448,192,43748,1,0,0:0:0:0:
448,192,43827,1,0,0:0:0:0:
320,192,43827,1,0,0:0:0:0:
192,192,43827,1,0,0:0:0:0:
64,192,43827,1,0,0:0:0:0:
192,192,43985,1,0,0:0:0:0:
192,192,44064,1,0,0:0:0:0:
192,192,44143,1,0,0:0:0:0:
64,192,44143,1,0,0:0:0:0:
320,192,44143,1,0,0:0:0:0:
448,192,44143,1,0,0:0:0:0:
64,192,44222,1,0,0:0:0:0:
192,192,44380,1,0,0:0:0:0:
64,192,44459,1,0,0:0:0:0:
192,192,44459,1,0,0:0:0:0:
320,192,44459,1,0,0:0:0:0:
448,192,44459,1,0,0:0:0:0:
320,192,44538,1,0,0:0:0:0:
448,192,44696,1,0,0:0:0:0:
192,192,44775,1,0,0:0:0:0:
320,192,44775,1,0,0:0:0:0:
64,192,44775,1,0,0:0:0:0:
448,192,44775,1,0,0:0:0:0:
192,192,44854,1,0,0:0:0:0:
320,192,44933,1,0,0:0:0:0:
320,192,45012,1,0,0:0:0:0:
320,192,45091,1,0,0:0:0:0:
192,192,45091,1,0,0:0:0:0:
448,192,45091,1,0,0:0:0:0:
64,192,45091,1,0,0:0:0:0:
320,192,45249,1,0,0:0:0:0:
320,192,45328,1,0,0:0:0:0:
320,192,45407,1,0,0:0:0:0:
192,192,45407,1,0,0:0:0:0:
64,192,45407,1,0,0:0:0:0:
448,192,45407,1,0,0:0:0:0:
320,192,45486,1,0,0:0:0:0:
320,192,45644,1,0,0:0:0:0:
320,192,45723,1,0,0:0:0:0:
448,192,45723,1,0,0:0:0:0:
192,192,45723,1,0,0:0:0:0:
64,192,45723,1,0,0:0:0:0:
448,192,45802,1,0,0:0:0:0:
320,192,45881,1,0,0:0:0:0:
320,192,45960,1,0,0:0:0:0:
192,192,46039,1,0,0:0:0:0:
448,192,46039,1,0,0:0:0:0:
64,192,46039,1,0,0:0:0:0:
320,192,46039,1,0,0:0:0:0:
192,192,46119,1,0,0:0:0:0:
64,192,46198,1,0,0:0:0:0:
64,192,46277,1,0,0:0:0:0:
192,192,46356,1,0,0:0:0:0:
448,192,46356,1,0,0:0:0:0:
320,192,46356,1,0,0:0:0:0:
64,192,46356,1,0,0:0:0:0:
192,192,46514,1,0,0:0:0:0:
192,192,46593,1,0,0:0:0:0:
192,192,46672,1,0,0:0:0:0:
64,192,46672,1,0,0:0:0:0:
448,192,46672,1,0,0:0:0:0:
320,192,46672,1,0,0:0:0:0:
192,192,46751,1,0,0:0:0:0:
448,192,46909,1,0,0:0:0:0:
192,192,46988,1,0,0:0:0:0:
64,192,46988,1,0,0:0:0:0:
320,192,46988,1,0,0:0:0:0:
448,192,46988,1,0,0:0:0:0:
320,192,47067,1,0,0:0:0:0:
192,192,47225,1,0,0:0:0:0:
192,192,47304,1,0,0:0:0:0:
64,192,47304,1,0,0:0:0:0:
448,192,47304,1,0,0:0:0:0:
320,192,47304,1,0,0:0:0:0:
64,192,47462,1,0,0:0:0:0:
64,192,47541,1,0,0:0:0:0:
448,192,47620,1,0,0:0:0:0:
64,192,47620,1,0,0:0:0:0:
320,192,47620,1,0,0:0:0:0:
192,192,47620,1,0,0:0:0:0:
320,192,47778,1,0,0:0:0:0:
320,192,47857,1,0,0:0:0:0:
320,192,47936,1,0,0:0:0:0:
192,192,47936,1,0,0:0:0:0:
64,192,47936,1,0,0:0:0:0:
448,192,47936,1,0,0:0:0:0:
64,192,48015,1,0,0:0:0:0:
64,192,48173,1,0,0:0:0:0:
192,192,48252,1,0,0:0:0:0:
320,192,48252,1,0,0:0:0:0:
448,192,48252,1,0,0:0:0:0:
64,192,48252,1,0,0:0:0:0:
64,192,48331,1,0,0:0:0:0:
64,192,48489,1,0,0:0:0:0:
64,192,48568,1,0,0:0:0:0:
448,192,48568,1,0,0:0:0:0:
192,192,48568,1,0,0:0:0:0:
320,192,48568,1,0,0:0:0:0:
448,192,48647,1,0,0:0:0:0:
64,192,48727,1,0,0:0:0:0:
64,192,48806,1,0,0:0:0:0:
64,192,48885,1,0,0:0:0:0:
192,192,48885,1,0,0:0:0:0:
320,192,48885,1,0,0:0:0:0:
448,192,48885,1,0,0:0:0:0:
320,192,49043,1,0,0:0:0:0:
320,192,49122,1,0,0:0:0:0:
320,192,49201,1,0,0:0:0:0:
448,192,49201,1,0,0:0:0:0:
192,192,49201,1,0,0:0:0:0:
64,192,49201,1,0,0:0:0:0:
448,192,49280,1,0,0:0:0:0:
320,192,49438,1,0,0:0:0:0:
448,192,49517,1,0,0:0:0:0:
320,192,49517,1,0,0:0:0:0:
192,192,49517,1,0,0:0:0:0:
64,192,49517,1,0,0:0:0:0:
192,192,49596,1,0,0:0:0:0:
64,192,49754,1,0,0:0:0:0:
320,192,49833,1,0,0:0:0:0:
192,192,49833,1,0,0:0:0:0:
448,192,49833,1,0,0:0:0:0:
64,192,49833,1,0,0:0:0:0:
320,192,49912,1,0,0:0:0:0:
192,192,49991,1,0,0:0:0:0:
192,192,50070,1,0,0:0:0:0:
192,192,50149,1,0,0:0:0:0:
320,192,50149,1,0,0:0:0:0:
64,192,50149,1,0,0:0:0:0:
448,192,50149,1,0,0:0:0:0:
192,192,50307,1,0,0:0:0:0:
192,192,50386,1,0,0:0:0:0:
192,192,50465,1,0,0:0:0:0:
320,192,50465,1,0,0:0:0:0:
448,192,50465,1,0,0:0:0:0:
64,192,50465,1,0,0:0:0:0:
192,192,50544,1,0,0:0:0:0:
192,192,50702,1,0,0:0:0:0:
192,192,50781,1,0,0:0:0:0:
64,192,50781,1,0,0:0:0:0:
320,192,50781,1,0,0:0:0:0:
448,192,50781,1,0,0:0:0:0:
64,192,50860,1,0,0:0:0:0:
192,192,50939,1,0,0:0:0:0:
192,192,51018,1,0,0:0:0:0:
320,192,51097,1,0,0:0:0:0:
64,192,51097,1,0,0:0:0:0:
448,192,51097,1,0,0:0:0:0:
192,192,51097,1,0,0:0:0:0:
320,192,51176,1,0,0:0:0:0:
448,192,51256,1,0,0:0:0:0:
448,192,51335,1,0,0:0:0:0:
320,192,51414,1,0,0:0:0:0:
64,192,51414,1,0,0:0:0:0:
192,192,51414,1,0,0:0:0:0:
448,192,51414,1,0,0:0:0:0:
320,192,51572,1,0,0:0:0:0:
320,192,51651,1,0,0:0:0:0:
320,192,51730,1,0,0:0:0:0:
448,192,51730,1,0,0:0:0:0:
64,192,51730,1,0,0:0:0:0:
192,192,51730,1,0,0:0:0:0:
320,192,51809,1,0,0:0:0:0:
64,192,51967,1,0,0:0:0:0:
320,192,52046,1,0,0:0:0:0:
448,192,52046,1,0,0:0:0:0:
192,192,52046,1,0,0:0:0:0:
64,192,52046,1,0,0:0:0:0:
192,192,52125,1,0,0:0:0:0:
320,192,52283,1,0,0:0:0:0:
320,192,52362,1,0,0:0:0:0:
448,192,52362,1,0,0:0:0:0:
64,192,52362,1,0,0:0:0:0:
192,192,52362,1,0,0:0:0:0:
448,192,52520,1,0,0:0:0:0:
448,192,52599,1,0,0:0:0:0:
192,192,52678,1,0,0:0:0:0:
448,192,52678,1,0,0:0:0:0:
64,192,52678,1,0,0:0:0:0:
320,192,52678,1,0,0:0:0:0:
192,192,52836,1,0,0:0:0:0:
192,192,52915,1,0,0:0:0:0:
448,192,52994,1,0,0:0:0:0:
320,192,52994,1,0,0:0:0:0:
192,192,52994,1,0,0:0:0:0:
64,192,52994,1,0,0:0:0:0:
448,192,53073,1,0,0:0:0:0:
448,192,53231,1,0,0:0:0:0:
64,192,53310,1,0,0:0:0:0:
192,192,53310,1,0,0:0:0:0:
320,192,53310,1,0,0:0:0:0:
448,192,53310,1,0,0:0:0:0:
448,192,53389,1,0,0:0:0:0:
448,192,53547,1,0,0:0:0:0:
320,192,53626,1,0,0:0:0:0:
64,192,53626,1,0,0:0:0:0:
448,192,53626,1,0,0:0:0:0:
192,192,53626,1,0,0:0:0:0:
64,192,53705,1,0,0:0:0:0:
448,192,53784,1,0,0:0:0:0:
448,192,53864,1,0,0:0:0:0:
192,192,53943,1,0,0:0:0:0:
320,192,53943,1,0,0:0:0:0:
448,192,53943,1,0,0:0:0:0:
64,192,53943,1,0,0:0:0:0:
192,192,54101,1,0,0:0:0:0:
192,192,54180,1,0,0:0:0:0:
320,192,54259,1,0,0:0:0:0:
64,192,54259,1,0,0:0:0:0:
192,192,54259,1,0,0:0:0:0:
448,192,54259,1,0,0:0:0:0:
64,192,54338,1,0,0:0:0:0:
192,192,54496,1,0,0:0:0:0:
320,192,54575,1,0,0:0:0:0:
192,192,54575,1,0,0:0:0:0:
64,192,54575,1,0,0:0:0:0:
448,192,54575,1,0,0:0:0:0:
320,192,54654,1,0,0:0:0:0:
448,192,54812,1,0,0:0:0:0:
64,192,54891,1,0,0:0:0:0:
320,192,54891,1,0,0:0:0:0:
192,192,54891,1,0,0:0:0:0:
448,192,54891,1,0,0:0:0:0:
192,192,54970,1,0,0:0:0:0:
320,192,55049,1,0,0:0:0:0:
320,192,55128,1,0,0:0:0:0:
448,192,55207,1,0,0:0:0:0:
192,192,55207,1,0,0:0:0:0:
320,192,55207,1,0,0:0:0:0:
64,192,55207,1,0,0:0:0:0:
320,192,55365,1,0,0:0:0:0:
320,192,55444,1,0,0:0:0:0:
64,192,55523,1,0,0:0:0:0:
192,192,55523,1,0,0:0:0:0:
320,192,55523,1,0,0:0:0:0:
448,192,55523,1,0,0:0:0:0:
320,192,55602,1,0,0:0:0:0:
320,192,55760,1,0,0:0:0:0:
192,192,55839,1,0,0:0:0:0:
448,192,55839,1,0,0:0:0:0:
320,192,55839,1,0,0:0:0:0:
64,192,55839,1,0,0:0:0:0:
448,192,55918,1,0,0:0:0:0:
320,192,55997,1,0,0:0:0:0:
320,192,56076,1,0,0:0:0:0:
64,192,56155,1,0,0:0:0:0:
448,192,56155,1,0,0:0:0:0:
192,192,56155,1,0,0:0:0:0:
320,192,56155,1,0,0:0:0:0:
192,192,56234,1,0,0:0:0:0:
64,192,56313,1,0,0:0:0:0:
64,192,56392,1,0,0:0:0:0:
320,192,56472,1,0,0:0:0:0:
448,192,56472,1,0,0:0:0:0:
192,192,56472,1,0,0:0:0:0:
64,192,56472,1,0,0:0:0:0:
192,192,56630,1,0,0:0:0:0:
192,192,56709,1,0,0:0:0:0:
448,192,56788,1,0,0:0:0:0:
64,192,56788,1,0,0:0:0:0:
192,192,56788,1,0,0:0:0:0:
320,192,56788,1,0,0:0:0:0:
192,192,56867,1,0,0:0:0:0:
448,192,57025,1,0,0:0:0:0:
320,192,57104,1,0,0:0:0:0:
64,192,57104,1,0,0:0:0:0:
192,192,57104,1,0,0:0:0:0:
448,192,57104,1,0,0:0:0:0:
320,192,57183,1,0,0:0:0:0:
192,192,57341,1,0,0:0:0:0:
448,192,57420,1,0,0:0:0:0:
64,192,57420,1,0,0:0:0:0:
192,192,57420,1,0,0:0:0:0:
320,192,57420,1,0,0:0:0:0:
64,192,57578,1,0,0:0:0:0:
64,192,57657,1,0,0:0:0:0:
448,192,57736,1,0,0:0:0:0:
64,192,57736,1,0,0:0:0:0:
320,192,57736,1,0,0:0:0:0:
192,192,57736,1,0,0:0:0:0:
320,192,57894,1,0,0:0:0:0:
320,192,57973,1,0,0:0:0:0:
320,192,58052,1,0,0:0:0:0:
192,192,58052,1,0,0:0:0:0:
64,192,58052,1,0,0:0:0:0:
448,192,58052,1,0,0:0:0:0:
64,192,58131,1,0,0:0:0:0:
64,192,58289,1,0,0:0:0:0:
192,192,58368,1,0,0:0:0:0:
320,192,58368,1,0,0:0:0:0:
448,192,58368,1,0,0:0:0:0:
64,192,58368,1,0,0:0:0:0:
64,192,58447,1,0,0:0:0:0:
64,192,58605,1,0,0:0:0:0:
64,192,58684,1,0,0:0:0:0:
448,192,58684,1,0,0:0:0:0:
192,192,58684,1,0,0:0:0:0:
320,192,58684,1,0,0:0:0:0:
448,192,58763,1,0,0:0:0:0:
64,192,58842,1,0,0:0:0:0:
64,192,58921,1,0,0:0:0:0:
64,192,59001,1,0,0:0:0:0:
192,192,59001,1,0,0:0:0:0:
320,192,59001,1,0,0:0:0:0:
448,192,59001,1,0,0:0:0:0:
320,192,59159,1,0,0:0:0:0:
320,192,59238,1,0,0:0:0:0:
320,192,59317,1,0,0:0:0:0:
448,192,59317,1,0,0:0:0:0:
192,192,59317,1,0,0:0:0:0:
64,192,59317,1,0,0:0:0:0:
448,192,59396,1,0,0:0:0:0:
320,192,59554,1,0,0:0:0:0:
448,192,59633,1,0,0:0:0:0:
320,192,59633,1,0,0:0:0:0:
192,192,59633,1,0,0:0:0:0:
64,192,59633,1,0,0:0:0:0:
192,192,59712,1,0,0:0:0:0:
64,192,59870,1,0,0:0:0:0:
320,192,59949,1,0,0:0:0:0:
192,192,59949,1,0,0:0:0:0:
448,192,59949,1,0,0:0:0:0:
64,192,59949,1,0,0:0:0:0:
320,192,60028,1,0,0:0:0:0:
192,192,60107,1,0,0:0:0:0:
192,192,60186,1,0,0:0:0:0:
192,192,60265,1,0,0:0:0:0:
320,192,60265,1,0,0:0:0:0:
64,192,60265,1,0,0:0:0:0:
448,192,60265,1,0,0:0:0:0:
192,192,60423,1,0,0:0:0:0:
192,192,60502,1,0,0:0:0:0:
192,192,60581,1,0,0:0:0:0:
320,192,60581,1,0,0:0:0:0:
448,192,60581,1,0,0:0:0:0:
64,192,60581,1,0,0:0:0:0:
192,192,60660,1,0,0:0:0:0:
192,192,60818,1,0,0:0:0:0:
192,192,60897,1,0,0:0:0:0:
64,192,60897,1,0,0:0:0:0:
320,192,60897,1,0,0:0:0:0:
448,192,60897,1,0,0:0:0:0:
64,192,60976,1,0,0:0:0:0:
192,192,61055,1,0,0:0:0:0:
192,192,61134,1,0,0:0:0:0:
320,192,61213,1,0,0:0:0:0:
64,192,61213,1,0,0:0:0:0:
448,192,61213,1,0,0:0:0:0:
192,192,61213,1,0,0:0:0:0:
320,192,61292,1,0,0:0:0:0:
448,192,61371,1,0,0:0:0:0:
448,192,61450,1,0,0:0:0:0:
320,192,61529,1,0,0:0:0:0:
64,192,61529,1,0,0:0:0:0:
192,192,61529,1,0,0:0:0:0:
448,192,61529,1,0,0:0:0:0:
320,192,61688,1,0,0:0:0:0:
320,192,61767,1,0,0:0:0:0:
320,192,61846,1,0,0:0:0:0:
448,192,61846,1,0,0:0:0:0:
64,192,61846,1,0,0:0:0:0:
192,192,61846,1,0,0:0:0:0:
320,192,61925,1,0,0:0:0:0:
64,192,62083,1,0,0:0:0:0:
320,192,62162,1,0,0:0:0:0:
448,192,62162,1,0,0:0:0:0:
192,192,62162,1,0,0:0:0:0:
64,192,62162,1,0,0:0:0:0:
192,192,62241,1,0,0:0:0:0:
320,192,62399,1,0,0:0:0:0:
320,192,62478,1,0,0:0:0:0:
448,192,62478,1,0,0:0:0:0:
64,192,62478,1,0,0:0:0:0:
192,192,62478,1,0,0:0:0:0:
448,192,62636,1,0,0:0:0:0:
448,192,62715,1,0,0:0:0:0:
448,192,62794,1,0,0:0:0:0:
64,192,62794,1,0,0:0:0:0:
320,192,62794,1,0,0:0:0:0:
192,192,62794,1,0,0:0:0:0:
64,192,62873,1,0,0:0:0:0:
64,192,62952,1,0,0:0:0:0:
64,192,63031,1,0,0:0:0:0:
64,192,63110,1,0,0:0:0:0:
320,192,63110,1,0,0:0:0:0:
64,192,63189,1,0,0:0:0:0:
64,192,63268,1,0,0:0:0:0:
64,192,63347,1,0,0:0:0:0:
64,192,63426,1,0,0:0:0:0:
448,192,63426,1,0,0:0:0:0:
64,192,63505,1,0,0:0:0:0:
64,192,63584,1,0,0:0:0:0:
64,192,63663,1,0,0:0:0:0:
64,192,63742,1,0,0:0:0:0:
448,192,63742,1,0,0:0:0:0:
64,192,63821,1,0,0:0:0:0:
64,192,63900,1,0,0:0:0:0:
192,192,63900,1,0,0:0:0:0:
64,192,63979,1,0,0:0:0:0:
64,192,64058,1,0,0:0:0:0:
64,192,64137,1,0,0:0:0:0:
64,192,64217,1,0,0:0:0:0:
192,192,64217,1,0,0:0:0:0:
64,192,64296,1,0,0:0:0:0:
64,192,64375,1,0,0:0:0:0:
64,192,64454,1,0,0:0:0:0:
64,192,64533,1,0,0:0:0:0:
192,192,64533,1,0,0:0:0:0:
64,192,64612,1,0,0:0:0:0:
64,192,64691,1,0,0:0:0:0:
320,192,64691,1,0,0:0:0:0:
64,192,64770,1,0,0:0:0:0:
64,192,64849,1,0,0:0:0:0:
448,192,64849,1,0,0:0:0:0:
64,192,64928,1,0,0:0:0:0:
64,192,65007,1,0,0:0:0:0:
320,192,65007,1,0,0:0:0:0:
64,192,65086,1,0,0:0:0:0:
64,192,65165,1,0,0:0:0:0:
64,192,65244,1,0,0:0:0:0:
64,192,65323,1,0,0:0:0:0:
320,192,65323,1,0,0:0:0:0:
192,192,65323,1,0,0:0:0:0:
320,192,65402,1,0,0:0:0:0:
320,192,65481,1,0,0:0:0:0:
320,192,65560,1,0,0:0:0:0:
320,192,65639,1,0,0:0:0:0:
64,192,65639,1,0,0:0:0:0:
320,192,65718,1,0,0:0:0:0:
320,192,65797,1,0,0:0:0:0:
320,192,65876,1,0,0:0:0:0:
320,192,65955,1,0,0:0:0:0:
448,192,65955,1,0,0:0:0:0:
320,192,66034,1,0,0:0:0:0:
320,192,66113,1,0,0:0:0:0:
320,192,66192,1,0,0:0:0:0:
320,192,66271,1,0,0:0:0:0:
448,192,66271,1,0,0:0:0:0:
320,192,66350,1,0,0:0:0:0:
320,192,66429,1,0,0:0:0:0:
64,192,66429,1,0,0:0:0:0:
320,192,66508,1,0,0:0:0:0:
320,192,66587,1,0,0:0:0:0:
320,192,66666,1,0,0:0:0:0:
320,192,66745,1,0,0:0:0:0:
64,192,66745,1,0,0:0:0:0:
320,192,66825,1,0,0:0:0:0:
320,192,66904,1,0,0:0:0:0:
320,192,66983,1,0,0:0:0:0:
320,192,67062,1,0,0:0:0:0:
64,192,67062,1,0,0:0:0:0:
320,192,67141,1,0,0:0:0:0:
320,192,67220,1,0,0:0:0:0:
192,192,67220,1,0,0:0:0:0:
320,192,67299,1,0,0:0:0:0:
320,192,67378,1,0,0:0:0:0:
448,192,67378,1,0,0:0:0:0:
320,192,67457,1,0,0:0:0:0:
320,192,67536,1,0,0:0:0:0:
192,192,67536,1,0,0:0:0:0:
320,192,67615,1,0,0:0:0:0:
320,192,67694,1,0,0:0:0:0:
320,192,67773,1,0,0:0:0:0:
320,192,67852,1,0,0:0:0:0:
64,192,67852,1,0,0:0:0:0:
192,192,67852,1,0,0:0:0:0:
64,192,68168,1,0,0:0:0:0:
192,192,68484,1,0,0:0:0:0:
192,192,68800,1,0,0:0:0:0:
320,192,68958,1,0,0:0:0:0:
320,192,69274,1,0,0:0:0:0:
320,192,69591,1,0,0:0:0:0:
448,192,69749,1,0,0:0:0:0:
64,192,69907,1,0,0:0:0:0:
192,192,70065,1,0,0:0:0:0:
448,192,70381,1,0,0:0:0:0:
192,192,70697,1,0,0:0:0:0:
320,192,71013,1,0,0:0:0:0:
64,192,71329,1,0,0:0:0:0:
192,192,71487,1,0,0:0:0:0:
320,192,71645,1,0,0:0:0:0:
448,192,71645,1,0,0:0:0:0:
192,192,71803,1,0,0:0:0:0:
64,192,71962,1,0,0:0:0:0:
320,192,72120,1,0,0:0:0:0:
192,192,72278,1,0,0:0:0:0:
448,192,72436,1,0,0:0:0:0:
320,192,72594,1,0,0:0:0:0:
64,192,72752,1,0,0:0:0:0:
448,192,72752,1,0,0:0:0:0:
64,192,72831,1,0,0:0:0:0:
448,192,72831,1,0,0:0:0:0:
64,192,72910,1,0,0:0:0:0:
320,192,72910,1,0,0:0:0:0:
448,192,72910,1,0,0:0:0:0:
320,192,72989,1,0,0:0:0:0:
320,192,73068,1,0,0:0:0:0:
192,192,73068,1,0,0:0:0:0:
448,192,73226,1,0,0:0:0:0:
448,192,73305,1,0,0:0:0:0:
448,192,73384,1,0,0:0:0:0:
320,192,73384,1,0,0:0:0:0:
320,192,73542,1,0,0:0:0:0:
320,192,73621,1,0,0:0:0:0:
320,192,73700,1,0,0:0:0:0:
192,192,73700,1,0,0:0:0:0:
64,192,73858,1,0,0:0:0:0:
64,192,73937,1,0,0:0:0:0:
64,192,74016,1,0,0:0:0:0:
192,192,74016,1,0,0:0:0:0:
192,192,74174,1,0,0:0:0:0:
192,192,74253,1,0,0:0:0:0:
192,192,74332,1,0,0:0:0:0:
320,192,74332,1,0,0:0:0:0:
320,192,74490,1,0,0:0:0:0:
320,192,74570,1,0,0:0:0:0:
320,192,74649,1,0,0:0:0:0:
448,192,74649,1,0,0:0:0:0:
448,192,74807,1,0,0:0:0:0:
448,192,74886,1,0,0:0:0:0:
448,192,74965,1,0,0:0:0:0:
320,192,74965,1,0,0:0:0:0:
192,192,75123,1,0,0:0:0:0:
192,192,75202,1,0,0:0:0:0:
192,192,75281,1,0,0:0:0:0:
320,192,75281,1,0,0:0:0:0:
320,192,75439,1,0,0:0:0:0:
320,192,75518,1,0,0:0:0:0:
320,192,75597,1,0,0:0:0:0:
192,192,75597,1,0,0:0:0:0:
64,192,75755,1,0,0:0:0:0:
64,192,75834,1,0,0:0:0:0:
64,192,75913,1,0,0:0:0:0:
192,192,75913,1,0,0:0:0:0:
320,192,76071,1,0,0:0:0:0:
320,192,76150,1,0,0:0:0:0:
320,192,76229,1,0,0:0:0:0:
448,192,76229,1,0,0:0:0:0:
192,192,76387,1,0,0:0:0:0:
192,192,76466,1,0,0:0:0:0:
192,192,76545,1,0,0:0:0:0:
320,192,76545,1,0,0:0:0:0:
448,192,76703,1,0,0:0:0:0:
448,192,76782,1,0,0:0:0:0:
448,192,76861,1,0,0:0:0:0:
320,192,76861,1,0,0:0:0:0:
320,192,77019,1,0,0:0:0:0:
320,192,77098,1,0,0:0:0:0:
320,192,77178,1,0,0:0:0:0:
192,192,77178,1,0,0:0:0:0:
192,192,77336,1,0,0:0:0:0:
192,192,77415,1,0,0:0:0:0:
192,192,77494,1,0,0:0:0:0:
64,192,77494,1,0,0:0:0:0:
320,192,77652,1,0,0:0:0:0:
320,192,77731,1,0,0:0:0:0:
320,192,77810,1,0,0:0:0:0:
448,192,77810,1,0,0:0:0:0:
64,192,77968,1,0,0:0:0:0:
64,192,78047,1,0,0:0:0:0:
64,192,78126,1,0,0:0:0:0:
192,192,78126,1,0,0:0:0:0:
192,192,78284,1,0,0:0:0:0:
192,192,78363,1,0,0:0:0:0:
192,192,78442,1,0,0:0:0:0:
320,192,78442,1,0,0:0:0:0:
320,192,78600,1,0,0:0:0:0:
320,192,78679,1,0,0:0:0:0:
320,192,78758,1,0,0:0:0:0:
448,192,78758,1,0,0:0:0:0:
192,192,78916,1,0,0:0:0:0:
192,192,78995,1,0,0:0:0:0:
192,192,79074,1,0,0:0:0:0:
320,192,79074,1,0,0:0:0:0:
64,192,79232,1,0,0:0:0:0:
64,192,79311,1,0,0:0:0:0:
64,192,79390,1,0,0:0:0:0:
192,192,79390,1,0,0:0:0:0:
192,192,79548,1,0,0:0:0:0:
192,192,79627,1,0,0:0:0:0:
192,192,79707,1,0,0:0:0:0:
320,192,79707,1,0,0:0:0:0:
64,192,79865,1,0,0:0:0:0:
64,192,79944,1,0,0:0:0:0:
64,192,80023,1,0,0:0:0:0:
192,192,80023,1,0,0:0:0:0:
320,192,80181,1,0,0:0:0:0:
320,192,80260,1,0,0:0:0:0:
320,192,80339,1,0,0:0:0:0:
192,192,80339,1,0,0:0:0:0:
320,192,80497,1,0,0:0:0:0:
320,192,80576,1,0,0:0:0:0:
320,192,80655,1,0,0:0:0:0:
448,192,80655,1,0,0:0:0:0:
192,192,80813,1,0,0:0:0:0:
192,192,80892,1,0,0:0:0:0:
192,192,80971,1,0,0:0:0:0:
320,192,80971,1,0,0:0:0:0:
448,192,81129,1,0,0:0:0:0:
448,192,81208,1,0,0:0:0:0:
448,192,81287,1,0,0:0:0:0:
320,192,81287,1,0,0:0:0:0:
192,192,81445,1,0,0:0:0:0:
192,192,81524,1,0,0:0:0:0:
192,192,81603,1,0,0:0:0:0:
64,192,81603,1,0,0:0:0:0:
320,192,81761,1,0,0:0:0:0:
320,192,81840,1,0,0:0:0:0:
320,192,81919,1,0,0:0:0:0:
320,192,81998,1,0,0:0:0:0:
192,192,82077,1,0,0:0:0:0:
320,192,82077,1,0,0:0:0:0:
192,192,82156,1,0,0:0:0:0:
192,192,82235,1,0,0:0:0:0:
192,192,82315,1,0,0:0:0:0:
192,192,82394,1,0,0:0:0:0:
448,192,82394,1,0,0:0:0:0:
448,192,82473,1,0,0:0:0:0:
448,192,82552,1,0,0:0:0:0:
448,192,82631,1,0,0:0:0:0:
448,192,82710,1,0,0:0:0:0:
64,192,82710,1,0,0:0:0:0:
64,192,82789,1,0,0:0:0:0:
64,192,82868,1,0,0:0:0:0:
64,192,82947,1,0,0:0:0:0:
64,192,83026,1,0,0:0:0:0:
192,192,83026,1,0,0:0:0:0:
448,192,83026,1,0,0:0:0:0:
192,192,87610,5,0,0:0:0:0:
320,192,87610,1,0,0:0:0:0:
320,192,87689,1,0,0:0:0:0:
192,192,87689,1,0,0:0:0:0:
192,192,87768,1,0,0:0:0:0:
320,192,87768,1,0,0:0:0:0:
320,192,87847,1,0,0:0:0:0:
192,192,87847,1,0,0:0:0:0:
192,192,87926,1,0,0:0:0:0:
320,192,87926,1,0,0:0:0:0:
64,192,88084,1,0,0:0:0:0:
192,192,88084,1,0,0:0:0:0:
320,192,88084,1,0,0:0:0:0:
448,192,88084,1,0,0:0:0:0:
448,192,88163,1,0,0:0:0:0:
192,192,88163,1,0,0:0:0:0:
448,192,88242,1,0,0:0:0:0:
64,192,88242,1,0,0:0:0:0:
448,192,88321,1,0,0:0:0:0:
320,192,88321,1,0,0:0:0:0:
448,192,88400,1,0,0:0:0:0:
192,192,88400,1,0,0:0:0:0:
64,192,88400,1,0,0:0:0:0:
448,192,88479,1,0,0:0:0:0:
320,192,88479,1,0,0:0:0:0:
448,192,88558,1,0,0:0:0:0:
64,192,88558,1,0,0:0:0:0:
448,192,88637,1,0,0:0:0:0:
192,192,88637,1,0,0:0:0:0:
448,192,88716,1,0,0:0:0:0:
64,192,88716,1,0,0:0:0:0:
320,192,88716,1,0,0:0:0:0:
448,192,88795,1,0,0:0:0:0:
192,192,88795,1,0,0:0:0:0:
448,192,88874,1,0,0:0:0:0:
320,192,88874,1,0,0:0:0:0:
192,192,88874,1,0,0:0:0:0:
64,192,88874,1,0,0:0:0:0:
448,192,88953,1,0,0:0:0:0:
64,192,88953,1,0,0:0:0:0:
448,192,89032,1,0,0:0:0:0:
320,192,89032,1,0,0:0:0:0:
64,192,89032,1,0,0:0:0:0:
448,192,89111,1,0,0:0:0:0:
64,192,89111,1,0,0:0:0:0:
448,192,89190,1,0,0:0:0:0:
320,192,89190,1,0,0:0:0:0:
192,192,89190,1,0,0:0:0:0:
64,192,89190,1,0,0:0:0:0:
448,192,89269,1,0,0:0:0:0:
192,192,89269,1,0,0:0:0:0:
320,192,89348,1,0,0:0:0:0:
448,192,89348,1,0,0:0:0:0:
64,192,89348,1,0,0:0:0:0:
192,192,89348,1,0,0:0:0:0:
320,192,89427,1,0,0:0:0:0:
192,192,89427,1,0,0:0:0:0:
320,192,89506,1,0,0:0:0:0:
64,192,89506,1,0,0:0:0:0:
320,192,89585,1,0,0:0:0:0:
448,192,89585,1,0,0:0:0:0:
320,192,89664,1,0,0:0:0:0:
192,192,89664,1,0,0:0:0:0:
64,192,89664,1,0,0:0:0:0:
320,192,89743,1,0,0:0:0:0:
448,192,89743,1,0,0:0:0:0:
320,192,89822,1,0,0:0:0:0:
192,192,89822,1,0,0:0:0:0:
320,192,89901,1,0,0:0:0:0:
448,192,89901,1,0,0:0:0:0:
320,192,89980,1,0,0:0:0:0:
64,192,89980,1,0,0:0:0:0:
448,192,89980,1,0,0:0:0:0:
320,192,90060,1,0,0:0:0:0:
192,192,90060,1,0,0:0:0:0:
320,192,90139,1,0,0:0:0:0:
448,192,90139,1,0,0:0:0:0:
192,192,90139,1,0,0:0:0:0:
64,192,90139,1,0,0:0:0:0:
320,192,90218,1,0,0:0:0:0:
64,192,90218,1,0,0:0:0:0:
320,192,90297,1,0,0:0:0:0:
192,192,90297,1,0,0:0:0:0:
448,192,90297,1,0,0:0:0:0:
320,192,90376,1,0,0:0:0:0:
64,192,90376,1,0,0:0:0:0:
320,192,90455,1,0,0:0:0:0:
448,192,90455,1,0,0:0:0:0:
192,192,90455,1,0,0:0:0:0:
64,192,90455,1,0,0:0:0:0:
320,192,90534,1,0,0:0:0:0:
192,192,90534,1,0,0:0:0:0:
320,192,90613,1,0,0:0:0:0:
192,192,90613,1,0,0:0:0:0:
64,192,90613,1,0,0:0:0:0:
448,192,90613,1,0,0:0:0:0:
192,192,90692,1,0,0:0:0:0:
320,192,90692,1,0,0:0:0:0:
192,192,90771,1,0,0:0:0:0:
448,192,90771,1,0,0:0:0:0:
192,192,90850,1,0,0:0:0:0:
320,192,90850,1,0,0:0:0:0:
192,192,90929,1,0,0:0:0:0:
64,192,90929,1,0,0:0:0:0:
448,192,90929,1,0,0:0:0:0:
192,192,91008,1,0,0:0:0:0:
448,192,91008,1,0,0:0:0:0:
192,192,91087,1,0,0:0:0:0:
320,192,91087,1,0,0:0:0:0:
192,192,91166,1,0,0:0:0:0:
64,192,91166,1,0,0:0:0:0:
192,192,91245,1,0,0:0:0:0:
448,192,91245,1,0,0:0:0:0:
320,192,91245,1,0,0:0:0:0:
192,192,91324,1,0,0:0:0:0:
64,192,91324,1,0,0:0:0:0:
192,192,91403,1,0,0:0:0:0:
320,192,91403,1,0,0:0:0:0:
448,192,91403,1,0,0:0:0:0:
64,192,91403,1,0,0:0:0:0:
192,192,91482,1,0,0:0:0:0:
448,192,91482,1,0,0:0:0:0:
192,192,91561,1,0,0:0:0:0:
64,192,91561,1,0,0:0:0:0:
320,192,91561,1,0,0:0:0:0:
192,192,91640,1,0,0:0:0:0:
448,192,91640,1,0,0:0:0:0:
192,192,91719,1,0,0:0:0:0:
64,192,91719,1,0,0:0:0:0:
320,192,91719,1,0,0:0:0:0:
448,192,91719,1,0,0:0:0:0:
192,192,91798,1,0,0:0:0:0:
448,192,91798,1,0,0:0:0:0:
64,192,91877,1,0,0:0:0:0:
192,192,91877,1,0,0:0:0:0:
320,192,91877,1,0,0:0:0:0:
448,192,91877,1,0,0:0:0:0:
64,192,91956,1,0,0:0:0:0:
192,192,91956,1,0,0:0:0:0:
64,192,92035,1,0,0:0:0:0:
320,192,92035,1,0,0:0:0:0:
64,192,92114,1,0,0:0:0:0:
448,192,92114,1,0,0:0:0:0:
64,192,92193,1,0,0:0:0:0:
192,192,92193,1,0,0:0:0:0:
320,192,92193,1,0,0:0:0:0:
448,192,92193,1,0,0:0:0:0:
64,192,92272,1,0,0:0:0:0:
192,192,92272,1,0,0:0:0:0:
64,192,92351,1,0,0:0:0:0:
320,192,92351,1,0,0:0:0:0:
64,192,92430,1,0,0:0:0:0:
448,192,92430,1,0,0:0:0:0:
64,192,92509,1,0,0:0:0:0:
192,192,92509,1,0,0:0:0:0:
320,192,92509,1,0,0:0:0:0:
448,192,92509,1,0,0:0:0:0:
64,192,92588,1,0,0:0:0:0:
320,192,92588,1,0,0:0:0:0:
64,192,92668,1,0,0:0:0:0:
448,192,92668,1,0,0:0:0:0:
320,192,92668,1,0,0:0:0:0:
192,192,92668,1,0,0:0:0:0:
64,192,92747,1,0,0:0:0:0:
448,192,92747,1,0,0:0:0:0:
64,192,92826,1,0,0:0:0:0:
320,192,92826,1,0,0:0:0:0:
192,192,92826,1,0,0:0:0:0:
64,192,92905,1,0,0:0:0:0:
192,192,92905,1,0,0:0:0:0:
64,192,92984,1,0,0:0:0:0:
320,192,92984,1,0,0:0:0:0:
64,192,93063,1,0,0:0:0:0:
192,192,93063,1,0,0:0:0:0:
64,192,93142,1,0,0:0:0:0:
448,192,93142,1,0,0:0:0:0:
320,192,93142,1,0,0:0:0:0:
192,192,93142,1,0,0:0:0:0:
448,192,93221,1,0,0:0:0:0:
192,192,93221,1,0,0:0:0:0:
448,192,93300,1,0,0:0:0:0:
64,192,93300,1,0,0:0:0:0:
448,192,93379,1,0,0:0:0:0:
320,192,93379,1,0,0:0:0:0:
448,192,93458,1,0,0:0:0:0:
192,192,93458,1,0,0:0:0:0:
64,192,93458,1,0,0:0:0:0:
448,192,93537,1,0,0:0:0:0:
320,192,93537,1,0,0:0:0:0:
448,192,93616,1,0,0:0:0:0:
64,192,93616,1,0,0:0:0:0:
448,192,93695,1,0,0:0:0:0:
192,192,93695,1,0,0:0:0:0:
448,192,93774,1,0,0:0:0:0:
64,192,93774,1,0,0:0:0:0:
320,192,93774,1,0,0:0:0:0:
448,192,93853,1,0,0:0:0:0:
448,192,93932,1,0,0:0:0:0:
320,192,93932,1,0,0:0:0:0:
192,192,93932,1,0,0:0:0:0:
64,192,93932,1,0,0:0:0:0:
448,192,94011,1,0,0:0:0:0:
192,192,94011,1,0,0:0:0:0:
448,192,94090,1,0,0:0:0:0:
320,192,94090,1,0,0:0:0:0:
64,192,94090,1,0,0:0:0:0:
448,192,94169,1,0,0:0:0:0:
192,192,94169,1,0,0:0:0:0:
448,192,94248,1,0,0:0:0:0:
64,192,94248,1,0,0:0:0:0:
320,192,94248,1,0,0:0:0:0:
192,192,94248,1,0,0:0:0:0:
448,192,94327,1,0,0:0:0:0:
192,192,94327,1,0,0:0:0:0:
192,192,94406,1,0,0:0:0:0:
64,192,94406,1,0,0:0:0:0:
320,192,94406,1,0,0:0:0:0:
448,192,94406,1,0,0:0:0:0:
320,192,94485,1,0,0:0:0:0:
448,192,94485,1,0,0:0:0:0:
320,192,94564,1,0,0:0:0:0:
192,192,94564,1,0,0:0:0:0:
320,192,94643,1,0,0:0:0:0:
448,192,94643,1,0,0:0:0:0:
320,192,94722,1,0,0:0:0:0:
64,192,94722,1,0,0:0:0:0:
192,192,94722,1,0,0:0:0:0:
320,192,94801,1,0,0:0:0:0:
448,192,94801,1,0,0:0:0:0:
320,192,94880,1,0,0:0:0:0:
192,192,94880,1,0,0:0:0:0:
320,192,94959,1,0,0:0:0:0:
64,192,94959,1,0,0:0:0:0:
320,192,95038,1,0,0:0:0:0:
448,192,95038,1,0,0:0:0:0:
192,192,95038,1,0,0:0:0:0:
320,192,95117,1,0,0:0:0:0:
64,192,95117,1,0,0:0:0:0:
320,192,95196,1,0,0:0:0:0:
192,192,95196,1,0,0:0:0:0:
448,192,95196,1,0,0:0:0:0:
64,192,95196,1,0,0:0:0:0:
320,192,95276,1,0,0:0:0:0:
192,192,95276,1,0,0:0:0:0:
320,192,95355,1,0,0:0:0:0:
64,192,95355,1,0,0:0:0:0:
448,192,95355,1,0,0:0:0:0:
320,192,95434,1,0,0:0:0:0:
448,192,95434,1,0,0:0:0:0:
320,192,95513,1,0,0:0:0:0:
448,192,95513,1,0,0:0:0:0:
192,192,95513,1,0,0:0:0:0:
64,192,95513,1,0,0:0:0:0:
320,192,95592,1,0,0:0:0:0:
192,192,95592,1,0,0:0:0:0:
192,192,95671,1,0,0:0:0:0:
64,192,95671,1,0,0:0:0:0:
320,192,95671,1,0,0:0:0:0:
448,192,95671,1,0,0:0:0:0:
192,192,95750,1,0,0:0:0:0:
320,192,95750,1,0,0:0:0:0:
192,192,95829,1,0,0:0:0:0:
448,192,95829,1,0,0:0:0:0:
192,192,95908,1,0,0:0:0:0:
320,192,95908,1,0,0:0:0:0:
192,192,95987,1,0,0:0:0:0:
64,192,95987,1,0,0:0:0:0:
448,192,95987,1,0,0:0:0:0:
192,192,96066,1,0,0:0:0:0:
320,192,96066,1,0,0:0:0:0:
192,192,96145,1,0,0:0:0:0:
448,192,96145,1,0,0:0:0:0:
192,192,96224,1,0,0:0:0:0:
320,192,96224,1,0,0:0:0:0:
192,192,96303,1,0,0:0:0:0:
320,192,96303,1,0,0:0:0:0:
448,192,96303,1,0,0:0:0:0:
64,192,96303,1,0,0:0:0:0:
192,192,96382,1,0,0:0:0:0:
64,192,96382,1,0,0:0:0:0:
192,192,96461,1,0,0:0:0:0:
320,192,96461,1,0,0:0:0:0:
192,192,96540,1,0,0:0:0:0:
64,192,96540,1,0,0:0:0:0:
192,192,96619,1,0,0:0:0:0:
320,192,96619,1,0,0:0:0:0:
448,192,96619,1,0,0:0:0:0:
192,192,96698,1,0,0:0:0:0:
320,192,96698,1,0,0:0:0:0:
64,192,96777,1,0,0:0:0:0:
192,192,96777,1,0,0:0:0:0:
448,192,96856,1,0,0:0:0:0:
320,192,96856,1,0,0:0:0:0:
64,192,96935,1,0,0:0:0:0:
192,192,96935,1,0,0:0:0:0:
320,192,96935,1,0,0:0:0:0:
448,192,96935,1,0,0:0:0:0:
64,192,97014,1,0,0:0:0:0:
192,192,97014,1,0,0:0:0:0:
320,192,97014,1,0,0:0:0:0:
448,192,97014,1,0,0:0:0:0:
64,192,97093,1,0,0:0:0:0:
192,192,97093,1,0,0:0:0:0:
320,192,97093,1,0,0:0:0:0:
448,192,97093,1,0,0:0:0:0:
64,192,97172,1,0,0:0:0:0:
320,192,97172,1,0,0:0:0:0:
448,192,97172,1,0,0:0:0:0:
192,192,97172,1,0,0:0:0:0:
64,192,97251,1,0,0:0:0:0:
192,192,97251,1,0,0:0:0:0:
320,192,97251,1,0,0:0:0:0:
448,192,97251,1,0,0:0:0:0:
64,192,97330,1,0,0:0:0:0:
448,192,97330,1,0,0:0:0:0:
320,192,97330,1,0,0:0:0:0:
192,192,97330,1,0,0:0:0:0:
64,192,97409,1,0,0:0:0:0:
192,192,97409,1,0,0:0:0:0:
320,192,97409,1,0,0:0:0:0:
448,192,97409,1,0,0:0:0:0:
64,192,97488,1,0,0:0:0:0:
448,192,97488,1,0,0:0:0:0:
320,192,97488,1,0,0:0:0:0:
192,192,97488,1,0,0:0:0:0:
64,192,97567,1,0,0:0:0:0:
192,192,97567,1,0,0:0:0:0:
320,192,97567,1,0,0:0:0:0:
448,192,97567,1,0,0:0:0:0:
64,192,97646,1,0,0:0:0:0:
448,192,97646,1,0,0:0:0:0:
320,192,97646,1,0,0:0:0:0:
192,192,97646,1,0,0:0:0:0:
64,192,97725,1,0,0:0:0:0:
192,192,97725,1,0,0:0:0:0:
320,192,97725,1,0,0:0:0:0:
448,192,97725,1,0,0:0:0:0:
64,192,97805,1,0,0:0:0:0:
448,192,97805,1,0,0:0:0:0:
320,192,97805,1,0,0:0:0:0:
192,192,97805,1,0,0:0:0:0:
64,192,97884,1,0,0:0:0:0:
192,192,97884,1,0,0:0:0:0:
320,192,97884,1,0,0:0:0:0:
448,192,97884,1,0,0:0:0:0:
64,192,97963,1,0,0:0:0:0:
320,192,97963,1,0,0:0:0:0:
192,192,97963,1,0,0:0:0:0:
448,192,97963,1,0,0:0:0:0:
64,192,98042,1,0,0:0:0:0:
448,192,98042,1,0,0:0:0:0:
320,192,98042,1,0,0:0:0:0:
192,192,98042,1,0,0:0:0:0:
64,192,98121,1,0,0:0:0:0:
192,192,98121,1,0,0:0:0:0:
320,192,98121,1,0,0:0:0:0:
448,192,98121,1,0,0:0:0:0:
64,192,98200,1,0,0:0:0:0:
192,192,98200,1,0,0:0:0:0:
320,192,98200,1,0,0:0:0:0:
448,192,98200,1,0,0:0:0:0:
448,192,98279,1,0,0:0:0:0:
192,192,98279,1,0,0:0:0:0:
448,192,98358,1,0,0:0:0:0:
64,192,98358,1,0,0:0:0:0:
448,192,98437,1,0,0:0:0:0:
320,192,98437,1,0,0:0:0:0:
448,192,98516,1,0,0:0:0:0:
192,192,98516,1,0,0:0:0:0:
64,192,98516,1,0,0:0:0:0:
448,192,98595,1,0,0:0:0:0:
320,192,98595,1,0,0:0:0:0:
448,192,98674,1,0,0:0:0:0:
64,192,98674,1,0,0:0:0:0:
448,192,98753,1,0,0:0:0:0:
192,192,98753,1,0,0:0:0:0:
448,192,98832,1,0,0:0:0:0:
64,192,98832,1,0,0:0:0:0:
320,192,98832,1,0,0:0:0:0:
448,192,98911,1,0,0:0:0:0:
192,192,98911,1,0,0:0:0:0:
448,192,98990,1,0,0:0:0:0:
320,192,98990,1,0,0:0:0:0:
192,192,98990,1,0,0:0:0:0:
64,192,98990,1,0,0:0:0:0:
448,192,99069,1,0,0:0:0:0:
64,192,99069,1,0,0:0:0:0:
448,192,99148,1,0,0:0:0:0:
320,192,99148,1,0,0:0:0:0:
64,192,99148,1,0,0:0:0:0:
448,192,99227,1,0,0:0:0:0:
64,192,99227,1,0,0:0:0:0:
448,192,99306,1,0,0:0:0:0:
320,192,99306,1,0,0:0:0:0:
192,192,99306,1,0,0:0:0:0:
64,192,99306,1,0,0:0:0:0:
448,192,99385,1,0,0:0:0:0:
192,192,99385,1,0,0:0:0:0:
320,192,99464,1,0,0:0:0:0:
448,192,99464,1,0,0:0:0:0:
64,192,99464,1,0,0:0:0:0:
192,192,99464,1,0,0:0:0:0:
320,192,99543,1,0,0:0:0:0:
192,192,99543,1,0,0:0:0:0:
320,192,99622,1,0,0:0:0:0:
64,192,99622,1,0,0:0:0:0:
320,192,99701,1,0,0:0:0:0:
448,192,99701,1,0,0:0:0:0:
320,192,99780,1,0,0:0:0:0:
192,192,99780,1,0,0:0:0:0:
64,192,99780,1,0,0:0:0:0:
320,192,99859,1,0,0:0:0:0:
448,192,99859,1,0,0:0:0:0:
320,192,99938,1,0,0:0:0:0:
192,192,99938,1,0,0:0:0:0:
320,192,100017,1,0,0:0:0:0:
448,192,100017,1,0,0:0:0:0:
320,192,100096,1,0,0:0:0:0:
64,192,100096,1,0,0:0:0:0:
448,192,100096,1,0,0:0:0:0:
320,192,100175,1,0,0:0:0:0:
192,192,100175,1,0,0:0:0:0:
320,192,100254,1,0,0:0:0:0:
448,192,100254,1,0,0:0:0:0:
192,192,100254,1,0,0:0:0:0:
64,192,100254,1,0,0:0:0:0:
320,192,100333,1,0,0:0:0:0:
64,192,100333,1,0,0:0:0:0:
320,192,100413,1,0,0:0:0:0:
192,192,100413,1,0,0:0:0:0:
448,192,100413,1,0,0:0:0:0:
320,192,100492,1,0,0:0:0:0:
64,192,100492,1,0,0:0:0:0:
320,192,100571,1,0,0:0:0:0:
448,192,100571,1,0,0:0:0:0:
192,192,100571,1,0,0:0:0:0:
64,192,100571,1,0,0:0:0:0:
320,192,100650,1,0,0:0:0:0:
192,192,100650,1,0,0:0:0:0:
320,192,100729,1,0,0:0:0:0:
192,192,100729,1,0,0:0:0:0:
64,192,100729,1,0,0:0:0:0:
448,192,100729,1,0,0:0:0:0:
192,192,100808,1,0,0:0:0:0:
320,192,100808,1,0,0:0:0:0:
192,192,100887,1,0,0:0:0:0:
448,192,100887,1,0,0:0:0:0:
192,192,100966,1,0,0:0:0:0:
320,192,100966,1,0,0:0:0:0:
192,192,101045,1,0,0:0:0:0:
64,192,101045,1,0,0:0:0:0:
448,192,101045,1,0,0:0:0:0:
192,192,101124,1,0,0:0:0:0:
448,192,101124,1,0,0:0:0:0:
192,192,101203,1,0,0:0:0:0:
320,192,101203,1,0,0:0:0:0:
192,192,101282,1,0,0:0:0:0:
64,192,101282,1,0,0:0:0:0:
192,192,101361,1,0,0:0:0:0:
448,192,101361,1,0,0:0:0:0:
320,192,101361,1,0,0:0:0:0:
192,192,101440,1,0,0:0:0:0:
64,192,101440,1,0,0:0:0:0:
192,192,101519,1,0,0:0:0:0:
320,192,101519,1,0,0:0:0:0:
448,192,101519,1,0,0:0:0:0:
64,192,101519,1,0,0:0:0:0:
192,192,101598,1,0,0:0:0:0:
448,192,101598,1,0,0:0:0:0:
192,192,101677,1,0,0:0:0:0:
64,192,101677,1,0,0:0:0:0:
320,192,101677,1,0,0:0:0:0:
192,192,101756,1,0,0:0:0:0:
448,192,101756,1,0,0:0:0:0:
192,192,101835,1,0,0:0:0:0:
64,192,101835,1,0,0:0:0:0:
320,192,101835,1,0,0:0:0:0:
448,192,101835,1,0,0:0:0:0:
192,192,101914,1,0,0:0:0:0:
448,192,101914,1,0,0:0:0:0:
64,192,101993,1,0,0:0:0:0:
192,192,101993,1,0,0:0:0:0:
320,192,101993,1,0,0:0:0:0:
448,192,101993,1,0,0:0:0:0:
64,192,102072,1,0,0:0:0:0:
192,192,102072,1,0,0:0:0:0:
64,192,102151,1,0,0:0:0:0:
320,192,102151,1,0,0:0:0:0:
64,192,102230,1,0,0:0:0:0:
448,192,102230,1,0,0:0:0:0:
64,192,102309,1,0,0:0:0:0:
192,192,102309,1,0,0:0:0:0:
320,192,102309,1,0,0:0:0:0:
448,192,102309,1,0,0:0:0:0:
64,192,102388,1,0,0:0:0:0:
192,192,102388,1,0,0:0:0:0:
64,192,102467,1,0,0:0:0:0:
320,192,102467,1,0,0:0:0:0:
64,192,102546,1,0,0:0:0:0:
448,192,102546,1,0,0:0:0:0:
64,192,102625,1,0,0:0:0:0:
192,192,102625,1,0,0:0:0:0:
320,192,102625,1,0,0:0:0:0:
448,192,102625,1,0,0:0:0:0:
64,192,102704,1,0,0:0:0:0:
320,192,102704,1,0,0:0:0:0:
64,192,102783,1,0,0:0:0:0:
448,192,102783,1,0,0:0:0:0:
320,192,102783,1,0,0:0:0:0:
192,192,102783,1,0,0:0:0:0:
64,192,102862,1,0,0:0:0:0:
448,192,102862,1,0,0:0:0:0:
64,192,102941,1,0,0:0:0:0:
320,192,102941,1,0,0:0:0:0:
192,192,102941,1,0,0:0:0:0:
64,192,103021,1,0,0:0:0:0:
192,192,103021,1,0,0:0:0:0:
64,192,103100,1,0,0:0:0:0:
320,192,103100,1,0,0:0:0:0:
64,192,103179,1,0,0:0:0:0:
192,192,103179,1,0,0:0:0:0:
64,192,103258,1,0,0:0:0:0:
448,192,103258,1,0,0:0:0:0:
320,192,103258,1,0,0:0:0:0:
192,192,103258,1,0,0:0:0:0:
448,192,103337,1,0,0:0:0:0:
192,192,103337,1,0,0:0:0:0:
448,192,103416,1,0,0:0:0:0:
64,192,103416,1,0,0:0:0:0:
448,192,103495,1,0,0:0:0:0:
320,192,103495,1,0,0:0:0:0:
448,192,103574,1,0,0:0:0:0:
192,192,103574,1,0,0:0:0:0:
64,192,103574,1,0,0:0:0:0:
448,192,103653,1,0,0:0:0:0:
320,192,103653,1,0,0:0:0:0:
448,192,103732,1,0,0:0:0:0:
64,192,103732,1,0,0:0:0:0:
448,192,103811,1,0,0:0:0:0:
192,192,103811,1,0,0:0:0:0:
448,192,103890,1,0,0:0:0:0:
64,192,103890,1,0,0:0:0:0:
320,192,103890,1,0,0:0:0:0:
448,192,103969,1,0,0:0:0:0:
448,192,104048,1,0,0:0:0:0:
320,192,104048,1,0,0:0:0:0:
192,192,104048,1,0,0:0:0:0:
64,192,104048,1,0,0:0:0:0:
448,192,104127,1,0,0:0:0:0:
192,192,104127,1,0,0:0:0:0:
448,192,104206,1,0,0:0:0:0:
320,192,104206,1,0,0:0:0:0:
64,192,104206,1,0,0:0:0:0:
448,192,104285,1,0,0:0:0:0:
192,192,104285,1,0,0:0:0:0:
448,192,104364,1,0,0:0:0:0:
64,192,104364,1,0,0:0:0:0:
320,192,104364,1,0,0:0:0:0:
192,192,104364,1,0,0:0:0:0:
448,192,104443,1,0,0:0:0:0:
192,192,104443,1,0,0:0:0:0:
192,192,104522,1,0,0:0:0:0:
64,192,104522,1,0,0:0:0:0:
320,192,104522,1,0,0:0:0:0:
448,192,104522,1,0,0:0:0:0:
320,192,104601,1,0,0:0:0:0:
448,192,104601,1,0,0:0:0:0:
320,192,104680,1,0,0:0:0:0:
192,192,104680,1,0,0:0:0:0:
320,192,104759,1,0,0:0:0:0:
448,192,104759,1,0,0:0:0:0:
320,192,104838,1,0,0:0:0:0:
64,192,104838,1,0,0:0:0:0:
192,192,104838,1,0,0:0:0:0:
320,192,104917,1,0,0:0:0:0:
448,192,104917,1,0,0:0:0:0:
320,192,104996,1,0,0:0:0:0:
192,192,104996,1,0,0:0:0:0:
320,192,105075,1,0,0:0:0:0:
64,192,105075,1,0,0:0:0:0:
320,192,105154,1,0,0:0:0:0:
448,192,105154,1,0,0:0:0:0:
192,192,105154,1,0,0:0:0:0:
320,192,105233,1,0,0:0:0:0:
64,192,105233,1,0,0:0:0:0:
320,192,105312,1,0,0:0:0:0:
192,192,105312,1,0,0:0:0:0:
448,192,105312,1,0,0:0:0:0:
64,192,105312,1,0,0:0:0:0:
320,192,105391,1,0,0:0:0:0:
192,192,105391,1,0,0:0:0:0:
320,192,105470,1,0,0:0:0:0:
64,192,105470,1,0,0:0:0:0:
448,192,105470,1,0,0:0:0:0:
320,192,105550,1,0,0:0:0:0:
448,192,105550,1,0,0:0:0:0:
320,192,105629,1,0,0:0:0:0:
448,192,105629,1,0,0:0:0:0:
192,192,105629,1,0,0:0:0:0:
64,192,105629,1,0,0:0:0:0:
320,192,105708,1,0,0:0:0:0:
192,192,105708,1,0,0:0:0:0:
192,192,105787,1,0,0:0:0:0:
64,192,105787,1,0,0:0:0:0:
320,192,105787,1,0,0:0:0:0:
448,192,105787,1,0,0:0:0:0:
192,192,105866,1,0,0:0:0:0:
320,192,105866,1,0,0:0:0:0:
192,192,105945,1,0,0:0:0:0:
448,192,105945,1,0,0:0:0:0:
192,192,106024,1,0,0:0:0:0:
320,192,106024,1,0,0:0:0:0:
192,192,106103,1,0,0:0:0:0:
64,192,106103,1,0,0:0:0:0:
448,192,106103,1,0,0:0:0:0:
192,192,106182,1,0,0:0:0:0:
320,192,106182,1,0,0:0:0:0:
192,192,106261,1,0,0:0:0:0:
448,192,106261,1,0,0:0:0:0:
192,192,106340,1,0,0:0:0:0:
320,192,106340,1,0,0:0:0:0:
192,192,106419,1,0,0:0:0:0:
320,192,106419,1,0,0:0:0:0:
448,192,106419,1,0,0:0:0:0:
64,192,106419,1,0,0:0:0:0:
192,192,106498,1,0,0:0:0:0:
64,192,106498,1,0,0:0:0:0:
192,192,106577,1,0,0:0:0:0:
320,192,106577,1,0,0:0:0:0:
192,192,106656,1,0,0:0:0:0:
64,192,106656,1,0,0:0:0:0:
192,192,106735,1,0,0:0:0:0:
320,192,106735,1,0,0:0:0:0:
448,192,106735,1,0,0:0:0:0:
192,192,106814,1,0,0:0:0:0:
320,192,106814,1,0,0:0:0:0:
320,192,106893,1,0,0:0:0:0:
448,192,106893,1,0,0:0:0:0:
192,192,106972,1,0,0:0:0:0:
64,192,106972,1,0,0:0:0:0:
64,192,107051,1,0,0:0:0:0:
192,192,107051,1,0,0:0:0:0:
320,192,107051,1,0,0:0:0:0:
448,192,107051,1,0,0:0:0:0:
64,192,107130,1,0,0:0:0:0:
192,192,107130,1,0,0:0:0:0:
320,192,107130,1,0,0:0:0:0:
448,192,107130,1,0,0:0:0:0:
64,192,107209,1,0,0:0:0:0:
192,192,107209,1,0,0:0:0:0:
320,192,107209,1,0,0:0:0:0:
448,192,107209,1,0,0:0:0:0:
64,192,107288,1,0,0:0:0:0:
320,192,107288,1,0,0:0:0:0:
448,192,107288,1,0,0:0:0:0:
192,192,107288,1,0,0:0:0:0:
64,192,107367,1,0,0:0:0:0:
192,192,107367,1,0,0:0:0:0:
320,192,107367,1,0,0:0:0:0:
448,192,107367,1,0,0:0:0:0:
64,192,107446,1,0,0:0:0:0:
448,192,107446,1,0,0:0:0:0:
320,192,107446,1,0,0:0:0:0:
192,192,107446,1,0,0:0:0:0:
64,192,107525,1,0,0:0:0:0:
192,192,107525,1,0,0:0:0:0:
320,192,107525,1,0,0:0:0:0:
448,192,107525,1,0,0:0:0:0:
64,192,107604,1,0,0:0:0:0:
448,192,107604,1,0,0:0:0:0:
320,192,107604,1,0,0:0:0:0:
192,192,107604,1,0,0:0:0:0:
64,192,107683,1,0,0:0:0:0:
192,192,107683,1,0,0:0:0:0:
320,192,107683,1,0,0:0:0:0:
448,192,107683,1,0,0:0:0:0:
64,192,107762,1,0,0:0:0:0:
448,192,107762,1,0,0:0:0:0:
320,192,107762,1,0,0:0:0:0:
192,192,107762,1,0,0:0:0:0:
64,192,107841,1,0,0:0:0:0:
192,192,107841,1,0,0:0:0:0:
320,192,107841,1,0,0:0:0:0:
448,192,107841,1,0,0:0:0:0:
64,192,107920,1,0,0:0:0:0:
448,192,107920,1,0,0:0:0:0:
320,192,107920,1,0,0:0:0:0:
192,192,107920,1,0,0:0:0:0:
64,192,107999,1,0,0:0:0:0:
192,192,107999,1,0,0:0:0:0:
320,192,107999,1,0,0:0:0:0:
448,192,107999,1,0,0:0:0:0:
64,192,108078,1,0,0:0:0:0:
320,192,108078,1,0,0:0:0:0:
192,192,108078,1,0,0:0:0:0:
448,192,108078,1,0,0:0:0:0:
64,192,108158,1,0,0:0:0:0:
448,192,108158,1,0,0:0:0:0:
320,192,108158,1,0,0:0:0:0:
192,192,108158,1,0,0:0:0:0:
64,192,108237,1,0,0:0:0:0:
192,192,108237,1,0,0:0:0:0:
320,192,108237,1,0,0:0:0:0:
448,192,108237,1,0,0:0:0:0:
320,192,108316,1,0,0:0:0:0:
192,192,108316,1,0,0:0:0:0:
64,192,108316,1,0,0:0:0:0:
320,192,108395,1,0,0:0:0:0:
320,192,108474,1,0,0:0:0:0:
448,192,108474,1,0,0:0:0:0:
320,192,108553,1,0,0:0:0:0:
320,192,108632,1,0,0:0:0:0:
64,192,108632,1,0,0:0:0:0:
192,192,108632,1,0,0:0:0:0:
320,192,108711,1,0,0:0:0:0:
320,192,108790,1,0,0:0:0:0:
64,192,108790,1,0,0:0:0:0:
320,192,108869,1,0,0:0:0:0:
320,192,108948,1,0,0:0:0:0:
448,192,108948,1,0,0:0:0:0:
192,192,108948,1,0,0:0:0:0:
320,192,109027,1,0,0:0:0:0:
320,192,109106,1,0,0:0:0:0:
64,192,109106,1,0,0:0:0:0:
320,192,109185,1,0,0:0:0:0:
320,192,109264,1,0,0:0:0:0:
192,192,109264,1,0,0:0:0:0:
448,192,109264,1,0,0:0:0:0:
320,192,109343,1,0,0:0:0:0:
320,192,109422,1,0,0:0:0:0:
192,192,109422,1,0,0:0:0:0:
320,192,109501,1,0,0:0:0:0:
320,192,109580,1,0,0:0:0:0:
192,192,109580,1,0,0:0:0:0:
448,192,109580,1,0,0:0:0:0:
192,192,109659,1,0,0:0:0:0:
192,192,109738,1,0,0:0:0:0:
64,192,109738,1,0,0:0:0:0:
192,192,109817,1,0,0:0:0:0:
192,192,109896,1,0,0:0:0:0:
320,192,109896,1,0,0:0:0:0:
448,192,109896,1,0,0:0:0:0:
192,192,109975,1,0,0:0:0:0:
192,192,110054,1,0,0:0:0:0:
320,192,110054,1,0,0:0:0:0:
192,192,110133,1,0,0:0:0:0:
192,192,110212,1,0,0:0:0:0:
64,192,110212,1,0,0:0:0:0:
320,192,110212,1,0,0:0:0:0:
192,192,110291,1,0,0:0:0:0:
192,192,110370,1,0,0:0:0:0:
448,192,110370,1,0,0:0:0:0:
192,192,110449,1,0,0:0:0:0:
192,192,110528,1,0,0:0:0:0:
320,192,110528,1,0,0:0:0:0:
64,192,110528,1,0,0:0:0:0:
192,192,110607,1,0,0:0:0:0:
192,192,110686,1,0,0:0:0:0:
64,192,110686,1,0,0:0:0:0:
192,192,110766,1,0,0:0:0:0:
192,192,110845,1,0,0:0:0:0:
320,192,110845,1,0,0:0:0:0:
448,192,110845,1,0,0:0:0:0:
320,192,110924,1,0,0:0:0:0:
320,192,111003,1,0,0:0:0:0:
192,192,111003,1,0,0:0:0:0:
320,192,111082,1,0,0:0:0:0:
320,192,111161,1,0,0:0:0:0:
192,192,111161,1,0,0:0:0:0:
448,192,111161,1,0,0:0:0:0:
320,192,111240,1,0,0:0:0:0:
320,192,111319,1,0,0:0:0:0:
448,192,111319,1,0,0:0:0:0:
320,192,111398,1,0,0:0:0:0:
320,192,111477,1,0,0:0:0:0:
448,192,111477,1,0,0:0:0:0:
192,192,111477,1,0,0:0:0:0:
320,192,111556,1,0,0:0:0:0:
320,192,111635,1,0,0:0:0:0:
64,192,111635,1,0,0:0:0:0:
320,192,111714,1,0,0:0:0:0:
320,192,111793,1,0,0:0:0:0:
448,192,111793,1,0,0:0:0:0:
192,192,111793,1,0,0:0:0:0:
320,192,111872,1,0,0:0:0:0:
320,192,111951,1,0,0:0:0:0:
64,192,111951,1,0,0:0:0:0:
320,192,112030,1,0,0:0:0:0:
320,192,112109,5,0,0:0:0:0:
192,192,112109,1,0,0:0:0:0:
64,192,112109,1,0,0:0:0:0:
192,192,112188,1,0,0:0:0:0:
192,192,112267,1,0,0:0:0:0:
448,192,112267,1,0,0:0:0:0:
192,192,112346,1,0,0:0:0:0:
192,192,112425,1,0,0:0:0:0:
64,192,112425,1,0,0:0:0:0:
448,192,112425,1,0,0:0:0:0:
192,192,112504,1,0,0:0:0:0:
192,192,112583,1,0,0:0:0:0:
320,192,112583,1,0,0:0:0:0:
192,192,112662,1,0,0:0:0:0:
192,192,112741,1,0,0:0:0:0:
64,192,112741,1,0,0:0:0:0:
448,192,112741,1,0,0:0:0:0:
192,192,112820,1,0,0:0:0:0:
192,192,112899,1,0,0:0:0:0:
64,192,112899,1,0,0:0:0:0:
192,192,112978,1,0,0:0:0:0:
192,192,113057,1,0,0:0:0:0:
320,192,113057,1,0,0:0:0:0:
448,192,113057,1,0,0:0:0:0:
192,192,113136,1,0,0:0:0:0:
192,192,113215,1,0,0:0:0:0:
64,192,113215,1,0,0:0:0:0:
192,192,113294,1,0,0:0:0:0:
192,192,113374,1,0,0:0:0:0:
448,192,113374,1,0,0:0:0:0:
320,192,113374,1,0,0:0:0:0:
64,192,113374,1,0,0:0:0:0:
192,192,113453,1,0,0:0:0:0:
320,192,113532,1,0,0:0:0:0:
448,192,113611,1,0,0:0:0:0:
64,192,113690,1,0,0:0:0:0:
192,192,113690,1,0,0:0:0:0:
192,192,113769,1,0,0:0:0:0:
320,192,113848,1,0,0:0:0:0:
448,192,113927,1,0,0:0:0:0:
448,192,114006,1,0,0:0:0:0:
320,192,114085,1,0,0:0:0:0:
192,192,114164,1,0,0:0:0:0:
64,192,114243,1,0,0:0:0:0:
448,192,114322,1,0,0:0:0:0:
320,192,114322,1,0,0:0:0:0:
320,192,114401,1,0,0:0:0:0:
192,192,114480,1,0,0:0:0:0:
64,192,114559,1,0,0:0:0:0:
64,192,114638,1,0,0:0:0:0:
192,192,114717,1,0,0:0:0:0:
320,192,114796,1,0,0:0:0:0:
448,192,114875,1,0,0:0:0:0:
64,192,114954,1,0,0:0:0:0:
192,192,114954,1,0,0:0:0:0:
192,192,115033,1,0,0:0:0:0:
320,192,115112,1,0,0:0:0:0:
448,192,115191,1,0,0:0:0:0:
448,192,115270,1,0,0:0:0:0:
320,192,115349,1,0,0:0:0:0:
192,192,115428,1,0,0:0:0:0:
320,192,115428,1,0,0:0:0:0:
64,192,115507,1,0,0:0:0:0:
448,192,115586,1,0,0:0:0:0:
320,192,115586,1,0,0:0:0:0:
320,192,115665,1,0,0:0:0:0:
192,192,115744,1,0,0:0:0:0:
64,192,115823,1,0,0:0:0:0:
64,192,115903,1,0,0:0:0:0:
192,192,115982,1,0,0:0:0:0:
320,192,116061,1,0,0:0:0:0:
448,192,116140,1,0,0:0:0:0:
64,192,116219,1,0,0:0:0:0:
192,192,116219,1,0,0:0:0:0:
192,192,116298,1,0,0:0:0:0:
320,192,116377,1,0,0:0:0:0:
448,192,116456,1,0,0:0:0:0:
448,192,116535,1,0,0:0:0:0:
320,192,116614,1,0,0:0:0:0:
192,192,116693,1,0,0:0:0:0:
64,192,116772,1,0,0:0:0:0:
448,192,116851,1,0,0:0:0:0:
320,192,116851,1,0,0:0:0:0:
320,192,116930,1,0,0:0:0:0:
192,192,117009,1,0,0:0:0:0:
64,192,117088,1,0,0:0:0:0:
64,192,117167,1,0,0:0:0:0:
320,192,117167,1,0,0:0:0:0:
192,192,117246,1,0,0:0:0:0:
320,192,117325,1,0,0:0:0:0:
448,192,117404,1,0,0:0:0:0:
64,192,117483,1,0,0:0:0:0:
320,192,117483,1,0,0:0:0:0:
192,192,117562,1,0,0:0:0:0:
320,192,117641,1,0,0:0:0:0:
448,192,117720,1,0,0:0:0:0:
64,192,117799,1,0,0:0:0:0:
320,192,117799,1,0,0:0:0:0:
192,192,117878,1,0,0:0:0:0:
448,192,117957,1,0,0:0:0:0:
320,192,118036,1,0,0:0:0:0:
64,192,118115,1,0,0:0:0:0:
448,192,118115,1,0,0:0:0:0:
192,192,118194,1,0,0:0:0:0:
448,192,118273,1,0,0:0:0:0:
320,192,118352,1,0,0:0:0:0:
192,192,118431,1,0,0:0:0:0:
