osu file format v14

[General]
AudioFilename: angel_1.1.mp3
AudioLeadIn: 0
PreviewTime: -1
Countdown: 0
SampleSet: None
StackLeniency: 0.7
Mode: 3
LetterboxInBreaks: 0
SpecialStyle: 0
WidescreenStoryboard: 0

[Editor]
Bookmarks: 2732,9307,15882,22458,29033,35608,42184,48759,55334,61910,81636,88211,94786,107937,114512,121088,127663
DistanceSpacing: 1
BeatDivisor: 8
GridSize: 4
TimelineZoom: 2.1

[Metadata]
Title:angelic_layer
TitleUnicode:angelic_layer
Artist:Shiki
ArtistUnicode:Shiki
Creator:fufu-
Version:1.1
Source:
Tags:
BeatmapID:1415201
BeatmapSetID:669058

[Difficulty]
HPDrainRate:8
CircleSize:4
OverallDifficulty:9.3
ApproachRate:5
SliderMultiplier:1.4
SliderTickRate:1

[Events]
//Background and Video events
0,0,"title.jpg",0,0
//Break Periods
2,98291,102308
//Storyboard Layer 0 (Background)
//Storyboard Layer 1 (Fail)
//Storyboard Layer 2 (Pass)
//Storyboard Layer 3 (Foreground)
//Storyboard Sound Samples

[TimingPoints]
2450,373.59900373599,4,3,0,25,1,0

[HitObjects]
64,192,2450,5,4,0:0:0:0:
192,192,2450,1,0,0:0:0:0:
320,192,2450,1,0,0:0:0:0:
448,192,2450,1,0,0:0:0:0:
64,192,2543,1,0,0:0:0:0:
64,192,2636,1,2,0:0:0:0:
192,192,2636,1,0,0:0:0:0:
64,192,2730,1,0,0:0:0:0:
64,192,2823,1,8,0:0:0:0:
320,192,2823,1,0,0:0:0:0:
448,192,2823,1,0,0:0:0:0:
64,192,2916,1,0,0:0:0:0:
64,192,3010,1,2,0:0:0:0:
192,192,3010,1,0,0:0:0:0:
64,192,3103,1,0,0:0:0:0:
64,192,3197,1,8,0:0:0:0:
192,192,3197,1,0,0:0:0:0:
320,192,3197,1,0,0:0:0:0:
64,192,3290,1,0,0:0:0:0:
64,192,3383,1,2,0:0:0:0:
448,192,3383,1,0,0:0:0:0:
64,192,3477,1,0,0:0:0:0:
64,192,3570,1,8,0:0:0:0:
192,192,3570,1,0,0:0:0:0:
448,192,3570,1,0,0:0:0:0:
64,192,3664,1,0,0:0:0:0:
64,192,3757,1,2,0:0:0:0:
320,192,3757,1,0,0:0:0:0:
64,192,3850,1,0,0:0:0:0:
64,192,3944,1,8,0:0:0:0:
192,192,3944,1,0,0:0:0:0:
320,192,3944,1,0,0:0:0:0:
64,192,4037,1,0,0:0:0:0:
64,192,4131,1,2,0:0:0:0:
192,192,4131,1,0,0:0:0:0:
64,192,4224,1,0,0:0:0:0:
64,192,4317,1,8,0:0:0:0:
320,192,4317,1,0,0:0:0:0:
448,192,4317,1,0,0:0:0:0:
64,192,4411,1,0,0:0:0:0:
64,192,4504,1,2,0:0:0:0:
448,192,4504,1,0,0:0:0:0:
64,192,4598,1,0,0:0:0:0:
64,192,4691,1,8,0:0:0:0:
192,192,4691,1,0,0:0:0:0:
320,192,4691,1,0,0:0:0:0:
64,192,4784,1,0,0:0:0:0:
448,192,4784,1,0,0:0:0:0:
64,192,4878,1,2,0:0:0:0:
320,192,4878,1,0,0:0:0:0:
192,192,4878,1,0,0:0:0:0:
64,192,4971,1,0,0:0:0:0:
64,192,5065,1,8,0:0:0:0:
192,192,5065,1,0,0:0:0:0:
448,192,5065,1,0,0:0:0:0:
64,192,5158,1,0,0:0:0:0:
64,192,5251,1,2,0:0:0:0:
320,192,5251,1,0,0:0:0:0:
64,192,5345,1,0,0:0:0:0:
64,192,5438,1,8,0:0:0:0:
192,192,5438,1,0,0:0:0:0:
448,192,5438,1,0,0:0:0:0:
64,192,5532,1,0,0:0:0:0:
64,192,5625,1,2,0:0:0:0:
192,192,5625,1,0,0:0:0:0:
64,192,5718,1,0,0:0:0:0:
64,192,5812,1,8,0:0:0:0:
320,192,5812,1,0,0:0:0:0:
448,192,5812,1,0,0:0:0:0:
64,192,5905,1,0,0:0:0:0:
64,192,5999,1,2,0:0:0:0:
192,192,5999,1,0,0:0:0:0:
64,192,6092,1,0,0:0:0:0:
64,192,6185,1,8,0:0:0:0:
192,192,6185,1,0,0:0:0:0:
320,192,6185,1,0,0:0:0:0:
64,192,6279,1,0,0:0:0:0:
64,192,6372,1,2,0:0:0:0:
320,192,6372,1,0,0:0:0:0:
64,192,6466,1,0,0:0:0:0:
64,192,6559,1,8,0:0:0:0:
320,192,6559,1,0,0:0:0:0:
192,192,6559,1,0,0:0:0:0:
64,192,6652,1,0,0:0:0:0:
64,192,6746,1,2,0:0:0:0:
448,192,6746,1,0,0:0:0:0:
64,192,6839,1,0,0:0:0:0:
64,192,6933,1,8,0:0:0:0:
192,192,6933,1,0,0:0:0:0:
320,192,6933,1,0,0:0:0:0:
64,192,7026,1,0,0:0:0:0:
64,192,7119,1,2,0:0:0:0:
192,192,7119,1,0,0:0:0:0:
64,192,7213,1,0,0:0:0:0:
64,192,7306,1,8,0:0:0:0:
320,192,7306,1,0,0:0:0:0:
448,192,7306,1,0,0:0:0:0:
64,192,7400,1,0,0:0:0:0:
64,192,7493,1,2,0:0:0:0:
192,192,7493,1,0,0:0:0:0:
64,192,7586,1,0,0:0:0:0:
64,192,7680,1,2,0:0:0:0:
320,192,7680,1,0,0:0:0:0:
448,192,7680,1,0,0:0:0:0:
64,192,7773,1,8,0:0:0:0:
192,192,7773,1,0,0:0:0:0:
64,192,7867,1,8,0:0:0:0:
320,192,7867,1,0,0:0:0:0:
448,192,7867,1,0,0:0:0:0:
64,192,7960,1,0,0:0:0:0:
64,192,8053,1,8,0:0:0:0:
192,192,8053,1,0,0:0:0:0:
320,192,8053,1,0,0:0:0:0:
64,192,8147,1,0,0:0:0:0:
64,192,8240,1,2,0:0:0:0:
448,192,8240,1,0,0:0:0:0:
64,192,8334,1,0,0:0:0:0:
64,192,8427,1,8,0:0:0:0:
192,192,8427,1,0,0:0:0:0:
320,192,8427,1,0,0:0:0:0:
64,192,12910,1,0,0:0:0:0:
320,192,14405,1,0,0:0:0:0:
64,192,14405,1,0,0:0:0:0:
448,192,14405,1,0,0:0:0:0:
320,192,14498,1,0,0:0:0:0:
192,192,14498,1,0,0:0:0:0:
320,192,14591,1,0,0:0:0:0:
64,192,14591,1,0,0:0:0:0:
320,192,14685,1,0,0:0:0:0:
192,192,14685,1,0,0:0:0:0:
320,192,14778,1,0,0:0:0:0:
64,192,14778,1,0,0:0:0:0:
448,192,14778,1,0,0:0:0:0:
320,192,14872,1,0,0:0:0:0:
192,192,14872,1,0,0:0:0:0:
320,192,14965,1,0,0:0:0:0:
64,192,14965,1,0,0:0:0:0:
320,192,15058,1,0,0:0:0:0:
448,192,15058,1,0,0:0:0:0:
320,192,15152,1,0,0:0:0:0:
64,192,15152,1,0,0:0:0:0:
320,192,15245,1,0,0:0:0:0:
192,192,15245,1,0,0:0:0:0:
320,192,15339,1,0,0:0:0:0:
448,192,15339,1,0,0:0:0:0:
320,192,15432,1,0,0:0:0:0:
192,192,15432,1,0,0:0:0:0:
320,192,15525,1,0,0:0:0:0:
64,192,15525,1,0,0:0:0:0:
448,192,15525,1,0,0:0:0:0:
320,192,15619,1,0,0:0:0:0:
192,192,15619,1,0,0:0:0:0:
320,192,15712,1,0,0:0:0:0:
448,192,15712,1,0,0:0:0:0:
320,192,15806,1,0,0:0:0:0:
192,192,15806,1,0,0:0:0:0:
320,192,15899,1,0,0:0:0:0:
64,192,15899,1,0,0:0:0:0:
192,192,15899,1,0,0:0:0:0:
320,192,15992,1,0,0:0:0:0:
448,192,15992,1,0,0:0:0:0:
320,192,16086,1,0,0:0:0:0:
192,192,16086,1,0,0:0:0:0:
320,192,16179,1,0,0:0:0:0:
64,192,16179,1,0,0:0:0:0:
320,192,16273,1,0,0:0:0:0:
192,192,16273,1,0,0:0:0:0:
448,192,16273,1,0,0:0:0:0:
320,192,16366,1,0,0:0:0:0:
64,192,16366,1,0,0:0:0:0:
320,192,16459,1,0,0:0:0:0:
192,192,16459,1,0,0:0:0:0:
320,192,16553,1,0,0:0:0:0:
64,192,16553,1,0,0:0:0:0:
320,192,16646,1,0,0:0:0:0:
192,192,16646,1,0,0:0:0:0:
448,192,16646,1,0,0:0:0:0:
320,192,16740,1,0,0:0:0:0:
192,192,16740,1,0,0:0:0:0:
64,192,16740,1,0,0:0:0:0:
320,192,16833,1,0,0:0:0:0:
192,192,16833,1,0,0:0:0:0:
320,192,16926,1,0,0:0:0:0:
448,192,16926,1,0,0:0:0:0:
320,192,17020,1,0,0:0:0:0:
64,192,17020,1,0,0:0:0:0:
192,192,17020,1,0,0:0:0:0:
320,192,17113,1,0,0:0:0:0:
192,192,17113,1,0,0:0:0:0:
320,192,17207,1,0,0:0:0:0:
448,192,17207,1,0,0:0:0:0:
320,192,17300,1,0,0:0:0:0:
192,192,17300,1,0,0:0:0:0:
320,192,17393,1,0,0:0:0:0:
64,192,17393,1,0,0:0:0:0:
448,192,17393,1,0,0:0:0:0:
320,192,17487,1,0,0:0:0:0:
192,192,17487,1,0,0:0:0:0:
320,192,17580,1,0,0:0:0:0:
64,192,17580,1,0,0:0:0:0:
320,192,17674,1,0,0:0:0:0:
448,192,17674,1,0,0:0:0:0:
320,192,17767,1,0,0:0:0:0:
192,192,17767,1,0,0:0:0:0:
64,192,17767,1,0,0:0:0:0:
320,192,17860,1,0,0:0:0:0:
448,192,17860,1,0,0:0:0:0:
320,192,17954,1,0,0:0:0:0:
192,192,17954,1,0,0:0:0:0:
320,192,18047,1,0,0:0:0:0:
448,192,18047,1,0,0:0:0:0:
320,192,18141,1,0,0:0:0:0:
192,192,18141,1,0,0:0:0:0:
320,192,18234,1,0,0:0:0:0:
64,192,18234,1,0,0:0:0:0:
320,192,18327,1,0,0:0:0:0:
64,192,18327,1,0,0:0:0:0:
320,192,18421,1,0,0:0:0:0:
192,192,18421,1,0,0:0:0:0:
320,192,18514,1,0,0:0:0:0:
64,192,18514,1,0,0:0:0:0:
448,192,18514,1,0,0:0:0:0:
320,192,18608,1,0,0:0:0:0:
448,192,18608,1,0,0:0:0:0:
320,192,18701,1,0,0:0:0:0:
192,192,18701,1,0,0:0:0:0:
320,192,18794,1,0,0:0:0:0:
64,192,18794,1,0,0:0:0:0:
320,192,18888,1,0,0:0:0:0:
192,192,18888,1,0,0:0:0:0:
320,192,18981,1,0,0:0:0:0:
448,192,18981,1,0,0:0:0:0:
320,192,19075,1,0,0:0:0:0:
192,192,19075,1,0,0:0:0:0:
320,192,19168,1,0,0:0:0:0:
448,192,19168,1,0,0:0:0:0:
320,192,19261,1,0,0:0:0:0:
192,192,19261,1,0,0:0:0:0:
64,192,19261,1,0,0:0:0:0:
320,192,19355,1,0,0:0:0:0:
448,192,19355,1,0,0:0:0:0:
320,192,19448,1,0,0:0:0:0:
192,192,19448,1,0,0:0:0:0:
320,192,19542,1,0,0:0:0:0:
64,192,19542,1,0,0:0:0:0:
320,192,19635,1,0,0:0:0:0:
192,192,19635,1,0,0:0:0:0:
320,192,19728,1,0,0:0:0:0:
64,192,19728,1,0,0:0:0:0:
448,192,19728,1,0,0:0:0:0:
320,192,19822,1,0,0:0:0:0:
192,192,19822,1,0,0:0:0:0:
320,192,19915,1,0,0:0:0:0:
64,192,19915,1,0,0:0:0:0:
320,192,20009,1,0,0:0:0:0:
192,192,20009,1,0,0:0:0:0:
448,192,20009,1,0,0:0:0:0:
320,192,20102,1,0,0:0:0:0:
320,192,20195,1,0,0:0:0:0:
448,192,20195,1,0,0:0:0:0:
64,192,20195,1,0,0:0:0:0:
320,192,20289,1,0,0:0:0:0:
448,192,20289,1,0,0:0:0:0:
64,192,20289,1,0,0:0:0:0:
192,192,20382,1,0,0:0:0:0:
448,192,20382,1,0,0:0:0:0:
64,192,20382,1,0,0:0:0:0:
192,192,20476,1,0,0:0:0:0:
320,192,20476,1,0,0:0:0:0:
192,192,20569,1,0,0:0:0:0:
448,192,20569,1,0,0:0:0:0:
192,192,20662,1,0,0:0:0:0:
320,192,20662,1,0,0:0:0:0:
192,192,20756,1,0,0:0:0:0:
448,192,20756,1,0,0:0:0:0:
64,192,20756,1,0,0:0:0:0:
192,192,20849,1,0,0:0:0:0:
320,192,20849,1,0,0:0:0:0:
192,192,20943,1,0,0:0:0:0:
448,192,20943,1,0,0:0:0:0:
192,192,21036,1,0,0:0:0:0:
64,192,21036,1,0,0:0:0:0:
192,192,21129,1,0,0:0:0:0:
448,192,21129,1,0,0:0:0:0:
192,192,21223,1,0,0:0:0:0:
320,192,21223,1,0,0:0:0:0:
192,192,21316,1,0,0:0:0:0:
64,192,21316,1,0,0:0:0:0:
192,192,21410,1,0,0:0:0:0:
320,192,21410,1,0,0:0:0:0:
192,192,21503,1,0,0:0:0:0:
448,192,21503,1,0,0:0:0:0:
64,192,21503,1,0,0:0:0:0:
192,192,21596,1,0,0:0:0:0:
320,192,21596,1,0,0:0:0:0:
192,192,21690,1,0,0:0:0:0:
64,192,21690,1,0,0:0:0:0:
192,192,21783,1,0,0:0:0:0:
320,192,21783,1,0,0:0:0:0:
192,192,21877,1,0,0:0:0:0:
448,192,21877,1,0,0:0:0:0:
320,192,21877,1,0,0:0:0:0:
192,192,21970,1,0,0:0:0:0:
64,192,21970,1,0,0:0:0:0:
192,192,22063,1,0,0:0:0:0:
320,192,22063,1,0,0:0:0:0:
192,192,22157,1,0,0:0:0:0:
448,192,22157,1,0,0:0:0:0:
192,192,22250,1,0,0:0:0:0:
320,192,22250,1,0,0:0:0:0:
64,192,22250,1,0,0:0:0:0:
192,192,22344,1,0,0:0:0:0:
448,192,22344,1,0,0:0:0:0:
192,192,22437,1,0,0:0:0:0:
320,192,22437,1,0,0:0:0:0:
192,192,22530,1,0,0:0:0:0:
448,192,22530,1,0,0:0:0:0:
192,192,22624,1,0,0:0:0:0:
320,192,22624,1,0,0:0:0:0:
64,192,22624,1,0,0:0:0:0:
192,192,22717,1,0,0:0:0:0:
320,192,22717,1,0,0:0:0:0:
448,192,22717,1,0,0:0:0:0:
192,192,22811,1,0,0:0:0:0:
320,192,22811,1,0,0:0:0:0:
192,192,22904,1,0,0:0:0:0:
64,192,22904,1,0,0:0:0:0:
192,192,22997,1,0,0:0:0:0:
448,192,22997,1,0,0:0:0:0:
320,192,22997,1,0,0:0:0:0:
192,192,23091,1,0,0:0:0:0:
320,192,23091,1,0,0:0:0:0:
192,192,23184,1,0,0:0:0:0:
64,192,23184,1,0,0:0:0:0:
192,192,23278,1,0,0:0:0:0:
320,192,23278,1,0,0:0:0:0:
192,192,23371,1,0,0:0:0:0:
448,192,23371,1,0,0:0:0:0:
64,192,23371,1,0,0:0:0:0:
192,192,23464,1,0,0:0:0:0:
320,192,23464,1,0,0:0:0:0:
192,192,23558,1,0,0:0:0:0:
448,192,23558,1,0,0:0:0:0:
192,192,23651,1,0,0:0:0:0:
64,192,23651,1,0,0:0:0:0:
192,192,23745,1,0,0:0:0:0:
320,192,23745,1,0,0:0:0:0:
448,192,23745,1,0,0:0:0:0:
192,192,23838,1,0,0:0:0:0:
64,192,23838,1,0,0:0:0:0:
192,192,23931,1,0,0:0:0:0:
320,192,23931,1,0,0:0:0:0:
192,192,24025,1,0,0:0:0:0:
64,192,24025,1,0,0:0:0:0:
192,192,24118,1,0,0:0:0:0:
320,192,24118,1,0,0:0:0:0:
192,192,24212,1,0,0:0:0:0:
448,192,24212,1,0,0:0:0:0:
192,192,24305,1,0,0:0:0:0:
448,192,24305,1,0,0:0:0:0:
192,192,24398,1,0,0:0:0:0:
320,192,24398,1,0,0:0:0:0:
192,192,24492,1,0,0:0:0:0:
448,192,24492,1,0,0:0:0:0:
64,192,24492,1,0,0:0:0:0:
192,192,24585,1,0,0:0:0:0:
64,192,24585,1,0,0:0:0:0:
192,192,24679,1,0,0:0:0:0:
320,192,24679,1,0,0:0:0:0:
192,192,24772,1,0,0:0:0:0:
448,192,24772,1,0,0:0:0:0:
192,192,24865,1,0,0:0:0:0:
320,192,24865,1,0,0:0:0:0:
192,192,24959,1,0,0:0:0:0:
64,192,24959,1,0,0:0:0:0:
192,192,25052,1,0,0:0:0:0:
320,192,25052,1,0,0:0:0:0:
192,192,25146,1,0,0:0:0:0:
64,192,25146,1,0,0:0:0:0:
192,192,25239,1,0,0:0:0:0:
320,192,25239,1,0,0:0:0:0:
448,192,25239,1,0,0:0:0:0:
192,192,25332,1,0,0:0:0:0:
64,192,25332,1,0,0:0:0:0:
192,192,25426,1,0,0:0:0:0:
320,192,25426,1,0,0:0:0:0:
192,192,25519,1,0,0:0:0:0:
448,192,25519,1,0,0:0:0:0:
192,192,25613,1,0,0:0:0:0:
320,192,25613,1,0,0:0:0:0:
192,192,25706,1,0,0:0:0:0:
448,192,25706,1,0,0:0:0:0:
64,192,25706,1,0,0:0:0:0:
192,192,25799,1,0,0:0:0:0:
320,192,25799,1,0,0:0:0:0:
192,192,25893,1,0,0:0:0:0:
448,192,25893,1,0,0:0:0:0:
192,192,25986,1,0,0:0:0:0:
320,192,25986,1,0,0:0:0:0:
64,192,25986,1,0,0:0:0:0:
192,192,26080,1,0,0:0:0:0:
192,192,26173,1,0,0:0:0:0:
64,192,26173,1,0,0:0:0:0:
448,192,26173,1,0,0:0:0:0:
192,192,26266,1,0,0:0:0:0:
64,192,26266,1,0,0:0:0:0:
448,192,26266,1,0,0:0:0:0:
192,192,26360,1,0,0:0:0:0:
64,192,26360,1,0,0:0:0:0:
448,192,26360,1,0,0:0:0:0:
448,192,26453,1,0,0:0:0:0:
448,192,26547,1,0,0:0:0:0:
448,192,26640,1,0,0:0:0:0:
448,192,26733,1,0,0:0:0:0:
448,192,26827,1,0,0:0:0:0:
448,192,26920,1,0,0:0:0:0:
448,192,27014,1,0,0:0:0:0:
448,192,27107,1,0,0:0:0:0:
448,192,27200,1,0,0:0:0:0:
448,192,27294,1,0,0:0:0:0:
64,192,27294,1,0,0:0:0:0:
448,192,27387,1,0,0:0:0:0:
448,192,27481,1,0,0:0:0:0:
448,192,27574,1,0,0:0:0:0:
448,192,27667,1,0,0:0:0:0:
192,192,27667,1,0,0:0:0:0:
448,192,27761,1,0,0:0:0:0:
320,192,27854,1,0,0:0:0:0:
448,192,27854,1,0,0:0:0:0:
64,192,27854,1,0,0:0:0:0:
448,192,27948,1,0,0:0:0:0:
448,192,28041,1,0,0:0:0:0:
448,192,28134,1,0,0:0:0:0:
448,192,28228,1,0,0:0:0:0:
448,192,28321,1,0,0:0:0:0:
448,192,28415,1,0,0:0:0:0:
448,192,28508,1,0,0:0:0:0:
448,192,28601,1,0,0:0:0:0:
448,192,28695,1,0,0:0:0:0:
448,192,28788,1,0,0:0:0:0:
192,192,28788,1,0,0:0:0:0:
448,192,28882,1,0,0:0:0:0:
448,192,28975,1,0,0:0:0:0:
448,192,29068,1,0,0:0:0:0:
448,192,29162,1,0,0:0:0:0:
320,192,29162,1,0,0:0:0:0:
448,192,29255,1,0,0:0:0:0:
448,192,29349,1,0,0:0:0:0:
192,192,29349,1,0,0:0:0:0:
64,192,29349,1,0,0:0:0:0:
448,192,29442,1,0,0:0:0:0:
448,192,29535,1,0,0:0:0:0:
448,192,29629,1,0,0:0:0:0:
448,192,29722,1,0,0:0:0:0:
448,192,29816,1,0,0:0:0:0:
448,192,29909,1,0,0:0:0:0:
448,192,30002,1,0,0:0:0:0:
448,192,30096,1,0,0:0:0:0:
448,192,30189,1,0,0:0:0:0:
448,192,30283,1,0,0:0:0:0:
320,192,30283,1,0,0:0:0:0:
448,192,30376,1,0,0:0:0:0:
448,192,30469,1,0,0:0:0:0:
448,192,30563,1,0,0:0:0:0:
448,192,30656,1,0,0:0:0:0:
64,192,30656,1,0,0:0:0:0:
448,192,30750,1,0,0:0:0:0:
448,192,30843,1,0,0:0:0:0:
192,192,30843,1,0,0:0:0:0:
320,192,30843,1,0,0:0:0:0:
448,192,30936,1,0,0:0:0:0:
448,192,31030,1,0,0:0:0:0:
448,192,31123,1,0,0:0:0:0:
448,192,31217,1,0,0:0:0:0:
320,192,31217,1,0,0:0:0:0:
448,192,31310,1,0,0:0:0:0:
448,192,31403,1,0,0:0:0:0:
448,192,31497,1,0,0:0:0:0:
448,192,31590,1,0,0:0:0:0:
192,192,31590,1,0,0:0:0:0:
448,192,31684,1,0,0:0:0:0:
64,192,31777,1,0,0:0:0:0:
448,192,31777,1,0,0:0:0:0:
448,192,31870,1,0,0:0:0:0:
320,192,31964,1,0,0:0:0:0:
448,192,31964,1,0,0:0:0:0:
448,192,32057,1,0,0:0:0:0:
448,192,32151,1,0,0:0:0:0:
448,192,32244,1,0,0:0:0:0:
448,192,32337,1,0,0:0:0:0:
320,192,32337,1,0,0:0:0:0:
64,192,32337,1,0,0:0:0:0:
448,192,32431,1,0,0:0:0:0:
448,192,32524,1,0,0:0:0:0:
448,192,32618,1,0,0:0:0:0:
448,192,32711,1,0,0:0:0:0:
448,192,32804,1,0,0:0:0:0:
448,192,32898,1,0,0:0:0:0:
448,192,32991,1,0,0:0:0:0:
448,192,33085,1,0,0:0:0:0:
448,192,33178,1,0,0:0:0:0:
448,192,33271,1,0,0:0:0:0:
192,192,33271,1,0,0:0:0:0:
448,192,33365,1,0,0:0:0:0:
448,192,33458,1,0,0:0:0:0:
448,192,33552,1,0,0:0:0:0:
448,192,33645,1,0,0:0:0:0:
192,192,33645,1,0,0:0:0:0:
448,192,33738,1,0,0:0:0:0:
448,192,33832,1,0,0:0:0:0:
64,192,33832,1,0,0:0:0:0:
320,192,33832,1,0,0:0:0:0:
448,192,33925,1,0,0:0:0:0:
448,192,34019,1,0,0:0:0:0:
448,192,34112,1,0,0:0:0:0:
448,192,34205,1,0,0:0:0:0:
448,192,34299,1,0,0:0:0:0:
448,192,34392,1,0,0:0:0:0:
448,192,34486,1,0,0:0:0:0:
448,192,34579,1,0,0:0:0:0:
448,192,34672,1,0,0:0:0:0:
448,192,34766,1,0,0:0:0:0:
320,192,34766,1,0,0:0:0:0:
448,192,34859,1,0,0:0:0:0:
448,192,34953,1,0,0:0:0:0:
448,192,35046,1,0,0:0:0:0:
192,192,35139,1,0,0:0:0:0:
448,192,35139,1,0,0:0:0:0:
448,192,35233,1,0,0:0:0:0:
64,192,35326,1,0,0:0:0:0:
192,192,35326,1,0,0:0:0:0:
448,192,35326,1,0,0:0:0:0:
448,192,35420,1,0,0:0:0:0:
448,192,35513,1,0,0:0:0:0:
448,192,35606,1,0,0:0:0:0:
448,192,35700,1,0,0:0:0:0:
448,192,35793,1,0,0:0:0:0:
448,192,35887,1,0,0:0:0:0:
448,192,35980,1,0,0:0:0:0:
448,192,36073,1,0,0:0:0:0:
320,192,36073,1,0,0:0:0:0:
192,192,36073,1,0,0:0:0:0:
448,192,36167,1,0,0:0:0:0:
448,192,36260,1,0,0:0:0:0:
448,192,36354,1,0,0:0:0:0:
448,192,36447,1,0,0:0:0:0:
448,192,36540,1,0,0:0:0:0:
448,192,36634,1,0,0:0:0:0:
320,192,36634,1,0,0:0:0:0:
448,192,36727,1,0,0:0:0:0:
192,192,36727,1,0,0:0:0:0:
448,192,36821,1,0,0:0:0:0:
64,192,36821,1,0,0:0:0:0:
448,192,36914,1,0,0:0:0:0:
192,192,36914,1,0,0:0:0:0:
448,192,37007,1,0,0:0:0:0:
320,192,37007,1,0,0:0:0:0:
448,192,37101,1,0,0:0:0:0:
192,192,37101,1,0,0:0:0:0:
448,192,37194,1,0,0:0:0:0:
64,192,37194,1,0,0:0:0:0:
448,192,37288,1,0,0:0:0:0:
192,192,37288,1,0,0:0:0:0:
448,192,37381,1,0,0:0:0:0:
320,192,37381,1,0,0:0:0:0:
448,192,37474,1,0,0:0:0:0:
192,192,37474,1,0,0:0:0:0:
448,192,37568,1,0,0:0:0:0:
64,192,37568,1,0,0:0:0:0:
448,192,37661,1,0,0:0:0:0:
192,192,37661,1,0,0:0:0:0:
448,192,37755,1,0,0:0:0:0:
320,192,37755,1,0,0:0:0:0:
448,192,37848,1,0,0:0:0:0:
192,192,37848,1,0,0:0:0:0:
448,192,37941,1,0,0:0:0:0:
64,192,37941,1,0,0:0:0:0:
448,192,38035,1,0,0:0:0:0:
192,192,38035,1,0,0:0:0:0:
448,192,38128,1,0,0:0:0:0:
320,192,38128,1,0,0:0:0:0:
448,192,38222,1,0,0:0:0:0:
192,192,38222,1,0,0:0:0:0:
448,192,38315,1,0,0:0:0:0:
64,192,38315,1,0,0:0:0:0:
64,192,38408,1,0,0:0:0:0:
64,192,38502,1,0,0:0:0:0:
64,192,38595,1,0,0:0:0:0:
64,192,38689,1,0,0:0:0:0:
64,192,38782,1,0,0:0:0:0:
64,192,38875,1,0,0:0:0:0:
64,192,38969,1,0,0:0:0:0:
64,192,39062,1,0,0:0:0:0:
64,192,39156,1,0,0:0:0:0:
64,192,39249,1,0,0:0:0:0:
192,192,39249,1,0,0:0:0:0:
64,192,39342,1,0,0:0:0:0:
64,192,39436,1,0,0:0:0:0:
64,192,39529,1,0,0:0:0:0:
64,192,39623,1,0,0:0:0:0:
192,192,39623,1,0,0:0:0:0:
64,192,39716,1,0,0:0:0:0:
64,192,39809,1,0,0:0:0:0:
192,192,39809,1,0,0:0:0:0:
320,192,39809,1,0,0:0:0:0:
64,192,39903,1,0,0:0:0:0:
64,192,39996,1,0,0:0:0:0:
64,192,40090,1,0,0:0:0:0:
64,192,40183,1,0,0:0:0:0:
64,192,40276,1,0,0:0:0:0:
64,192,40370,1,0,0:0:0:0:
64,192,40463,1,0,0:0:0:0:
64,192,40557,1,0,0:0:0:0:
64,192,40650,1,0,0:0:0:0:
64,192,40743,1,0,0:0:0:0:
320,192,40743,1,0,0:0:0:0:
64,192,40837,1,0,0:0:0:0:
64,192,40930,1,0,0:0:0:0:
64,192,41024,1,0,0:0:0:0:
64,192,41117,1,0,0:0:0:0:
320,192,41117,1,0,0:0:0:0:
64,192,41210,1,0,0:0:0:0:
64,192,41304,1,0,0:0:0:0:
448,192,41304,1,0,0:0:0:0:
192,192,41304,1,0,0:0:0:0:
64,192,41397,1,0,0:0:0:0:
64,192,41491,1,0,0:0:0:0:
64,192,41584,1,0,0:0:0:0:
64,192,41677,1,0,0:0:0:0:
64,192,41771,1,0,0:0:0:0:
64,192,41864,1,0,0:0:0:0:
64,192,41958,1,0,0:0:0:0:
64,192,42051,1,0,0:0:0:0:
64,192,42144,1,0,0:0:0:0:
64,192,42238,1,0,0:0:0:0:
448,192,42238,1,0,0:0:0:0:
64,192,42331,1,0,0:0:0:0:
64,192,42425,1,0,0:0:0:0:
64,192,42518,1,0,0:0:0:0:
64,192,42611,1,0,0:0:0:0:
448,192,42611,1,0,0:0:0:0:
64,192,42705,1,0,0:0:0:0:
64,192,42798,1,0,0:0:0:0:
448,192,42798,1,0,0:0:0:0:
320,192,42798,1,0,0:0:0:0:
64,192,42892,1,0,0:0:0:0:
64,192,42985,1,0,0:0:0:0:
64,192,43078,1,0,0:0:0:0:
64,192,43172,1,0,0:0:0:0:
448,192,43172,1,0,0:0:0:0:
192,192,43172,1,0,0:0:0:0:
64,192,43265,1,0,0:0:0:0:
64,192,43359,1,0,0:0:0:0:
64,192,43452,1,0,0:0:0:0:
64,192,43545,1,0,0:0:0:0:
320,192,43545,1,0,0:0:0:0:
192,192,43545,1,0,0:0:0:0:
64,192,43639,1,0,0:0:0:0:
64,192,43732,1,0,0:0:0:0:
448,192,43732,1,0,0:0:0:0:
64,192,43826,1,0,0:0:0:0:
64,192,43919,1,0,0:0:0:0:
64,192,44012,1,0,0:0:0:0:
64,192,44106,1,0,0:0:0:0:
64,192,44199,1,0,0:0:0:0:
192,192,44293,1,0,0:0:0:0:
64,192,44293,1,0,0:0:0:0:
192,192,44386,1,0,0:0:0:0:
192,192,44479,1,0,0:0:0:0:
192,192,44573,1,0,0:0:0:0:
192,192,44666,1,0,0:0:0:0:
192,192,44760,1,0,0:0:0:0:
192,192,44853,1,0,0:0:0:0:
192,192,44946,1,0,0:0:0:0:
192,192,45040,1,0,0:0:0:0:
192,192,45133,1,0,0:0:0:0:
192,192,45227,1,0,0:0:0:0:
448,192,45227,1,0,0:0:0:0:
192,192,45320,1,0,0:0:0:0:
192,192,45413,1,0,0:0:0:0:
192,192,45507,1,0,0:0:0:0:
192,192,45600,1,0,0:0:0:0:
448,192,45600,1,0,0:0:0:0:
192,192,45694,1,0,0:0:0:0:
192,192,45787,1,0,0:0:0:0:
448,192,45787,1,0,0:0:0:0:
64,192,45787,1,0,0:0:0:0:
192,192,45880,1,0,0:0:0:0:
192,192,45974,1,0,0:0:0:0:
192,192,46067,1,0,0:0:0:0:
192,192,46161,1,0,0:0:0:0:
192,192,46254,1,0,0:0:0:0:
192,192,46347,1,0,0:0:0:0:
192,192,46441,1,0,0:0:0:0:
192,192,46534,1,0,0:0:0:0:
192,192,46628,1,0,0:0:0:0:
192,192,46721,1,0,0:0:0:0:
448,192,46721,1,0,0:0:0:0:
192,192,46814,1,0,0:0:0:0:
192,192,46908,1,0,0:0:0:0:
192,192,47001,1,0,0:0:0:0:
192,192,47095,1,0,0:0:0:0:
448,192,47095,1,0,0:0:0:0:
192,192,47188,1,0,0:0:0:0:
192,192,47281,1,0,0:0:0:0:
64,192,47281,1,0,0:0:0:0:
448,192,47281,1,0,0:0:0:0:
192,192,47375,1,0,0:0:0:0:
192,192,47468,1,0,0:0:0:0:
192,192,47562,1,0,0:0:0:0:
192,192,47655,1,0,0:0:0:0:
192,192,47748,1,0,0:0:0:0:
192,192,47842,1,0,0:0:0:0:
192,192,47935,1,0,0:0:0:0:
192,192,48029,1,0,0:0:0:0:
448,192,48029,1,0,0:0:0:0:
64,192,48029,1,0,0:0:0:0:
192,192,48122,1,0,0:0:0:0:
192,192,48215,1,0,0:0:0:0:
192,192,48309,1,0,0:0:0:0:
192,192,48402,1,0,0:0:0:0:
192,192,48496,1,0,0:0:0:0:
192,192,48589,1,0,0:0:0:0:
448,192,48589,1,0,0:0:0:0:
192,192,48682,1,0,0:0:0:0:
320,192,48682,1,0,0:0:0:0:
192,192,48776,1,0,0:0:0:0:
64,192,48776,1,0,0:0:0:0:
192,192,48869,1,0,0:0:0:0:
320,192,48869,1,0,0:0:0:0:
192,192,48963,1,0,0:0:0:0:
448,192,48963,1,0,0:0:0:0:
192,192,49056,1,0,0:0:0:0:
320,192,49056,1,0,0:0:0:0:
192,192,49149,1,0,0:0:0:0:
64,192,49149,1,0,0:0:0:0:
192,192,49243,1,0,0:0:0:0:
320,192,49243,1,0,0:0:0:0:
192,192,49336,1,0,0:0:0:0:
448,192,49336,1,0,0:0:0:0:
192,192,49430,1,0,0:0:0:0:
320,192,49430,1,0,0:0:0:0:
192,192,49523,1,0,0:0:0:0:
64,192,49523,1,0,0:0:0:0:
192,192,49616,1,0,0:0:0:0:
320,192,49616,1,0,0:0:0:0:
192,192,49710,1,0,0:0:0:0:
448,192,49710,1,0,0:0:0:0:
192,192,49803,1,0,0:0:0:0:
320,192,49803,1,0,0:0:0:0:
192,192,49897,1,0,0:0:0:0:
64,192,49897,1,0,0:0:0:0:
192,192,49990,1,0,0:0:0:0:
320,192,49990,1,0,0:0:0:0:
192,192,50083,1,0,0:0:0:0:
448,192,50083,1,0,0:0:0:0:
192,192,50177,1,0,0:0:0:0:
320,192,50177,1,0,0:0:0:0:
64,192,50270,1,0,0:0:0:0:
448,192,50270,1,0,0:0:0:0:
192,192,50270,1,0,0:0:0:0:
320,192,50270,1,0,0:0:0:0:
192,192,50457,1,0,0:0:0:0:
192,192,50550,1,0,0:0:0:0:
192,192,50644,1,0,0:0:0:0:
320,192,50644,1,0,0:0:0:0:
448,192,50644,1,0,0:0:0:0:
64,192,50644,1,0,0:0:0:0:
448,192,50737,1,0,0:0:0:0:
448,192,50924,1,0,0:0:0:0:
320,192,51017,1,0,0:0:0:0:
192,192,51017,1,0,0:0:0:0:
64,192,51017,1,0,0:0:0:0:
448,192,51017,1,0,0:0:0:0:
448,192,51111,1,0,0:0:0:0:
448,192,51298,1,0,0:0:0:0:
448,192,51391,1,0,0:0:0:0:
64,192,51391,1,0,0:0:0:0:
320,192,51391,1,0,0:0:0:0:
192,192,51391,1,0,0:0:0:0:
64,192,51484,1,0,0:0:0:0:
448,192,51578,1,0,0:0:0:0:
448,192,51671,1,0,0:0:0:0:
448,192,51765,1,0,0:0:0:0:
320,192,51765,1,0,0:0:0:0:
192,192,51765,1,0,0:0:0:0:
64,192,51765,1,0,0:0:0:0:
192,192,51951,1,0,0:0:0:0:
192,192,52045,1,0,0:0:0:0:
192,192,52138,1,0,0:0:0:0:
64,192,52138,1,0,0:0:0:0:
320,192,52138,1,0,0:0:0:0:
448,192,52138,1,0,0:0:0:0:
64,192,52232,1,0,0:0:0:0:
192,192,52418,1,0,0:0:0:0:
64,192,52512,1,0,0:0:0:0:
192,192,52512,1,0,0:0:0:0:
320,192,52512,1,0,0:0:0:0:
448,192,52512,1,0,0:0:0:0:
320,192,52605,1,0,0:0:0:0:
448,192,52792,1,0,0:0:0:0:
192,192,52885,1,0,0:0:0:0:
320,192,52885,1,0,0:0:0:0:
64,192,52885,1,0,0:0:0:0:
448,192,52885,1,0,0:0:0:0:
192,192,52979,1,0,0:0:0:0:
320,192,53072,1,0,0:0:0:0:
320,192,53166,1,0,0:0:0:0:
320,192,53259,1,0,0:0:0:0:
192,192,53259,1,0,0:0:0:0:
448,192,53259,1,0,0:0:0:0:
64,192,53259,1,0,0:0:0:0:
320,192,53446,1,0,0:0:0:0:
320,192,53539,1,0,0:0:0:0:
320,192,53633,1,0,0:0:0:0:
192,192,53633,1,0,0:0:0:0:
64,192,53633,1,0,0:0:0:0:
448,192,53633,1,0,0:0:0:0:
320,192,53726,1,0,0:0:0:0:
320,192,53913,1,0,0:0:0:0:
320,192,54006,1,0,0:0:0:0:
448,192,54006,1,0,0:0:0:0:
192,192,54006,1,0,0:0:0:0:
64,192,54006,1,0,0:0:0:0:
448,192,54100,1,0,0:0:0:0:
320,192,54193,1,0,0:0:0:0:
320,192,54286,1,0,0:0:0:0:
192,192,54380,1,0,0:0:0:0:
448,192,54380,1,0,0:0:0:0:
64,192,54380,1,0,0:0:0:0:
320,192,54380,1,0,0:0:0:0:
192,192,54473,1,0,0:0:0:0:
64,192,54567,1,0,0:0:0:0:
64,192,54660,1,0,0:0:0:0:
192,192,54753,1,0,0:0:0:0:
448,192,54753,1,0,0:0:0:0:
320,192,54753,1,0,0:0:0:0:
64,192,54753,1,0,0:0:0:0:
192,192,54940,1,0,0:0:0:0:
192,192,55034,1,0,0:0:0:0:
192,192,55127,1,0,0:0:0:0:
64,192,55127,1,0,0:0:0:0:
448,192,55127,1,0,0:0:0:0:
320,192,55127,1,0,0:0:0:0:
192,192,55220,1,0,0:0:0:0:
448,192,55407,1,0,0:0:0:0:
192,192,55501,1,0,0:0:0:0:
64,192,55501,1,0,0:0:0:0:
320,192,55501,1,0,0:0:0:0:
448,192,55501,1,0,0:0:0:0:
320,192,55594,1,0,0:0:0:0:
192,192,55781,1,0,0:0:0:0:
192,192,55874,1,0,0:0:0:0:
64,192,55874,1,0,0:0:0:0:
448,192,55874,1,0,0:0:0:0:
320,192,55874,1,0,0:0:0:0:
64,192,56061,1,0,0:0:0:0:
64,192,56154,1,0,0:0:0:0:
448,192,56248,1,0,0:0:0:0:
64,192,56248,1,0,0:0:0:0:
320,192,56248,1,0,0:0:0:0:
192,192,56248,1,0,0:0:0:0:
320,192,56435,1,0,0:0:0:0:
320,192,56528,1,0,0:0:0:0:
320,192,56621,1,0,0:0:0:0:
192,192,56621,1,0,0:0:0:0:
64,192,56621,1,0,0:0:0:0:
448,192,56621,1,0,0:0:0:0:
64,192,56715,1,0,0:0:0:0:
64,192,56902,1,0,0:0:0:0:
192,192,56995,1,0,0:0:0:0:
320,192,56995,1,0,0:0:0:0:
448,192,56995,1,0,0:0:0:0:
64,192,56995,1,0,0:0:0:0:
64,192,57088,1,0,0:0:0:0:
64,192,57275,1,0,0:0:0:0:
64,192,57369,1,0,0:0:0:0:
448,192,57369,1,0,0:0:0:0:
192,192,57369,1,0,0:0:0:0:
320,192,57369,1,0,0:0:0:0:
448,192,57462,1,0,0:0:0:0:
64,192,57555,1,0,0:0:0:0:
64,192,57649,1,0,0:0:0:0:
64,192,57742,1,0,0:0:0:0:
192,192,57742,1,0,0:0:0:0:
320,192,57742,1,0,0:0:0:0:
448,192,57742,1,0,0:0:0:0:
320,192,57929,1,0,0:0:0:0:
320,192,58022,1,0,0:0:0:0:
320,192,58116,1,0,0:0:0:0:
448,192,58116,1,0,0:0:0:0:
192,192,58116,1,0,0:0:0:0:
64,192,58116,1,0,0:0:0:0:
448,192,58209,1,0,0:0:0:0:
320,192,58396,1,0,0:0:0:0:
448,192,58489,1,0,0:0:0:0:
320,192,58489,1,0,0:0:0:0:
192,192,58489,1,0,0:0:0:0:
64,192,58489,1,0,0:0:0:0:
192,192,58583,1,0,0:0:0:0:
64,192,58770,1,0,0:0:0:0:
320,192,58863,1,0,0:0:0:0:
192,192,58863,1,0,0:0:0:0:
448,192,58863,1,0,0:0:0:0:
64,192,58863,1,0,0:0:0:0:
320,192,58956,1,0,0:0:0:0:
192,192,59050,1,0,0:0:0:0:
192,192,59143,1,0,0:0:0:0:
192,192,59237,1,0,0:0:0:0:
320,192,59237,1,0,0:0:0:0:
64,192,59237,1,0,0:0:0:0:
448,192,59237,1,0,0:0:0:0:
192,192,59423,1,0,0:0:0:0:
192,192,59517,1,0,0:0:0:0:
192,192,59610,1,0,0:0:0:0:
320,192,59610,1,0,0:0:0:0:
448,192,59610,1,0,0:0:0:0:
64,192,59610,1,0,0:0:0:0:
192,192,59704,1,0,0:0:0:0:
192,192,59890,1,0,0:0:0:0:
192,192,59984,1,0,0:0:0:0:
64,192,59984,1,0,0:0:0:0:
320,192,59984,1,0,0:0:0:0:
448,192,59984,1,0,0:0:0:0:
64,192,60077,1,0,0:0:0:0:
192,192,60171,1,0,0:0:0:0:
192,192,60264,1,0,0:0:0:0:
320,192,60357,1,0,0:0:0:0:
64,192,60357,1,0,0:0:0:0:
448,192,60357,1,0,0:0:0:0:
192,192,60357,1,0,0:0:0:0:
320,192,60451,1,0,0:0:0:0:
448,192,60544,1,0,0:0:0:0:
448,192,60638,1,0,0:0:0:0:
320,192,60731,1,0,0:0:0:0:
64,192,60731,1,0,0:0:0:0:
192,192,60731,1,0,0:0:0:0:
448,192,60731,1,0,0:0:0:0:
320,192,60918,1,0,0:0:0:0:
320,192,61011,1,0,0:0:0:0:
320,192,61105,1,0,0:0:0:0:
448,192,61105,1,0,0:0:0:0:
64,192,61105,1,0,0:0:0:0:
192,192,61105,1,0,0:0:0:0:
320,192,61198,1,0,0:0:0:0:
64,192,61385,1,0,0:0:0:0:
320,192,61478,1,0,0:0:0:0:
448,192,61478,1,0,0:0:0:0:
192,192,61478,1,0,0:0:0:0:
64,192,61478,1,0,0:0:0:0:
192,192,61572,1,0,0:0:0:0:
320,192,61758,1,0,0:0:0:0:
320,192,61852,1,0,0:0:0:0:
448,192,61852,1,0,0:0:0:0:
64,192,61852,1,0,0:0:0:0:
192,192,61852,1,0,0:0:0:0:
448,192,62039,1,0,0:0:0:0:
448,192,62132,1,0,0:0:0:0:
192,192,62225,1,0,0:0:0:0:
448,192,62225,1,0,0:0:0:0:
64,192,62225,1,0,0:0:0:0:
320,192,62225,1,0,0:0:0:0:
192,192,62412,1,0,0:0:0:0:
192,192,62506,1,0,0:0:0:0:
448,192,62599,1,0,0:0:0:0:
320,192,62599,1,0,0:0:0:0:
192,192,62599,1,0,0:0:0:0:
64,192,62599,1,0,0:0:0:0:
448,192,62692,1,0,0:0:0:0:
448,192,62879,1,0,0:0:0:0:
64,192,62973,1,0,0:0:0:0:
192,192,62973,1,0,0:0:0:0:
320,192,62973,1,0,0:0:0:0:
448,192,62973,1,0,0:0:0:0:
448,192,63066,1,0,0:0:0:0:
448,192,63253,1,0,0:0:0:0:
320,192,63346,1,0,0:0:0:0:
64,192,63346,1,0,0:0:0:0:
448,192,63346,1,0,0:0:0:0:
192,192,63346,1,0,0:0:0:0:
64,192,63440,1,0,0:0:0:0:
448,192,63533,1,0,0:0:0:0:
448,192,63626,1,0,0:0:0:0:
192,192,63720,1,0,0:0:0:0:
320,192,63720,1,0,0:0:0:0:
448,192,63720,1,0,0:0:0:0:
64,192,63720,1,0,0:0:0:0:
192,192,63907,1,0,0:0:0:0:
192,192,64000,1,0,0:0:0:0:
320,192,64093,1,0,0:0:0:0:
64,192,64093,1,0,0:0:0:0:
192,192,64093,1,0,0:0:0:0:
448,192,64093,1,0,0:0:0:0:
64,192,64187,1,0,0:0:0:0:
192,192,64374,1,0,0:0:0:0:
320,192,64467,1,0,0:0:0:0:
192,192,64467,1,0,0:0:0:0:
64,192,64467,1,0,0:0:0:0:
448,192,64467,1,0,0:0:0:0:
320,192,64560,1,0,0:0:0:0:
448,192,64747,1,0,0:0:0:0:
64,192,64841,1,0,0:0:0:0:
320,192,64841,1,0,0:0:0:0:
192,192,64841,1,0,0:0:0:0:
448,192,64841,1,0,0:0:0:0:
192,192,64934,1,0,0:0:0:0:
320,192,65027,1,0,0:0:0:0:
320,192,65121,1,0,0:0:0:0:
448,192,65214,1,0,0:0:0:0:
192,192,65214,1,0,0:0:0:0:
320,192,65214,1,0,0:0:0:0:
64,192,65214,1,0,0:0:0:0:
320,192,65401,1,0,0:0:0:0:
320,192,65494,1,0,0:0:0:0:
64,192,65588,1,0,0:0:0:0:
192,192,65588,1,0,0:0:0:0:
320,192,65588,1,0,0:0:0:0:
448,192,65588,1,0,0:0:0:0:
320,192,65681,1,0,0:0:0:0:
320,192,65868,1,0,0:0:0:0:
192,192,65961,1,0,0:0:0:0:
448,192,65961,1,0,0:0:0:0:
320,192,65961,1,0,0:0:0:0:
64,192,65961,1,0,0:0:0:0:
448,192,66055,1,0,0:0:0:0:
320,192,66148,1,0,0:0:0:0:
320,192,66242,1,0,0:0:0:0:
64,192,66335,1,0,0:0:0:0:
448,192,66335,1,0,0:0:0:0:
192,192,66335,1,0,0:0:0:0:
320,192,66335,1,0,0:0:0:0:
192,192,66428,1,0,0:0:0:0:
64,192,66522,1,0,0:0:0:0:
64,192,66615,1,0,0:0:0:0:
320,192,66709,1,0,0:0:0:0:
448,192,66709,1,0,0:0:0:0:
192,192,66709,1,0,0:0:0:0:
64,192,66709,1,0,0:0:0:0:
192,192,66895,1,0,0:0:0:0:
192,192,66989,1,0,0:0:0:0:
448,192,67082,1,0,0:0:0:0:
64,192,67082,1,0,0:0:0:0:
192,192,67082,1,0,0:0:0:0:
320,192,67082,1,0,0:0:0:0:
192,192,67176,1,0,0:0:0:0:
448,192,67362,1,0,0:0:0:0:
320,192,67456,1,0,0:0:0:0:
64,192,67456,1,0,0:0:0:0:
192,192,67456,1,0,0:0:0:0:
448,192,67456,1,0,0:0:0:0:
320,192,67549,1,0,0:0:0:0:
192,192,67736,1,0,0:0:0:0:
448,192,67829,1,0,0:0:0:0:
64,192,67829,1,0,0:0:0:0:
192,192,67829,1,0,0:0:0:0:
320,192,67829,1,0,0:0:0:0:
64,192,68016,1,0,0:0:0:0:
64,192,68110,1,0,0:0:0:0:
448,192,68203,1,0,0:0:0:0:
64,192,68203,1,0,0:0:0:0:
320,192,68203,1,0,0:0:0:0:
192,192,68203,1,0,0:0:0:0:
320,192,68390,1,0,0:0:0:0:
320,192,68483,1,0,0:0:0:0:
320,192,68577,1,0,0:0:0:0:
192,192,68577,1,0,0:0:0:0:
64,192,68577,1,0,0:0:0:0:
448,192,68577,1,0,0:0:0:0:
64,192,68670,1,0,0:0:0:0:
64,192,68857,1,0,0:0:0:0:
192,192,68950,1,0,0:0:0:0:
320,192,68950,1,0,0:0:0:0:
448,192,68950,1,0,0:0:0:0:
64,192,68950,1,0,0:0:0:0:
64,192,69044,1,0,0:0:0:0:
64,192,69230,1,0,0:0:0:0:
64,192,69324,1,0,0:0:0:0:
448,192,69324,1,0,0:0:0:0:
192,192,69324,1,0,0:0:0:0:
320,192,69324,1,0,0:0:0:0:
448,192,69417,1,0,0:0:0:0:
64,192,69511,1,0,0:0:0:0:
64,192,69604,1,0,0:0:0:0:
64,192,69697,1,0,0:0:0:0:
192,192,69697,1,0,0:0:0:0:
320,192,69697,1,0,0:0:0:0:
448,192,69697,1,0,0:0:0:0:
320,192,69884,1,0,0:0:0:0:
320,192,69978,1,0,0:0:0:0:
320,192,70071,1,0,0:0:0:0:
448,192,70071,1,0,0:0:0:0:
192,192,70071,1,0,0:0:0:0:
64,192,70071,1,0,0:0:0:0:
448,192,70164,1,0,0:0:0:0:
320,192,70351,1,0,0:0:0:0:
448,192,70445,1,0,0:0:0:0:
320,192,70445,1,0,0:0:0:0:
192,192,70445,1,0,0:0:0:0:
64,192,70445,1,0,0:0:0:0:
192,192,70538,1,0,0:0:0:0:
64,192,70725,1,0,0:0:0:0:
320,192,70818,1,0,0:0:0:0:
192,192,70818,1,0,0:0:0:0:
448,192,70818,1,0,0:0:0:0:
64,192,70818,1,0,0:0:0:0:
320,192,70912,1,0,0:0:0:0:
192,192,71005,1,0,0:0:0:0:
192,192,71098,1,0,0:0:0:0:
192,192,71192,1,0,0:0:0:0:
320,192,71192,1,0,0:0:0:0:
64,192,71192,1,0,0:0:0:0:
448,192,71192,1,0,0:0:0:0:
192,192,71379,1,0,0:0:0:0:
192,192,71472,1,0,0:0:0:0:
192,192,71565,1,0,0:0:0:0:
320,192,71565,1,0,0:0:0:0:
448,192,71565,1,0,0:0:0:0:
64,192,71565,1,0,0:0:0:0:
192,192,71659,1,0,0:0:0:0:
192,192,71846,1,0,0:0:0:0:
192,192,71939,1,0,0:0:0:0:
64,192,71939,1,0,0:0:0:0:
320,192,71939,1,0,0:0:0:0:
448,192,71939,1,0,0:0:0:0:
64,192,72032,1,0,0:0:0:0:
192,192,72126,1,0,0:0:0:0:
192,192,72219,1,0,0:0:0:0:
320,192,72313,1,0,0:0:0:0:
64,192,72313,1,0,0:0:0:0:
448,192,72313,1,0,0:0:0:0:
192,192,72313,1,0,0:0:0:0:
320,192,72406,1,0,0:0:0:0:
448,192,72499,1,0,0:0:0:0:
448,192,72593,1,0,0:0:0:0:
320,192,72686,1,0,0:0:0:0:
64,192,72686,1,0,0:0:0:0:
192,192,72686,1,0,0:0:0:0:
448,192,72686,1,0,0:0:0:0:
320,192,72873,1,0,0:0:0:0:
320,192,72966,1,0,0:0:0:0:
320,192,73060,1,0,0:0:0:0:
448,192,73060,1,0,0:0:0:0:
64,192,73060,1,0,0:0:0:0:
192,192,73060,1,0,0:0:0:0:
320,192,73153,1,0,0:0:0:0:
64,192,73340,1,0,0:0:0:0:
320,192,73433,1,0,0:0:0:0:
448,192,73433,1,0,0:0:0:0:
192,192,73433,1,0,0:0:0:0:
64,192,73433,1,0,0:0:0:0:
192,192,73527,1,0,0:0:0:0:
320,192,73714,1,0,0:0:0:0:
320,192,73807,1,0,0:0:0:0:
448,192,73807,1,0,0:0:0:0:
64,192,73807,1,0,0:0:0:0:
192,192,73807,1,0,0:0:0:0:
448,192,73994,1,0,0:0:0:0:
448,192,74087,1,0,0:0:0:0:
448,192,74181,1,0,0:0:0:0:
64,192,74181,1,0,0:0:0:0:
320,192,74181,1,0,0:0:0:0:
192,192,74181,1,0,0:0:0:0:
64,192,74274,1,0,0:0:0:0:
64,192,74367,1,0,0:0:0:0:
64,192,74461,1,0,0:0:0:0:
64,192,74554,1,0,0:0:0:0:
320,192,74554,1,0,0:0:0:0:
64,192,74648,1,0,0:0:0:0:
64,192,74741,1,0,0:0:0:0:
64,192,74834,1,0,0:0:0:0:
64,192,74928,1,0,0:0:0:0:
448,192,74928,1,0,0:0:0:0:
64,192,75021,1,0,0:0:0:0:
64,192,75115,1,0,0:0:0:0:
64,192,75208,1,0,0:0:0:0:
64,192,75301,1,0,0:0:0:0:
448,192,75301,1,0,0:0:0:0:
64,192,75395,1,0,0:0:0:0:
64,192,75488,1,0,0:0:0:0:
192,192,75488,1,0,0:0:0:0:
64,192,75582,1,0,0:0:0:0:
64,192,75675,1,0,0:0:0:0:
64,192,75768,1,0,0:0:0:0:
64,192,75862,1,0,0:0:0:0:
192,192,75862,1,0,0:0:0:0:
64,192,75955,1,0,0:0:0:0:
64,192,76049,1,0,0:0:0:0:
64,192,76142,1,0,0:0:0:0:
64,192,76235,1,0,0:0:0:0:
192,192,76235,1,0,0:0:0:0:
64,192,76329,1,0,0:0:0:0:
64,192,76422,1,0,0:0:0:0:
320,192,76422,1,0,0:0:0:0:
64,192,76516,1,0,0:0:0:0:
64,192,76609,1,0,0:0:0:0:
448,192,76609,1,0,0:0:0:0:
64,192,76702,1,0,0:0:0:0:
64,192,76796,1,0,0:0:0:0:
320,192,76796,1,0,0:0:0:0:
64,192,76889,1,0,0:0:0:0:
64,192,76983,1,0,0:0:0:0:
64,192,77076,1,0,0:0:0:0:
64,192,77169,1,0,0:0:0:0:
320,192,77169,1,0,0:0:0:0:
192,192,77169,1,0,0:0:0:0:
320,192,77263,1,0,0:0:0:0:
320,192,77356,1,0,0:0:0:0:
320,192,77449,1,0,0:0:0:0:
320,192,77543,1,0,0:0:0:0:
64,192,77543,1,0,0:0:0:0:
320,192,77636,1,0,0:0:0:0:
320,192,77730,1,0,0:0:0:0:
320,192,77823,1,0,0:0:0:0:
320,192,77916,1,0,0:0:0:0:
448,192,77916,1,0,0:0:0:0:
320,192,78010,1,0,0:0:0:0:
320,192,78103,1,0,0:0:0:0:
320,192,78197,1,0,0:0:0:0:
320,192,78290,1,0,0:0:0:0:
448,192,78290,1,0,0:0:0:0:
320,192,78383,1,0,0:0:0:0:
320,192,78477,1,0,0:0:0:0:
64,192,78477,1,0,0:0:0:0:
320,192,78570,1,0,0:0:0:0:
320,192,78664,1,0,0:0:0:0:
320,192,78757,1,0,0:0:0:0:
320,192,78850,1,0,0:0:0:0:
64,192,78850,1,0,0:0:0:0:
320,192,78944,1,0,0:0:0:0:
320,192,79037,1,0,0:0:0:0:
320,192,79131,1,0,0:0:0:0:
320,192,79224,1,0,0:0:0:0:
64,192,79224,1,0,0:0:0:0:
320,192,79317,1,0,0:0:0:0:
320,192,79411,1,0,0:0:0:0:
192,192,79411,1,0,0:0:0:0:
320,192,79504,1,0,0:0:0:0:
320,192,79598,1,0,0:0:0:0:
448,192,79598,1,0,0:0:0:0:
320,192,79691,1,0,0:0:0:0:
320,192,79784,1,0,0:0:0:0:
192,192,79784,1,0,0:0:0:0:
320,192,79878,1,0,0:0:0:0:
320,192,79971,1,0,0:0:0:0:
320,192,80065,1,0,0:0:0:0:
320,192,80158,1,0,0:0:0:0:
64,192,80158,1,0,0:0:0:0:
192,192,80158,1,0,0:0:0:0:
64,192,80532,1,0,0:0:0:0:
192,192,80905,1,0,0:0:0:0:
192,192,81279,1,0,0:0:0:0:
320,192,81466,1,0,0:0:0:0:
320,192,81839,1,0,0:0:0:0:
320,192,82213,1,0,0:0:0:0:
448,192,82400,1,0,0:0:0:0:
64,192,82586,1,0,0:0:0:0:
192,192,82773,1,0,0:0:0:0:
448,192,83147,1,0,0:0:0:0:
192,192,83520,1,0,0:0:0:0:
320,192,83894,1,0,0:0:0:0:
64,192,84268,1,0,0:0:0:0:
192,192,84454,1,0,0:0:0:0:
320,192,84641,1,0,0:0:0:0:
448,192,84641,1,0,0:0:0:0:
192,192,84828,1,0,0:0:0:0:
64,192,85015,1,0,0:0:0:0:
320,192,85202,1,0,0:0:0:0:
192,192,85388,1,0,0:0:0:0:
448,192,85575,1,0,0:0:0:0:
320,192,85762,1,0,0:0:0:0:
64,192,85949,1,0,0:0:0:0:
448,192,85949,1,0,0:0:0:0:
64,192,86042,1,0,0:0:0:0:
448,192,86042,1,0,0:0:0:0:
64,192,86136,1,0,0:0:0:0:
320,192,86136,1,0,0:0:0:0:
448,192,86136,1,0,0:0:0:0:
320,192,86229,1,0,0:0:0:0:
320,192,86322,1,0,0:0:0:0:
192,192,86322,1,0,0:0:0:0:
448,192,86509,1,0,0:0:0:0:
448,192,86603,1,0,0:0:0:0:
448,192,86696,1,0,0:0:0:0:
320,192,86696,1,0,0:0:0:0:
320,192,86883,1,0,0:0:0:0:
320,192,86976,1,0,0:0:0:0:
320,192,87070,1,0,0:0:0:0:
192,192,87070,1,0,0:0:0:0:
64,192,87256,1,0,0:0:0:0:
64,192,87350,1,0,0:0:0:0:
64,192,87443,1,0,0:0:0:0:
192,192,87443,1,0,0:0:0:0:
192,192,87630,1,0,0:0:0:0:
192,192,87723,1,0,0:0:0:0:
192,192,87817,1,0,0:0:0:0:
320,192,87817,1,0,0:0:0:0:
320,192,88004,1,0,0:0:0:0:
320,192,88097,1,0,0:0:0:0:
320,192,88190,1,0,0:0:0:0:
448,192,88190,1,0,0:0:0:0:
448,192,88377,1,0,0:0:0:0:
448,192,88471,1,0,0:0:0:0:
448,192,88564,1,0,0:0:0:0:
320,192,88564,1,0,0:0:0:0:
192,192,88751,1,0,0:0:0:0:
192,192,88844,1,0,0:0:0:0:
192,192,88938,1,0,0:0:0:0:
320,192,88938,1,0,0:0:0:0:
320,192,89124,1,0,0:0:0:0:
320,192,89218,1,0,0:0:0:0:
320,192,89311,1,0,0:0:0:0:
192,192,89311,1,0,0:0:0:0:
64,192,89498,1,0,0:0:0:0:
64,192,89591,1,0,0:0:0:0:
64,192,89685,1,0,0:0:0:0:
192,192,89685,1,0,0:0:0:0:
320,192,89872,1,0,0:0:0:0:
320,192,89965,1,0,0:0:0:0:
320,192,90058,1,0,0:0:0:0:
448,192,90058,1,0,0:0:0:0:
192,192,90245,1,0,0:0:0:0:
192,192,90339,1,0,0:0:0:0:
192,192,90432,1,0,0:0:0:0:
320,192,90432,1,0,0:0:0:0:
448,192,90619,1,0,0:0:0:0:
448,192,90712,1,0,0:0:0:0:
448,192,90806,1,0,0:0:0:0:
320,192,90806,1,0,0:0:0:0:
320,192,90992,1,0,0:0:0:0:
320,192,91086,1,0,0:0:0:0:
320,192,91179,1,0,0:0:0:0:
192,192,91179,1,0,0:0:0:0:
192,192,91366,1,0,0:0:0:0:
192,192,91459,1,0,0:0:0:0:
192,192,91553,1,0,0:0:0:0:
64,192,91553,1,0,0:0:0:0:
320,192,91740,1,0,0:0:0:0:
320,192,91833,1,0,0:0:0:0:
320,192,91926,1,0,0:0:0:0:
448,192,91926,1,0,0:0:0:0:
64,192,92113,1,0,0:0:0:0:
64,192,92207,1,0,0:0:0:0:
64,192,92300,1,0,0:0:0:0:
192,192,92300,1,0,0:0:0:0:
192,192,92487,1,0,0:0:0:0:
192,192,92580,1,0,0:0:0:0:
192,192,92674,1,0,0:0:0:0:
320,192,92674,1,0,0:0:0:0:
320,192,92860,1,0,0:0:0:0:
320,192,92954,1,0,0:0:0:0:
320,192,93047,1,0,0:0:0:0:
448,192,93047,1,0,0:0:0:0:
192,192,93234,1,0,0:0:0:0:
192,192,93327,1,0,0:0:0:0:
192,192,93421,1,0,0:0:0:0:
320,192,93421,1,0,0:0:0:0:
64,192,93608,1,0,0:0:0:0:
64,192,93701,1,0,0:0:0:0:
64,192,93794,1,0,0:0:0:0:
192,192,93794,1,0,0:0:0:0:
192,192,93981,1,0,0:0:0:0:
192,192,94075,1,0,0:0:0:0:
192,192,94168,1,0,0:0:0:0:
320,192,94168,1,0,0:0:0:0:
64,192,94355,1,0,0:0:0:0:
64,192,94448,1,0,0:0:0:0:
64,192,94542,1,0,0:0:0:0:
192,192,94542,1,0,0:0:0:0:
320,192,94728,1,0,0:0:0:0:
320,192,94822,1,0,0:0:0:0:
320,192,94915,1,0,0:0:0:0:
192,192,94915,1,0,0:0:0:0:
320,192,95102,1,0,0:0:0:0:
320,192,95195,1,0,0:0:0:0:
320,192,95289,1,0,0:0:0:0:
448,192,95289,1,0,0:0:0:0:
192,192,95476,1,0,0:0:0:0:
192,192,95569,1,0,0:0:0:0:
192,192,95662,1,0,0:0:0:0:
320,192,95662,1,0,0:0:0:0:
448,192,95849,1,0,0:0:0:0:
448,192,95943,1,0,0:0:0:0:
448,192,96036,1,0,0:0:0:0:
320,192,96036,1,0,0:0:0:0:
192,192,96223,1,0,0:0:0:0:
192,192,96316,1,0,0:0:0:0:
192,192,96410,1,0,0:0:0:0:
64,192,96410,1,0,0:0:0:0:
320,192,96596,1,0,0:0:0:0:
320,192,96690,1,0,0:0:0:0:
320,192,96783,1,0,0:0:0:0:
320,192,96877,1,0,0:0:0:0:
192,192,96970,1,0,0:0:0:0:
320,192,96970,1,0,0:0:0:0:
192,192,97063,1,0,0:0:0:0:
192,192,97157,1,0,0:0:0:0:
192,192,97250,1,0,0:0:0:0:
192,192,97344,1,0,0:0:0:0:
448,192,97344,1,0,0:0:0:0:
448,192,97437,1,0,0:0:0:0:
448,192,97530,1,0,0:0:0:0:
448,192,97624,1,0,0:0:0:0:
448,192,97717,1,0,0:0:0:0:
64,192,97717,1,0,0:0:0:0:
64,192,97811,1,0,0:0:0:0:
64,192,97904,1,0,0:0:0:0:
64,192,97997,1,0,0:0:0:0:
64,192,98091,1,0,0:0:0:0:
192,192,98091,1,0,0:0:0:0:
448,192,98091,1,0,0:0:0:0:
192,192,103508,5,0,0:0:0:0:
320,192,103508,1,0,0:0:0:0:
320,192,103601,1,0,0:0:0:0:
192,192,103601,1,0,0:0:0:0:
192,192,103695,1,0,0:0:0:0:
320,192,103695,1,0,0:0:0:0:
320,192,103788,1,0,0:0:0:0:
192,192,103788,1,0,0:0:0:0:
192,192,103882,1,0,0:0:0:0:
320,192,103882,1,0,0:0:0:0:
64,192,104068,1,0,0:0:0:0:
192,192,104068,1,0,0:0:0:0:
320,192,104068,1,0,0:0:0:0:
448,192,104068,1,0,0:0:0:0:
448,192,104162,1,0,0:0:0:0:
192,192,104162,1,0,0:0:0:0:
448,192,104255,1,0,0:0:0:0:
64,192,104255,1,0,0:0:0:0:
448,192,104349,1,0,0:0:0:0:
320,192,104349,1,0,0:0:0:0:
448,192,104442,1,0,0:0:0:0:
192,192,104442,1,0,0:0:0:0:
64,192,104442,1,0,0:0:0:0:
448,192,104535,1,0,0:0:0:0:
320,192,104535,1,0,0:0:0:0:
448,192,104629,1,0,0:0:0:0:
64,192,104629,1,0,0:0:0:0:
448,192,104722,1,0,0:0:0:0:
192,192,104722,1,0,0:0:0:0:
448,192,104816,1,0,0:0:0:0:
64,192,104816,1,0,0:0:0:0:
320,192,104816,1,0,0:0:0:0:
448,192,104909,1,0,0:0:0:0:
192,192,104909,1,0,0:0:0:0:
448,192,105002,1,0,0:0:0:0:
320,192,105002,1,0,0:0:0:0:
192,192,105002,1,0,0:0:0:0:
64,192,105002,1,0,0:0:0:0:
448,192,105096,1,0,0:0:0:0:
64,192,105096,1,0,0:0:0:0:
448,192,105189,1,0,0:0:0:0:
320,192,105189,1,0,0:0:0:0:
64,192,105189,1,0,0:0:0:0:
448,192,105283,1,0,0:0:0:0:
64,192,105283,1,0,0:0:0:0:
448,192,105376,1,0,0:0:0:0:
320,192,105376,1,0,0:0:0:0:
192,192,105376,1,0,0:0:0:0:
64,192,105376,1,0,0:0:0:0:
448,192,105469,1,0,0:0:0:0:
192,192,105469,1,0,0:0:0:0:
320,192,105563,1,0,0:0:0:0:
448,192,105563,1,0,0:0:0:0:
64,192,105563,1,0,0:0:0:0:
192,192,105563,1,0,0:0:0:0:
320,192,105656,1,0,0:0:0:0:
192,192,105656,1,0,0:0:0:0:
320,192,105750,1,0,0:0:0:0:
64,192,105750,1,0,0:0:0:0:
320,192,105843,1,0,0:0:0:0:
448,192,105843,1,0,0:0:0:0:
320,192,105936,1,0,0:0:0:0:
192,192,105936,1,0,0:0:0:0:
64,192,105936,1,0,0:0:0:0:
320,192,106030,1,0,0:0:0:0:
448,192,106030,1,0,0:0:0:0:
320,192,106123,1,0,0:0:0:0:
192,192,106123,1,0,0:0:0:0:
320,192,106217,1,0,0:0:0:0:
448,192,106217,1,0,0:0:0:0:
320,192,106310,1,0,0:0:0:0:
64,192,106310,1,0,0:0:0:0:
448,192,106310,1,0,0:0:0:0:
320,192,106403,1,0,0:0:0:0:
192,192,106403,1,0,0:0:0:0:
320,192,106497,1,0,0:0:0:0:
448,192,106497,1,0,0:0:0:0:
192,192,106497,1,0,0:0:0:0:
64,192,106497,1,0,0:0:0:0:
320,192,106590,1,0,0:0:0:0:
64,192,106590,1,0,0:0:0:0:
320,192,106684,1,0,0:0:0:0:
192,192,106684,1,0,0:0:0:0:
448,192,106684,1,0,0:0:0:0:
320,192,106777,1,0,0:0:0:0:
64,192,106777,1,0,0:0:0:0:
320,192,106870,1,0,0:0:0:0:
448,192,106870,1,0,0:0:0:0:
192,192,106870,1,0,0:0:0:0:
64,192,106870,1,0,0:0:0:0:
320,192,106964,1,0,0:0:0:0:
192,192,106964,1,0,0:0:0:0:
320,192,107057,1,0,0:0:0:0:
192,192,107057,1,0,0:0:0:0:
64,192,107057,1,0,0:0:0:0:
448,192,107057,1,0,0:0:0:0:
192,192,107151,1,0,0:0:0:0:
320,192,107151,1,0,0:0:0:0:
192,192,107244,1,0,0:0:0:0:
448,192,107244,1,0,0:0:0:0:
192,192,107337,1,0,0:0:0:0:
320,192,107337,1,0,0:0:0:0:
192,192,107431,1,0,0:0:0:0:
64,192,107431,1,0,0:0:0:0:
448,192,107431,1,0,0:0:0:0:
192,192,107524,1,0,0:0:0:0:
448,192,107524,1,0,0:0:0:0:
192,192,107618,1,0,0:0:0:0:
320,192,107618,1,0,0:0:0:0:
192,192,107711,1,0,0:0:0:0:
64,192,107711,1,0,0:0:0:0:
192,192,107804,1,0,0:0:0:0:
448,192,107804,1,0,0:0:0:0:
320,192,107804,1,0,0:0:0:0:
192,192,107898,1,0,0:0:0:0:
64,192,107898,1,0,0:0:0:0:
192,192,107991,1,0,0:0:0:0:
320,192,107991,1,0,0:0:0:0:
448,192,107991,1,0,0:0:0:0:
64,192,107991,1,0,0:0:0:0:
192,192,108085,1,0,0:0:0:0:
448,192,108085,1,0,0:0:0:0:
192,192,108178,1,0,0:0:0:0:
64,192,108178,1,0,0:0:0:0:
320,192,108178,1,0,0:0:0:0:
192,192,108271,1,0,0:0:0:0:
448,192,108271,1,0,0:0:0:0:
192,192,108365,1,0,0:0:0:0:
64,192,108365,1,0,0:0:0:0:
320,192,108365,1,0,0:0:0:0:
448,192,108365,1,0,0:0:0:0:
192,192,108458,1,0,0:0:0:0:
448,192,108458,1,0,0:0:0:0:
64,192,108552,1,0,0:0:0:0:
192,192,108552,1,0,0:0:0:0:
320,192,108552,1,0,0:0:0:0:
448,192,108552,1,0,0:0:0:0:
64,192,108645,1,0,0:0:0:0:
192,192,108645,1,0,0:0:0:0:
64,192,108738,1,0,0:0:0:0:
320,192,108738,1,0,0:0:0:0:
64,192,108832,1,0,0:0:0:0:
448,192,108832,1,0,0:0:0:0:
64,192,108925,1,0,0:0:0:0:
192,192,108925,1,0,0:0:0:0:
320,192,108925,1,0,0:0:0:0:
448,192,108925,1,0,0:0:0:0:
64,192,109019,1,0,0:0:0:0:
192,192,109019,1,0,0:0:0:0:
64,192,109112,1,0,0:0:0:0:
320,192,109112,1,0,0:0:0:0:
64,192,109205,1,0,0:0:0:0:
448,192,109205,1,0,0:0:0:0:
64,192,109299,1,0,0:0:0:0:
192,192,109299,1,0,0:0:0:0:
320,192,109299,1,0,0:0:0:0:
448,192,109299,1,0,0:0:0:0:
64,192,109392,1,0,0:0:0:0:
320,192,109392,1,0,0:0:0:0:
64,192,109486,1,0,0:0:0:0:
448,192,109486,1,0,0:0:0:0:
320,192,109486,1,0,0:0:0:0:
192,192,109486,1,0,0:0:0:0:
64,192,109579,1,0,0:0:0:0:
448,192,109579,1,0,0:0:0:0:
64,192,109672,1,0,0:0:0:0:
320,192,109672,1,0,0:0:0:0:
192,192,109672,1,0,0:0:0:0:
64,192,109766,1,0,0:0:0:0:
192,192,109766,1,0,0:0:0:0:
64,192,109859,1,0,0:0:0:0:
320,192,109859,1,0,0:0:0:0:
64,192,109953,1,0,0:0:0:0:
192,192,109953,1,0,0:0:0:0:
64,192,110046,1,0,0:0:0:0:
448,192,110046,1,0,0:0:0:0:
320,192,110046,1,0,0:0:0:0:
192,192,110046,1,0,0:0:0:0:
448,192,110139,1,0,0:0:0:0:
192,192,110139,1,0,0:0:0:0:
448,192,110233,1,0,0:0:0:0:
64,192,110233,1,0,0:0:0:0:
448,192,110326,1,0,0:0:0:0:
320,192,110326,1,0,0:0:0:0:
448,192,110420,1,0,0:0:0:0:
192,192,110420,1,0,0:0:0:0:
64,192,110420,1,0,0:0:0:0:
448,192,110513,1,0,0:0:0:0:
320,192,110513,1,0,0:0:0:0:
448,192,110606,1,0,0:0:0:0:
64,192,110606,1,0,0:0:0:0:
448,192,110700,1,0,0:0:0:0:
192,192,110700,1,0,0:0:0:0:
448,192,110793,1,0,0:0:0:0:
64,192,110793,1,0,0:0:0:0:
320,192,110793,1,0,0:0:0:0:
448,192,110887,1,0,0:0:0:0:
448,192,110980,1,0,0:0:0:0:
320,192,110980,1,0,0:0:0:0:
192,192,110980,1,0,0:0:0:0:
64,192,110980,1,0,0:0:0:0:
448,192,111073,1,0,0:0:0:0:
192,192,111073,1,0,0:0:0:0:
448,192,111167,1,0,0:0:0:0:
320,192,111167,1,0,0:0:0:0:
64,192,111167,1,0,0:0:0:0:
448,192,111260,1,0,0:0:0:0:
192,192,111260,1,0,0:0:0:0:
448,192,111354,1,0,0:0:0:0:
64,192,111354,1,0,0:0:0:0:
320,192,111354,1,0,0:0:0:0:
192,192,111354,1,0,0:0:0:0:
448,192,111447,1,0,0:0:0:0:
192,192,111447,1,0,0:0:0:0:
192,192,111540,1,0,0:0:0:0:
64,192,111540,1,0,0:0:0:0:
320,192,111540,1,0,0:0:0:0:
448,192,111540,1,0,0:0:0:0:
320,192,111634,1,0,0:0:0:0:
448,192,111634,1,0,0:0:0:0:
320,192,111727,1,0,0:0:0:0:
192,192,111727,1,0,0:0:0:0:
320,192,111821,1,0,0:0:0:0:
448,192,111821,1,0,0:0:0:0:
320,192,111914,1,0,0:0:0:0:
64,192,111914,1,0,0:0:0:0:
192,192,111914,1,0,0:0:0:0:
320,192,112007,1,0,0:0:0:0:
448,192,112007,1,0,0:0:0:0:
320,192,112101,1,0,0:0:0:0:
192,192,112101,1,0,0:0:0:0:
320,192,112194,1,0,0:0:0:0:
64,192,112194,1,0,0:0:0:0:
320,192,112288,1,0,0:0:0:0:
448,192,112288,1,0,0:0:0:0:
192,192,112288,1,0,0:0:0:0:
320,192,112381,1,0,0:0:0:0:
64,192,112381,1,0,0:0:0:0:
320,192,112474,5,0,0:0:0:0:
192,192,112474,1,0,0:0:0:0:
448,192,112474,1,0,0:0:0:0:
64,192,112474,1,0,0:0:0:0:
320,192,112568,1,0,0:0:0:0:
192,192,112568,1,0,0:0:0:0:
320,192,112661,1,0,0:0:0:0:
64,192,112661,1,0,0:0:0:0:
448,192,112661,1,0,0:0:0:0:
320,192,112755,1,0,0:0:0:0:
448,192,112755,1,0,0:0:0:0:
320,192,112848,1,0,0:0:0:0:
448,192,112848,1,0,0:0:0:0:
192,192,112848,1,0,0:0:0:0:
64,192,112848,1,0,0:0:0:0:
320,192,112941,1,0,0:0:0:0:
192,192,112941,1,0,0:0:0:0:
192,192,113035,1,0,0:0:0:0:
64,192,113035,1,0,0:0:0:0:
320,192,113035,1,0,0:0:0:0:
448,192,113035,1,0,0:0:0:0:
192,192,113128,1,0,0:0:0:0:
320,192,113128,1,0,0:0:0:0:
192,192,113222,1,0,0:0:0:0:
448,192,113222,1,0,0:0:0:0:
192,192,113315,1,0,0:0:0:0:
320,192,113315,1,0,0:0:0:0:
192,192,113408,1,0,0:0:0:0:
64,192,113408,1,0,0:0:0:0:
448,192,113408,1,0,0:0:0:0:
192,192,113502,1,0,0:0:0:0:
320,192,113502,1,0,0:0:0:0:
192,192,113595,1,0,0:0:0:0:
448,192,113595,1,0,0:0:0:0:
192,192,113689,1,0,0:0:0:0:
320,192,113689,1,0,0:0:0:0:
192,192,113782,1,0,0:0:0:0:
320,192,113782,1,0,0:0:0:0:
448,192,113782,1,0,0:0:0:0:
64,192,113782,1,0,0:0:0:0:
192,192,113875,1,0,0:0:0:0:
64,192,113875,1,0,0:0:0:0:
192,192,113969,1,0,0:0:0:0:
320,192,113969,1,0,0:0:0:0:
192,192,114062,1,0,0:0:0:0:
64,192,114062,1,0,0:0:0:0:
192,192,114156,1,0,0:0:0:0:
320,192,114156,1,0,0:0:0:0:
448,192,114156,1,0,0:0:0:0:
192,192,114249,1,0,0:0:0:0:
320,192,114249,1,0,0:0:0:0:
64,192,114342,1,0,0:0:0:0:
192,192,114342,1,0,0:0:0:0:
448,192,114436,1,0,0:0:0:0:
320,192,114436,1,0,0:0:0:0:
64,192,114529,1,0,0:0:0:0:
192,192,114529,1,0,0:0:0:0:
320,192,114529,1,0,0:0:0:0:
448,192,114529,1,0,0:0:0:0:
64,192,114623,1,0,0:0:0:0:
192,192,114623,1,0,0:0:0:0:
320,192,114623,1,0,0:0:0:0:
448,192,114623,1,0,0:0:0:0:
64,192,114716,1,0,0:0:0:0:
192,192,114716,1,0,0:0:0:0:
320,192,114716,1,0,0:0:0:0:
448,192,114716,1,0,0:0:0:0:
64,192,114809,1,0,0:0:0:0:
320,192,114809,1,0,0:0:0:0:
448,192,114809,1,0,0:0:0:0:
192,192,114809,1,0,0:0:0:0:
64,192,114903,1,0,0:0:0:0:
192,192,114903,1,0,0:0:0:0:
320,192,114903,1,0,0:0:0:0:
448,192,114903,1,0,0:0:0:0:
64,192,114996,1,0,0:0:0:0:
448,192,114996,1,0,0:0:0:0:
320,192,114996,1,0,0:0:0:0:
192,192,114996,1,0,0:0:0:0:
64,192,115090,1,0,0:0:0:0:
192,192,115090,1,0,0:0:0:0:
320,192,115090,1,0,0:0:0:0:
448,192,115090,1,0,0:0:0:0:
64,192,115183,1,0,0:0:0:0:
448,192,115183,1,0,0:0:0:0:
320,192,115183,1,0,0:0:0:0:
192,192,115183,1,0,0:0:0:0:
64,192,115276,1,0,0:0:0:0:
192,192,115276,1,0,0:0:0:0:
320,192,115276,1,0,0:0:0:0:
448,192,115276,1,0,0:0:0:0:
64,192,115370,1,0,0:0:0:0:
448,192,115370,1,0,0:0:0:0:
320,192,115370,1,0,0:0:0:0:
192,192,115370,1,0,0:0:0:0:
64,192,115463,1,0,0:0:0:0:
192,192,115463,1,0,0:0:0:0:
320,192,115463,1,0,0:0:0:0:
448,192,115463,1,0,0:0:0:0:
64,192,115557,1,0,0:0:0:0:
448,192,115557,1,0,0:0:0:0:
320,192,115557,1,0,0:0:0:0:
192,192,115557,1,0,0:0:0:0:
64,192,115650,1,0,0:0:0:0:
192,192,115650,1,0,0:0:0:0:
320,192,115650,1,0,0:0:0:0:
448,192,115650,1,0,0:0:0:0:
64,192,115743,1,0,0:0:0:0:
320,192,115743,1,0,0:0:0:0:
192,192,115743,1,0,0:0:0:0:
448,192,115743,1,0,0:0:0:0:
64,192,115837,1,0,0:0:0:0:
448,192,115837,1,0,0:0:0:0:
320,192,115837,1,0,0:0:0:0:
192,192,115837,1,0,0:0:0:0:
64,192,115930,1,0,0:0:0:0:
192,192,115930,1,0,0:0:0:0:
320,192,115930,1,0,0:0:0:0:
448,192,115930,1,0,0:0:0:0:
64,192,116024,1,0,0:0:0:0:
192,192,116024,1,0,0:0:0:0:
320,192,116024,1,0,0:0:0:0:
448,192,116024,1,0,0:0:0:0:
448,192,116117,1,0,0:0:0:0:
192,192,116117,1,0,0:0:0:0:
448,192,116210,1,0,0:0:0:0:
64,192,116210,1,0,0:0:0:0:
448,192,116304,1,0,0:0:0:0:
320,192,116304,1,0,0:0:0:0:
448,192,116397,1,0,0:0:0:0:
192,192,116397,1,0,0:0:0:0:
64,192,116397,1,0,0:0:0:0:
448,192,116491,1,0,0:0:0:0:
320,192,116491,1,0,0:0:0:0:
448,192,116584,1,0,0:0:0:0:
64,192,116584,1,0,0:0:0:0:
448,192,116677,1,0,0:0:0:0:
192,192,116677,1,0,0:0:0:0:
448,192,116771,1,0,0:0:0:0:
64,192,116771,1,0,0:0:0:0:
320,192,116771,1,0,0:0:0:0:
448,192,116864,1,0,0:0:0:0:
192,192,116864,1,0,0:0:0:0:
448,192,116958,1,0,0:0:0:0:
320,192,116958,1,0,0:0:0:0:
192,192,116958,1,0,0:0:0:0:
64,192,116958,1,0,0:0:0:0:
448,192,117051,1,0,0:0:0:0:
64,192,117051,1,0,0:0:0:0:
448,192,117144,1,0,0:0:0:0:
320,192,117144,1,0,0:0:0:0:
64,192,117144,1,0,0:0:0:0:
448,192,117238,1,0,0:0:0:0:
64,192,117238,1,0,0:0:0:0:
448,192,117331,1,0,0:0:0:0:
320,192,117331,1,0,0:0:0:0:
192,192,117331,1,0,0:0:0:0:
64,192,117331,1,0,0:0:0:0:
448,192,117425,1,0,0:0:0:0:
192,192,117425,1,0,0:0:0:0:
320,192,117518,1,0,0:0:0:0:
448,192,117518,1,0,0:0:0:0:
64,192,117518,1,0,0:0:0:0:
192,192,117518,1,0,0:0:0:0:
320,192,117611,1,0,0:0:0:0:
192,192,117611,1,0,0:0:0:0:
320,192,117705,1,0,0:0:0:0:
64,192,117705,1,0,0:0:0:0:
320,192,117798,1,0,0:0:0:0:
448,192,117798,1,0,0:0:0:0:
320,192,117892,1,0,0:0:0:0:
192,192,117892,1,0,0:0:0:0:
64,192,117892,1,0,0:0:0:0:
320,192,117985,1,0,0:0:0:0:
448,192,117985,1,0,0:0:0:0:
320,192,118078,1,0,0:0:0:0:
192,192,118078,1,0,0:0:0:0:
320,192,118172,1,0,0:0:0:0:
448,192,118172,1,0,0:0:0:0:
320,192,118265,1,0,0:0:0:0:
64,192,118265,1,0,0:0:0:0:
448,192,118265,1,0,0:0:0:0:
320,192,118359,1,0,0:0:0:0:
192,192,118359,1,0,0:0:0:0:
320,192,118452,1,0,0:0:0:0:
448,192,118452,1,0,0:0:0:0:
192,192,118452,1,0,0:0:0:0:
64,192,118452,1,0,0:0:0:0:
320,192,118545,1,0,0:0:0:0:
64,192,118545,1,0,0:0:0:0:
320,192,118639,1,0,0:0:0:0:
192,192,118639,1,0,0:0:0:0:
448,192,118639,1,0,0:0:0:0:
320,192,118732,1,0,0:0:0:0:
64,192,118732,1,0,0:0:0:0:
320,192,118826,1,0,0:0:0:0:
448,192,118826,1,0,0:0:0:0:
192,192,118826,1,0,0:0:0:0:
64,192,118826,1,0,0:0:0:0:
320,192,118919,1,0,0:0:0:0:
192,192,118919,1,0,0:0:0:0:
320,192,119012,1,0,0:0:0:0:
192,192,119012,1,0,0:0:0:0:
64,192,119012,1,0,0:0:0:0:
448,192,119012,1,0,0:0:0:0:
192,192,119106,1,0,0:0:0:0:
320,192,119106,1,0,0:0:0:0:
192,192,119199,1,0,0:0:0:0:
448,192,119199,1,0,0:0:0:0:
192,192,119293,1,0,0:0:0:0:
320,192,119293,1,0,0:0:0:0:
192,192,119386,1,0,0:0:0:0:
64,192,119386,1,0,0:0:0:0:
448,192,119386,1,0,0:0:0:0:
192,192,119479,1,0,0:0:0:0:
448,192,119479,1,0,0:0:0:0:
192,192,119573,1,0,0:0:0:0:
320,192,119573,1,0,0:0:0:0:
192,192,119666,1,0,0:0:0:0:
64,192,119666,1,0,0:0:0:0:
192,192,119760,1,0,0:0:0:0:
448,192,119760,1,0,0:0:0:0:
320,192,119760,1,0,0:0:0:0:
192,192,119853,1,0,0:0:0:0:
64,192,119853,1,0,0:0:0:0:
192,192,119946,1,0,0:0:0:0:
320,192,119946,1,0,0:0:0:0:
448,192,119946,1,0,0:0:0:0:
64,192,119946,1,0,0:0:0:0:
192,192,120040,1,0,0:0:0:0:
448,192,120040,1,0,0:0:0:0:
192,192,120133,1,0,0:0:0:0:
64,192,120133,1,0,0:0:0:0:
320,192,120133,1,0,0:0:0:0:
192,192,120227,1,0,0:0:0:0:
448,192,120227,1,0,0:0:0:0:
192,192,120320,1,0,0:0:0:0:
64,192,120320,1,0,0:0:0:0:
320,192,120320,1,0,0:0:0:0:
448,192,120320,1,0,0:0:0:0:
192,192,120413,1,0,0:0:0:0:
448,192,120413,1,0,0:0:0:0:
64,192,120507,1,0,0:0:0:0:
192,192,120507,1,0,0:0:0:0:
320,192,120507,1,0,0:0:0:0:
448,192,120507,1,0,0:0:0:0:
64,192,120600,1,0,0:0:0:0:
192,192,120600,1,0,0:0:0:0:
64,192,120694,1,0,0:0:0:0:
320,192,120694,1,0,0:0:0:0:
64,192,120787,1,0,0:0:0:0:
448,192,120787,1,0,0:0:0:0:
64,192,120880,1,0,0:0:0:0:
192,192,120880,1,0,0:0:0:0:
320,192,120880,1,0,0:0:0:0:
448,192,120880,1,0,0:0:0:0:
64,192,120974,1,0,0:0:0:0:
192,192,120974,1,0,0:0:0:0:
64,192,121067,1,0,0:0:0:0:
320,192,121067,1,0,0:0:0:0:
64,192,121161,1,0,0:0:0:0:
448,192,121161,1,0,0:0:0:0:
64,192,121254,1,0,0:0:0:0:
192,192,121254,1,0,0:0:0:0:
320,192,121254,1,0,0:0:0:0:
448,192,121254,1,0,0:0:0:0:
64,192,121347,1,0,0:0:0:0:
320,192,121347,1,0,0:0:0:0:
64,192,121441,1,0,0:0:0:0:
448,192,121441,1,0,0:0:0:0:
320,192,121441,1,0,0:0:0:0:
192,192,121441,1,0,0:0:0:0:
64,192,121534,1,0,0:0:0:0:
448,192,121534,1,0,0:0:0:0:
64,192,121628,1,0,0:0:0:0:
320,192,121628,1,0,0:0:0:0:
192,192,121628,1,0,0:0:0:0:
64,192,121721,1,0,0:0:0:0:
192,192,121721,1,0,0:0:0:0:
64,192,121814,1,0,0:0:0:0:
320,192,121814,1,0,0:0:0:0:
64,192,121908,1,0,0:0:0:0:
192,192,121908,1,0,0:0:0:0:
64,192,122001,1,0,0:0:0:0:
448,192,122001,1,0,0:0:0:0:
320,192,122001,1,0,0:0:0:0:
192,192,122001,1,0,0:0:0:0:
448,192,122095,1,0,0:0:0:0:
192,192,122095,1,0,0:0:0:0:
448,192,122188,1,0,0:0:0:0:
64,192,122188,1,0,0:0:0:0:
448,192,122281,1,0,0:0:0:0:
320,192,122281,1,0,0:0:0:0:
448,192,122375,1,0,0:0:0:0:
192,192,122375,1,0,0:0:0:0:
64,192,122375,1,0,0:0:0:0:
448,192,122468,1,0,0:0:0:0:
320,192,122468,1,0,0:0:0:0:
448,192,122562,1,0,0:0:0:0:
64,192,122562,1,0,0:0:0:0:
448,192,122655,1,0,0:0:0:0:
192,192,122655,1,0,0:0:0:0:
448,192,122748,1,0,0:0:0:0:
64,192,122748,1,0,0:0:0:0:
320,192,122748,1,0,0:0:0:0:
448,192,122842,1,0,0:0:0:0:
448,192,122935,1,0,0:0:0:0:
320,192,122935,1,0,0:0:0:0:
192,192,122935,1,0,0:0:0:0:
64,192,122935,1,0,0:0:0:0:
448,192,123029,1,0,0:0:0:0:
192,192,123029,1,0,0:0:0:0:
448,192,123122,1,0,0:0:0:0:
320,192,123122,1,0,0:0:0:0:
64,192,123122,1,0,0:0:0:0:
448,192,123215,1,0,0:0:0:0:
192,192,123215,1,0,0:0:0:0:
448,192,123309,1,0,0:0:0:0:
64,192,123309,1,0,0:0:0:0:
320,192,123309,1,0,0:0:0:0:
192,192,123309,1,0,0:0:0:0:
448,192,123402,1,0,0:0:0:0:
192,192,123402,1,0,0:0:0:0:
192,192,123496,1,0,0:0:0:0:
64,192,123496,1,0,0:0:0:0:
320,192,123496,1,0,0:0:0:0:
448,192,123496,1,0,0:0:0:0:
320,192,123589,1,0,0:0:0:0:
448,192,123589,1,0,0:0:0:0:
320,192,123682,1,0,0:0:0:0:
192,192,123682,1,0,0:0:0:0:
320,192,123776,1,0,0:0:0:0:
448,192,123776,1,0,0:0:0:0:
320,192,123869,1,0,0:0:0:0:
64,192,123869,1,0,0:0:0:0:
192,192,123869,1,0,0:0:0:0:
320,192,123963,1,0,0:0:0:0:
448,192,123963,1,0,0:0:0:0:
320,192,124056,1,0,0:0:0:0:
192,192,124056,1,0,0:0:0:0:
320,192,124149,1,0,0:0:0:0:
64,192,124149,1,0,0:0:0:0:
320,192,124243,1,0,0:0:0:0:
448,192,124243,1,0,0:0:0:0:
192,192,124243,1,0,0:0:0:0:
320,192,124336,1,0,0:0:0:0:
64,192,124336,1,0,0:0:0:0:
320,192,124430,1,0,0:0:0:0:
192,192,124430,1,0,0:0:0:0:
448,192,124430,1,0,0:0:0:0:
64,192,124430,1,0,0:0:0:0:
320,192,124523,1,0,0:0:0:0:
192,192,124523,1,0,0:0:0:0:
320,192,124616,1,0,0:0:0:0:
64,192,124616,1,0,0:0:0:0:
448,192,124616,1,0,0:0:0:0:
320,192,124710,1,0,0:0:0:0:
448,192,124710,1,0,0:0:0:0:
320,192,124803,1,0,0:0:0:0:
448,192,124803,1,0,0:0:0:0:
192,192,124803,1,0,0:0:0:0:
64,192,124803,1,0,0:0:0:0:
320,192,124897,1,0,0:0:0:0:
192,192,124897,1,0,0:0:0:0:
192,192,124990,1,0,0:0:0:0:
64,192,124990,1,0,0:0:0:0:
320,192,124990,1,0,0:0:0:0:
448,192,124990,1,0,0:0:0:0:
192,192,125083,1,0,0:0:0:0:
320,192,125083,1,0,0:0:0:0:
192,192,125177,1,0,0:0:0:0:
448,192,125177,1,0,0:0:0:0:
192,192,125270,1,0,0:0:0:0:
320,192,125270,1,0,0:0:0:0:
192,192,125364,1,0,0:0:0:0:
64,192,125364,1,0,0:0:0:0:
448,192,125364,1,0,0:0:0:0:
192,192,125457,1,0,0:0:0:0:
320,192,125457,1,0,0:0:0:0:
192,192,125550,1,0,0:0:0:0:
448,192,125550,1,0,0:0:0:0:
192,192,125644,1,0,0:0:0:0:
320,192,125644,1,0,0:0:0:0:
192,192,125737,1,0,0:0:0:0:
320,192,125737,1,0,0:0:0:0:
448,192,125737,1,0,0:0:0:0:
64,192,125737,1,0,0:0:0:0:
192,192,125831,1,0,0:0:0:0:
64,192,125831,1,0,0:0:0:0:
192,192,125924,1,0,0:0:0:0:
320,192,125924,1,0,0:0:0:0:
192,192,126017,1,0,0:0:0:0:
64,192,126017,1,0,0:0:0:0:
192,192,126111,1,0,0:0:0:0:
320,192,126111,1,0,0:0:0:0:
448,192,126111,1,0,0:0:0:0:
192,192,126204,1,0,0:0:0:0:
320,192,126204,1,0,0:0:0:0:
320,192,126298,1,0,0:0:0:0:
448,192,126298,1,0,0:0:0:0:
192,192,126391,1,0,0:0:0:0:
64,192,126391,1,0,0:0:0:0:
64,192,126484,1,0,0:0:0:0:
192,192,126484,1,0,0:0:0:0:
320,192,126484,1,0,0:0:0:0:
448,192,126484,1,0,0:0:0:0:
64,192,126578,1,0,0:0:0:0:
192,192,126578,1,0,0:0:0:0:
320,192,126578,1,0,0:0:0:0:
448,192,126578,1,0,0:0:0:0:
64,192,126671,1,0,0:0:0:0:
192,192,126671,1,0,0:0:0:0:
320,192,126671,1,0,0:0:0:0:
448,192,126671,1,0,0:0:0:0:
64,192,126765,1,0,0:0:0:0:
320,192,126765,1,0,0:0:0:0:
448,192,126765,1,0,0:0:0:0:
192,192,126765,1,0,0:0:0:0:
64,192,126858,1,0,0:0:0:0:
192,192,126858,1,0,0:0:0:0:
320,192,126858,1,0,0:0:0:0:
448,192,126858,1,0,0:0:0:0:
64,192,126951,1,0,0:0:0:0:
448,192,126951,1,0,0:0:0:0:
320,192,126951,1,0,0:0:0:0:
192,192,126951,1,0,0:0:0:0:
64,192,127045,1,0,0:0:0:0:
192,192,127045,1,0,0:0:0:0:
320,192,127045,1,0,0:0:0:0:
448,192,127045,1,0,0:0:0:0:
64,192,127138,1,0,0:0:0:0:
448,192,127138,1,0,0:0:0:0:
320,192,127138,1,0,0:0:0:0:
192,192,127138,1,0,0:0:0:0:
64,192,127232,1,0,0:0:0:0:
192,192,127232,1,0,0:0:0:0:
320,192,127232,1,0,0:0:0:0:
448,192,127232,1,0,0:0:0:0:
64,192,127325,1,0,0:0:0:0:
448,192,127325,1,0,0:0:0:0:
320,192,127325,1,0,0:0:0:0:
192,192,127325,1,0,0:0:0:0:
64,192,127418,1,0,0:0:0:0:
192,192,127418,1,0,0:0:0:0:
320,192,127418,1,0,0:0:0:0:
448,192,127418,1,0,0:0:0:0:
64,192,127512,1,0,0:0:0:0:
448,192,127512,1,0,0:0:0:0:
320,192,127512,1,0,0:0:0:0:
192,192,127512,1,0,0:0:0:0:
64,192,127605,1,0,0:0:0:0:
192,192,127605,1,0,0:0:0:0:
320,192,127605,1,0,0:0:0:0:
448,192,127605,1,0,0:0:0:0:
64,192,127699,1,0,0:0:0:0:
320,192,127699,1,0,0:0:0:0:
192,192,127699,1,0,0:0:0:0:
448,192,127699,1,0,0:0:0:0:
64,192,127792,1,0,0:0:0:0:
448,192,127792,1,0,0:0:0:0:
320,192,127792,1,0,0:0:0:0:
192,192,127792,1,0,0:0:0:0:
64,192,127885,1,0,0:0:0:0:
192,192,127885,1,0,0:0:0:0:
320,192,127885,1,0,0:0:0:0:
448,192,127885,1,0,0:0:0:0:
320,192,127979,1,0,0:0:0:0:
192,192,127979,1,0,0:0:0:0:
64,192,127979,1,0,0:0:0:0:
320,192,128072,1,0,0:0:0:0:
320,192,128166,1,0,0:0:0:0:
448,192,128166,1,0,0:0:0:0:
320,192,128259,1,0,0:0:0:0:
320,192,128352,1,0,0:0:0:0:
64,192,128352,1,0,0:0:0:0:
192,192,128352,1,0,0:0:0:0:
320,192,128446,1,0,0:0:0:0:
320,192,128539,1,0,0:0:0:0:
64,192,128539,1,0,0:0:0:0:
320,192,128633,1,0,0:0:0:0:
320,192,128726,1,0,0:0:0:0:
448,192,128726,1,0,0:0:0:0:
192,192,128726,1,0,0:0:0:0:
320,192,128819,1,0,0:0:0:0:
320,192,128913,1,0,0:0:0:0:
64,192,128913,1,0,0:0:0:0:
320,192,129006,1,0,0:0:0:0:
320,192,129100,1,0,0:0:0:0:
192,192,129100,1,0,0:0:0:0:
448,192,129100,1,0,0:0:0:0:
320,192,129193,1,0,0:0:0:0:
320,192,129286,1,0,0:0:0:0:
192,192,129286,1,0,0:0:0:0:
320,192,129380,1,0,0:0:0:0:
320,192,129473,1,0,0:0:0:0:
192,192,129473,1,0,0:0:0:0:
448,192,129473,1,0,0:0:0:0:
192,192,129567,1,0,0:0:0:0:
192,192,129660,1,0,0:0:0:0:
64,192,129660,1,0,0:0:0:0:
192,192,129753,1,0,0:0:0:0:
192,192,129847,1,0,0:0:0:0:
320,192,129847,1,0,0:0:0:0:
448,192,129847,1,0,0:0:0:0:
192,192,129940,1,0,0:0:0:0:
192,192,130034,1,0,0:0:0:0:
320,192,130034,1,0,0:0:0:0:
192,192,130127,1,0,0:0:0:0:
192,192,130220,1,0,0:0:0:0:
64,192,130220,1,0,0:0:0:0:
320,192,130220,1,0,0:0:0:0:
192,192,130314,1,0,0:0:0:0:
192,192,130407,1,0,0:0:0:0:
448,192,130407,1,0,0:0:0:0:
192,192,130501,1,0,0:0:0:0:
192,192,130594,1,0,0:0:0:0:
320,192,130594,1,0,0:0:0:0:
64,192,130594,1,0,0:0:0:0:
192,192,130687,1,0,0:0:0:0:
192,192,130781,1,0,0:0:0:0:
64,192,130781,1,0,0:0:0:0:
192,192,130874,1,0,0:0:0:0:
192,192,130968,1,0,0:0:0:0:
320,192,130968,1,0,0:0:0:0:
448,192,130968,1,0,0:0:0:0:
320,192,131061,1,0,0:0:0:0:
320,192,131154,1,0,0:0:0:0:
192,192,131154,1,0,0:0:0:0:
320,192,131248,1,0,0:0:0:0:
320,192,131341,1,0,0:0:0:0:
192,192,131341,1,0,0:0:0:0:
448,192,131341,1,0,0:0:0:0:
320,192,131435,1,0,0:0:0:0:
320,192,131528,1,0,0:0:0:0:
448,192,131528,1,0,0:0:0:0:
320,192,131621,1,0,0:0:0:0:
320,192,131715,1,0,0:0:0:0:
448,192,131715,1,0,0:0:0:0:
192,192,131715,1,0,0:0:0:0:
320,192,131808,1,0,0:0:0:0:
320,192,131902,1,0,0:0:0:0:
64,192,131902,1,0,0:0:0:0:
320,192,131995,1,0,0:0:0:0:
320,192,132088,1,0,0:0:0:0:
448,192,132088,1,0,0:0:0:0:
192,192,132088,1,0,0:0:0:0:
320,192,132182,1,0,0:0:0:0:
320,192,132275,1,0,0:0:0:0:
64,192,132275,1,0,0:0:0:0:
320,192,132369,1,0,0:0:0:0:
320,192,132462,1,0,0:0:0:0:
192,192,132462,1,0,0:0:0:0:
64,192,132462,1,0,0:0:0:0:
192,192,132555,1,0,0:0:0:0:
192,192,132649,1,0,0:0:0:0:
448,192,132649,1,0,0:0:0:0:
192,192,132742,1,0,0:0:0:0:
192,192,132836,1,0,0:0:0:0:
64,192,132836,1,0,0:0:0:0:
448,192,132836,1,0,0:0:0:0:
192,192,132929,1,0,0:0:0:0:
192,192,133022,1,0,0:0:0:0:
320,192,133022,1,0,0:0:0:0:
192,192,133116,1,0,0:0:0:0:
192,192,133209,1,0,0:0:0:0:
64,192,133209,1,0,0:0:0:0:
448,192,133209,1,0,0:0:0:0:
192,192,133303,1,0,0:0:0:0:
192,192,133396,1,0,0:0:0:0:
64,192,133396,1,0,0:0:0:0:
192,192,133489,1,0,0:0:0:0:
192,192,133583,1,0,0:0:0:0:
320,192,133583,1,0,0:0:0:0:
448,192,133583,1,0,0:0:0:0:
192,192,133676,1,0,0:0:0:0:
192,192,133770,1,0,0:0:0:0:
64,192,133770,1,0,0:0:0:0:
192,192,133863,1,0,0:0:0:0:
192,192,133956,1,0,0:0:0:0:
448,192,133956,1,0,0:0:0:0:
320,192,133956,1,0,0:0:0:0:
64,192,133956,1,0,0:0:0:0:
192,192,134050,1,0,0:0:0:0:
320,192,134143,1,0,0:0:0:0:
448,192,134237,1,0,0:0:0:0:
64,192,134330,1,0,0:0:0:0:
192,192,134330,1,0,0:0:0:0:
192,192,134423,1,0,0:0:0:0:
320,192,134517,1,0,0:0:0:0:
448,192,134610,1,0,0:0:0:0:
448,192,134704,1,0,0:0:0:0:
320,192,134797,1,0,0:0:0:0:
192,192,134890,1,0,0:0:0:0:
64,192,134984,1,0,0:0:0:0:
448,192,135077,1,0,0:0:0:0:
320,192,135077,1,0,0:0:0:0:
320,192,135171,1,0,0:0:0:0:
192,192,135264,1,0,0:0:0:0:
64,192,135357,1,0,0:0:0:0:
64,192,135451,1,0,0:0:0:0:
192,192,135544,1,0,0:0:0:0:
320,192,135638,1,0,0:0:0:0:
448,192,135731,1,0,0:0:0:0:
64,192,135824,1,0,0:0:0:0:
192,192,135824,1,0,0:0:0:0:
192,192,135918,1,0,0:0:0:0:
320,192,136011,1,0,0:0:0:0:
448,192,136105,1,0,0:0:0:0:
448,192,136198,1,0,0:0:0:0:
320,192,136291,1,0,0:0:0:0:
192,192,136385,1,0,0:0:0:0:
320,192,136385,1,0,0:0:0:0:
64,192,136478,1,0,0:0:0:0:
448,192,136572,1,0,0:0:0:0:
320,192,136572,1,0,0:0:0:0:
320,192,136665,1,0,0:0:0:0:
192,192,136758,1,0,0:0:0:0:
64,192,136852,1,0,0:0:0:0:
64,192,136945,1,0,0:0:0:0:
192,192,137039,1,0,0:0:0:0:
320,192,137132,1,0,0:0:0:0:
448,192,137225,1,0,0:0:0:0:
64,192,137319,1,0,0:0:0:0:
192,192,137319,1,0,0:0:0:0:
192,192,137412,1,0,0:0:0:0:
320,192,137506,1,0,0:0:0:0:
448,192,137599,1,0,0:0:0:0:
448,192,137692,1,0,0:0:0:0:
320,192,137786,1,0,0:0:0:0:
192,192,137879,1,0,0:0:0:0:
64,192,137973,1,0,0:0:0:0:
448,192,138066,1,0,0:0:0:0:
320,192,138066,1,0,0:0:0:0:
320,192,138159,1,0,0:0:0:0:
192,192,138253,1,0,0:0:0:0:
64,192,138346,1,0,0:0:0:0:
64,192,138440,1,0,0:0:0:0:
320,192,138440,1,0,0:0:0:0:
192,192,138533,1,0,0:0:0:0:
320,192,138626,1,0,0:0:0:0:
448,192,138720,1,0,0:0:0:0:
64,192,138813,1,0,0:0:0:0:
320,192,138813,1,0,0:0:0:0:
192,192,138907,1,0,0:0:0:0:
320,192,139000,1,0,0:0:0:0:
448,192,139093,1,0,0:0:0:0:
64,192,139187,1,0,0:0:0:0:
320,192,139187,1,0,0:0:0:0:
192,192,139280,1,0,0:0:0:0:
448,192,139374,1,0,0:0:0:0:
320,192,139467,1,0,0:0:0:0:
64,192,139560,1,0,0:0:0:0:
448,192,139560,1,0,0:0:0:0:
192,192,139654,1,0,0:0:0:0:
448,192,139747,1,0,0:0:0:0:
320,192,139841,1,0,0:0:0:0:
192,192,139934,1,0,0:0:0:0:
