osu file format v14

[General]
AudioFilename: angel_0.9.mp3
AudioLeadIn: 0
PreviewTime: -1
Countdown: 0
SampleSet: None
StackLeniency: 0.7
Mode: 3
LetterboxInBreaks: 0
SpecialStyle: 0
WidescreenStoryboard: 0

[Editor]
Bookmarks: 2732,9307,15882,22458,29033,35608,42184,48759,55334,61910,81636,88211,94786,107937,114512,121088,127663
DistanceSpacing: 1
BeatDivisor: 8
GridSize: 4
TimelineZoom: 2.1

[Metadata]
Title:angelic_layer
TitleUnicode:angelic_layer
Artist:Shiki
ArtistUnicode:Shiki
Creator:fufu-
Version:0.9
Source:
Tags:
BeatmapID:1415200
BeatmapSetID:669058

[Difficulty]
HPDrainRate:8
CircleSize:4
OverallDifficulty:9.3
ApproachRate:5
SliderMultiplier:1.4
SliderTickRate:1

[Events]
//Background and Video events
0,0,"title.jpg",0,0
//Break Periods
2,10522,14602
2,120111,125332
//Storyboard Layer 0 (Background)
//Storyboard Layer 1 (Fail)
//Storyboard Layer 2 (Pass)
//Storyboard Layer 3 (Foreground)
//Storyboard Sound Samples

[TimingPoints]
3017,456.62100456621,4,3,0,25,1,0

[HitObjects]
64,192,3017,5,4,0:0:0:0:
192,192,3017,1,0,0:0:0:0:
320,192,3017,1,0,0:0:0:0:
448,192,3017,1,0,0:0:0:0:
64,192,3131,1,0,0:0:0:0:
64,192,3245,1,2,0:0:0:0:
192,192,3245,1,0,0:0:0:0:
64,192,3359,1,0,0:0:0:0:
64,192,3473,1,8,0:0:0:0:
320,192,3473,1,0,0:0:0:0:
448,192,3473,1,0,0:0:0:0:
64,192,3587,1,0,0:0:0:0:
64,192,3701,1,2,0:0:0:0:
192,192,3701,1,0,0:0:0:0:
64,192,3816,1,0,0:0:0:0:
64,192,3930,1,8,0:0:0:0:
192,192,3930,1,0,0:0:0:0:
320,192,3930,1,0,0:0:0:0:
64,192,4044,1,0,0:0:0:0:
64,192,4158,1,2,0:0:0:0:
448,192,4158,1,0,0:0:0:0:
64,192,4272,1,0,0:0:0:0:
64,192,4386,1,8,0:0:0:0:
192,192,4386,1,0,0:0:0:0:
448,192,4386,1,0,0:0:0:0:
64,192,4501,1,0,0:0:0:0:
64,192,4615,1,2,0:0:0:0:
320,192,4615,1,0,0:0:0:0:
64,192,4729,1,0,0:0:0:0:
64,192,4843,1,8,0:0:0:0:
192,192,4843,1,0,0:0:0:0:
320,192,4843,1,0,0:0:0:0:
64,192,4957,1,0,0:0:0:0:
64,192,5071,1,2,0:0:0:0:
192,192,5071,1,0,0:0:0:0:
64,192,5185,1,0,0:0:0:0:
64,192,5300,1,8,0:0:0:0:
320,192,5300,1,0,0:0:0:0:
448,192,5300,1,0,0:0:0:0:
64,192,5414,1,0,0:0:0:0:
64,192,5528,1,2,0:0:0:0:
448,192,5528,1,0,0:0:0:0:
64,192,5642,1,0,0:0:0:0:
64,192,5756,1,8,0:0:0:0:
192,192,5756,1,0,0:0:0:0:
320,192,5756,1,0,0:0:0:0:
64,192,5870,1,0,0:0:0:0:
448,192,5870,1,0,0:0:0:0:
64,192,5985,1,2,0:0:0:0:
320,192,5985,1,0,0:0:0:0:
192,192,5985,1,0,0:0:0:0:
64,192,6099,1,0,0:0:0:0:
64,192,6213,1,8,0:0:0:0:
192,192,6213,1,0,0:0:0:0:
448,192,6213,1,0,0:0:0:0:
64,192,6327,1,0,0:0:0:0:
64,192,6441,1,2,0:0:0:0:
320,192,6441,1,0,0:0:0:0:
64,192,6555,1,0,0:0:0:0:
64,192,6669,1,8,0:0:0:0:
192,192,6669,1,0,0:0:0:0:
448,192,6669,1,0,0:0:0:0:
64,192,6784,1,0,0:0:0:0:
64,192,6898,1,2,0:0:0:0:
192,192,6898,1,0,0:0:0:0:
64,192,7012,1,0,0:0:0:0:
64,192,7126,1,8,0:0:0:0:
320,192,7126,1,0,0:0:0:0:
448,192,7126,1,0,0:0:0:0:
64,192,7240,1,0,0:0:0:0:
64,192,7354,1,2,0:0:0:0:
192,192,7354,1,0,0:0:0:0:
64,192,7469,1,0,0:0:0:0:
64,192,7583,1,8,0:0:0:0:
192,192,7583,1,0,0:0:0:0:
320,192,7583,1,0,0:0:0:0:
64,192,7697,1,0,0:0:0:0:
64,192,7811,1,2,0:0:0:0:
320,192,7811,1,0,0:0:0:0:
64,192,7925,1,0,0:0:0:0:
64,192,8039,1,8,0:0:0:0:
320,192,8039,1,0,0:0:0:0:
192,192,8039,1,0,0:0:0:0:
64,192,8153,1,0,0:0:0:0:
64,192,8268,1,2,0:0:0:0:
448,192,8268,1,0,0:0:0:0:
64,192,8382,1,0,0:0:0:0:
64,192,8496,1,8,0:0:0:0:
192,192,8496,1,0,0:0:0:0:
320,192,8496,1,0,0:0:0:0:
64,192,8610,1,0,0:0:0:0:
64,192,8724,1,2,0:0:0:0:
192,192,8724,1,0,0:0:0:0:
64,192,8838,1,0,0:0:0:0:
64,192,8953,1,8,0:0:0:0:
320,192,8953,1,0,0:0:0:0:
448,192,8953,1,0,0:0:0:0:
64,192,9067,1,0,0:0:0:0:
64,192,9181,1,2,0:0:0:0:
192,192,9181,1,0,0:0:0:0:
64,192,9295,1,0,0:0:0:0:
64,192,9409,1,2,0:0:0:0:
320,192,9409,1,0,0:0:0:0:
448,192,9409,1,0,0:0:0:0:
64,192,9523,1,8,0:0:0:0:
192,192,9523,1,0,0:0:0:0:
64,192,9638,1,8,0:0:0:0:
320,192,9638,1,0,0:0:0:0:
448,192,9638,1,0,0:0:0:0:
64,192,9752,1,0,0:0:0:0:
64,192,9866,1,8,0:0:0:0:
192,192,9866,1,0,0:0:0:0:
320,192,9866,1,0,0:0:0:0:
64,192,9980,1,0,0:0:0:0:
64,192,10094,1,2,0:0:0:0:
448,192,10094,1,0,0:0:0:0:
64,192,10208,1,0,0:0:0:0:
64,192,10322,1,8,0:0:0:0:
192,192,10322,1,0,0:0:0:0:
320,192,10322,1,0,0:0:0:0:
64,192,15802,5,0,0:0:0:0:
320,192,17628,1,0,0:0:0:0:
64,192,17628,1,0,0:0:0:0:
448,192,17628,1,0,0:0:0:0:
320,192,17743,1,0,0:0:0:0:
192,192,17743,1,0,0:0:0:0:
320,192,17857,1,0,0:0:0:0:
64,192,17857,1,0,0:0:0:0:
320,192,17971,1,0,0:0:0:0:
192,192,17971,1,0,0:0:0:0:
320,192,18085,1,0,0:0:0:0:
64,192,18085,1,0,0:0:0:0:
448,192,18085,1,0,0:0:0:0:
320,192,18199,1,0,0:0:0:0:
192,192,18199,1,0,0:0:0:0:
320,192,18313,1,0,0:0:0:0:
64,192,18313,1,0,0:0:0:0:
320,192,18427,1,0,0:0:0:0:
448,192,18427,1,0,0:0:0:0:
320,192,18542,1,0,0:0:0:0:
64,192,18542,1,0,0:0:0:0:
320,192,18656,1,0,0:0:0:0:
192,192,18656,1,0,0:0:0:0:
320,192,18770,1,0,0:0:0:0:
448,192,18770,1,0,0:0:0:0:
320,192,18884,1,0,0:0:0:0:
192,192,18884,1,0,0:0:0:0:
320,192,18998,1,0,0:0:0:0:
64,192,18998,1,0,0:0:0:0:
448,192,18998,1,0,0:0:0:0:
320,192,19112,1,0,0:0:0:0:
192,192,19112,1,0,0:0:0:0:
320,192,19227,1,0,0:0:0:0:
448,192,19227,1,0,0:0:0:0:
320,192,19341,1,0,0:0:0:0:
192,192,19341,1,0,0:0:0:0:
320,192,19455,1,0,0:0:0:0:
64,192,19455,1,0,0:0:0:0:
192,192,19455,1,0,0:0:0:0:
320,192,19569,1,0,0:0:0:0:
448,192,19569,1,0,0:0:0:0:
320,192,19683,1,0,0:0:0:0:
192,192,19683,1,0,0:0:0:0:
320,192,19797,1,0,0:0:0:0:
64,192,19797,1,0,0:0:0:0:
320,192,19911,1,0,0:0:0:0:
192,192,19911,1,0,0:0:0:0:
448,192,19911,1,0,0:0:0:0:
320,192,20026,1,0,0:0:0:0:
64,192,20026,1,0,0:0:0:0:
320,192,20140,1,0,0:0:0:0:
192,192,20140,1,0,0:0:0:0:
320,192,20254,1,0,0:0:0:0:
64,192,20254,1,0,0:0:0:0:
320,192,20368,1,0,0:0:0:0:
192,192,20368,1,0,0:0:0:0:
448,192,20368,1,0,0:0:0:0:
320,192,20482,1,0,0:0:0:0:
192,192,20482,1,0,0:0:0:0:
64,192,20482,1,0,0:0:0:0:
320,192,20596,1,0,0:0:0:0:
192,192,20596,1,0,0:0:0:0:
320,192,20711,1,0,0:0:0:0:
448,192,20711,1,0,0:0:0:0:
320,192,20825,1,0,0:0:0:0:
64,192,20825,1,0,0:0:0:0:
192,192,20825,1,0,0:0:0:0:
320,192,20939,1,0,0:0:0:0:
192,192,20939,1,0,0:0:0:0:
320,192,21053,1,0,0:0:0:0:
448,192,21053,1,0,0:0:0:0:
320,192,21167,1,0,0:0:0:0:
192,192,21167,1,0,0:0:0:0:
320,192,21281,1,0,0:0:0:0:
64,192,21281,1,0,0:0:0:0:
448,192,21281,1,0,0:0:0:0:
320,192,21395,1,0,0:0:0:0:
192,192,21395,1,0,0:0:0:0:
320,192,21510,1,0,0:0:0:0:
64,192,21510,1,0,0:0:0:0:
320,192,21624,1,0,0:0:0:0:
448,192,21624,1,0,0:0:0:0:
320,192,21738,1,0,0:0:0:0:
192,192,21738,1,0,0:0:0:0:
64,192,21738,1,0,0:0:0:0:
320,192,21852,1,0,0:0:0:0:
448,192,21852,1,0,0:0:0:0:
320,192,21966,1,0,0:0:0:0:
192,192,21966,1,0,0:0:0:0:
320,192,22080,1,0,0:0:0:0:
448,192,22080,1,0,0:0:0:0:
320,192,22195,1,0,0:0:0:0:
192,192,22195,1,0,0:0:0:0:
320,192,22309,1,0,0:0:0:0:
64,192,22309,1,0,0:0:0:0:
320,192,22423,1,0,0:0:0:0:
64,192,22423,1,0,0:0:0:0:
320,192,22537,1,0,0:0:0:0:
192,192,22537,1,0,0:0:0:0:
320,192,22651,1,0,0:0:0:0:
64,192,22651,1,0,0:0:0:0:
448,192,22651,1,0,0:0:0:0:
320,192,22765,1,0,0:0:0:0:
448,192,22765,1,0,0:0:0:0:
320,192,22880,1,0,0:0:0:0:
192,192,22880,1,0,0:0:0:0:
320,192,22994,1,0,0:0:0:0:
64,192,22994,1,0,0:0:0:0:
320,192,23108,1,0,0:0:0:0:
192,192,23108,1,0,0:0:0:0:
320,192,23222,1,0,0:0:0:0:
448,192,23222,1,0,0:0:0:0:
320,192,23336,1,0,0:0:0:0:
192,192,23336,1,0,0:0:0:0:
320,192,23450,1,0,0:0:0:0:
448,192,23450,1,0,0:0:0:0:
320,192,23564,1,0,0:0:0:0:
192,192,23564,1,0,0:0:0:0:
64,192,23564,1,0,0:0:0:0:
320,192,23679,1,0,0:0:0:0:
448,192,23679,1,0,0:0:0:0:
320,192,23793,1,0,0:0:0:0:
192,192,23793,1,0,0:0:0:0:
320,192,23907,1,0,0:0:0:0:
64,192,23907,1,0,0:0:0:0:
320,192,24021,1,0,0:0:0:0:
192,192,24021,1,0,0:0:0:0:
320,192,24135,1,0,0:0:0:0:
64,192,24135,1,0,0:0:0:0:
448,192,24135,1,0,0:0:0:0:
320,192,24249,1,0,0:0:0:0:
192,192,24249,1,0,0:0:0:0:
320,192,24364,1,0,0:0:0:0:
64,192,24364,1,0,0:0:0:0:
320,192,24478,1,0,0:0:0:0:
192,192,24478,1,0,0:0:0:0:
448,192,24478,1,0,0:0:0:0:
320,192,24592,1,0,0:0:0:0:
320,192,24706,1,0,0:0:0:0:
448,192,24706,1,0,0:0:0:0:
64,192,24706,1,0,0:0:0:0:
320,192,24820,1,0,0:0:0:0:
448,192,24820,1,0,0:0:0:0:
64,192,24820,1,0,0:0:0:0:
192,192,24934,1,0,0:0:0:0:
448,192,24934,1,0,0:0:0:0:
64,192,24934,1,0,0:0:0:0:
192,192,25048,1,0,0:0:0:0:
320,192,25048,1,0,0:0:0:0:
192,192,25163,1,0,0:0:0:0:
448,192,25163,1,0,0:0:0:0:
192,192,25277,1,0,0:0:0:0:
320,192,25277,1,0,0:0:0:0:
192,192,25391,1,0,0:0:0:0:
448,192,25391,1,0,0:0:0:0:
64,192,25391,1,0,0:0:0:0:
192,192,25505,1,0,0:0:0:0:
320,192,25505,1,0,0:0:0:0:
192,192,25619,1,0,0:0:0:0:
448,192,25619,1,0,0:0:0:0:
192,192,25733,1,0,0:0:0:0:
64,192,25733,1,0,0:0:0:0:
192,192,25848,1,0,0:0:0:0:
448,192,25848,1,0,0:0:0:0:
192,192,25962,1,0,0:0:0:0:
320,192,25962,1,0,0:0:0:0:
192,192,26076,1,0,0:0:0:0:
64,192,26076,1,0,0:0:0:0:
192,192,26190,1,0,0:0:0:0:
320,192,26190,1,0,0:0:0:0:
192,192,26304,1,0,0:0:0:0:
448,192,26304,1,0,0:0:0:0:
64,192,26304,1,0,0:0:0:0:
192,192,26418,1,0,0:0:0:0:
320,192,26418,1,0,0:0:0:0:
192,192,26532,1,0,0:0:0:0:
64,192,26532,1,0,0:0:0:0:
192,192,26647,1,0,0:0:0:0:
320,192,26647,1,0,0:0:0:0:
192,192,26761,1,0,0:0:0:0:
448,192,26761,1,0,0:0:0:0:
320,192,26761,1,0,0:0:0:0:
192,192,26875,1,0,0:0:0:0:
64,192,26875,1,0,0:0:0:0:
192,192,26989,1,0,0:0:0:0:
320,192,26989,1,0,0:0:0:0:
192,192,27103,1,0,0:0:0:0:
448,192,27103,1,0,0:0:0:0:
192,192,27217,1,0,0:0:0:0:
320,192,27217,1,0,0:0:0:0:
64,192,27217,1,0,0:0:0:0:
192,192,27332,1,0,0:0:0:0:
448,192,27332,1,0,0:0:0:0:
192,192,27446,1,0,0:0:0:0:
320,192,27446,1,0,0:0:0:0:
192,192,27560,1,0,0:0:0:0:
448,192,27560,1,0,0:0:0:0:
192,192,27674,1,0,0:0:0:0:
320,192,27674,1,0,0:0:0:0:
64,192,27674,1,0,0:0:0:0:
192,192,27788,1,0,0:0:0:0:
320,192,27788,1,0,0:0:0:0:
448,192,27788,1,0,0:0:0:0:
192,192,27902,1,0,0:0:0:0:
320,192,27902,1,0,0:0:0:0:
192,192,28016,1,0,0:0:0:0:
64,192,28016,1,0,0:0:0:0:
192,192,28131,1,0,0:0:0:0:
448,192,28131,1,0,0:0:0:0:
320,192,28131,1,0,0:0:0:0:
192,192,28245,1,0,0:0:0:0:
320,192,28245,1,0,0:0:0:0:
192,192,28359,1,0,0:0:0:0:
64,192,28359,1,0,0:0:0:0:
192,192,28473,1,0,0:0:0:0:
320,192,28473,1,0,0:0:0:0:
192,192,28587,1,0,0:0:0:0:
448,192,28587,1,0,0:0:0:0:
64,192,28587,1,0,0:0:0:0:
192,192,28701,1,0,0:0:0:0:
320,192,28701,1,0,0:0:0:0:
192,192,28816,1,0,0:0:0:0:
448,192,28816,1,0,0:0:0:0:
192,192,28930,1,0,0:0:0:0:
64,192,28930,1,0,0:0:0:0:
192,192,29044,1,0,0:0:0:0:
320,192,29044,1,0,0:0:0:0:
448,192,29044,1,0,0:0:0:0:
192,192,29158,1,0,0:0:0:0:
64,192,29158,1,0,0:0:0:0:
192,192,29272,1,0,0:0:0:0:
320,192,29272,1,0,0:0:0:0:
192,192,29386,1,0,0:0:0:0:
64,192,29386,1,0,0:0:0:0:
192,192,29501,1,0,0:0:0:0:
320,192,29501,1,0,0:0:0:0:
192,192,29615,1,0,0:0:0:0:
448,192,29615,1,0,0:0:0:0:
192,192,29729,1,0,0:0:0:0:
448,192,29729,1,0,0:0:0:0:
192,192,29843,1,0,0:0:0:0:
320,192,29843,1,0,0:0:0:0:
192,192,29957,1,0,0:0:0:0:
448,192,29957,1,0,0:0:0:0:
64,192,29957,1,0,0:0:0:0:
192,192,30071,1,0,0:0:0:0:
64,192,30071,1,0,0:0:0:0:
192,192,30185,1,0,0:0:0:0:
320,192,30185,1,0,0:0:0:0:
192,192,30300,1,0,0:0:0:0:
448,192,30300,1,0,0:0:0:0:
192,192,30414,1,0,0:0:0:0:
320,192,30414,1,0,0:0:0:0:
192,192,30528,1,0,0:0:0:0:
64,192,30528,1,0,0:0:0:0:
192,192,30642,1,0,0:0:0:0:
320,192,30642,1,0,0:0:0:0:
192,192,30756,1,0,0:0:0:0:
64,192,30756,1,0,0:0:0:0:
192,192,30870,1,0,0:0:0:0:
320,192,30870,1,0,0:0:0:0:
448,192,30870,1,0,0:0:0:0:
192,192,30985,1,0,0:0:0:0:
64,192,30985,1,0,0:0:0:0:
192,192,31099,1,0,0:0:0:0:
320,192,31099,1,0,0:0:0:0:
192,192,31213,1,0,0:0:0:0:
448,192,31213,1,0,0:0:0:0:
192,192,31327,1,0,0:0:0:0:
320,192,31327,1,0,0:0:0:0:
192,192,31441,1,0,0:0:0:0:
448,192,31441,1,0,0:0:0:0:
64,192,31441,1,0,0:0:0:0:
192,192,31555,1,0,0:0:0:0:
320,192,31555,1,0,0:0:0:0:
192,192,31669,1,0,0:0:0:0:
448,192,31669,1,0,0:0:0:0:
192,192,31784,1,0,0:0:0:0:
320,192,31784,1,0,0:0:0:0:
64,192,31784,1,0,0:0:0:0:
192,192,31898,1,0,0:0:0:0:
192,192,32012,1,0,0:0:0:0:
64,192,32012,1,0,0:0:0:0:
448,192,32012,1,0,0:0:0:0:
192,192,32126,1,0,0:0:0:0:
64,192,32126,1,0,0:0:0:0:
448,192,32126,1,0,0:0:0:0:
192,192,32240,1,0,0:0:0:0:
64,192,32240,1,0,0:0:0:0:
448,192,32240,1,0,0:0:0:0:
448,192,32354,1,0,0:0:0:0:
448,192,32469,1,0,0:0:0:0:
448,192,32583,1,0,0:0:0:0:
448,192,32697,1,0,0:0:0:0:
448,192,32811,1,0,0:0:0:0:
448,192,32925,1,0,0:0:0:0:
448,192,33039,1,0,0:0:0:0:
448,192,33153,1,0,0:0:0:0:
448,192,33268,1,0,0:0:0:0:
448,192,33382,1,0,0:0:0:0:
64,192,33382,1,0,0:0:0:0:
448,192,33496,1,0,0:0:0:0:
448,192,33610,1,0,0:0:0:0:
448,192,33724,1,0,0:0:0:0:
448,192,33838,1,0,0:0:0:0:
192,192,33838,1,0,0:0:0:0:
448,192,33953,1,0,0:0:0:0:
320,192,34067,1,0,0:0:0:0:
448,192,34067,1,0,0:0:0:0:
64,192,34067,1,0,0:0:0:0:
448,192,34181,1,0,0:0:0:0:
448,192,34295,1,0,0:0:0:0:
448,192,34409,1,0,0:0:0:0:
448,192,34523,1,0,0:0:0:0:
448,192,34638,1,0,0:0:0:0:
448,192,34752,1,0,0:0:0:0:
448,192,34866,1,0,0:0:0:0:
448,192,34980,1,0,0:0:0:0:
448,192,35094,1,0,0:0:0:0:
448,192,35208,1,0,0:0:0:0:
192,192,35208,1,0,0:0:0:0:
448,192,35322,1,0,0:0:0:0:
448,192,35437,1,0,0:0:0:0:
448,192,35551,1,0,0:0:0:0:
448,192,35665,1,0,0:0:0:0:
320,192,35665,1,0,0:0:0:0:
448,192,35779,1,0,0:0:0:0:
448,192,35893,1,0,0:0:0:0:
192,192,35893,1,0,0:0:0:0:
64,192,35893,1,0,0:0:0:0:
448,192,36007,1,0,0:0:0:0:
448,192,36122,1,0,0:0:0:0:
448,192,36236,1,0,0:0:0:0:
448,192,36350,1,0,0:0:0:0:
448,192,36464,1,0,0:0:0:0:
448,192,36578,1,0,0:0:0:0:
448,192,36692,1,0,0:0:0:0:
448,192,36806,1,0,0:0:0:0:
448,192,36921,1,0,0:0:0:0:
448,192,37035,1,0,0:0:0:0:
320,192,37035,1,0,0:0:0:0:
448,192,37149,1,0,0:0:0:0:
448,192,37263,1,0,0:0:0:0:
448,192,37377,1,0,0:0:0:0:
448,192,37491,1,0,0:0:0:0:
64,192,37491,1,0,0:0:0:0:
448,192,37606,1,0,0:0:0:0:
448,192,37720,1,0,0:0:0:0:
192,192,37720,1,0,0:0:0:0:
320,192,37720,1,0,0:0:0:0:
448,192,37834,1,0,0:0:0:0:
448,192,37948,1,0,0:0:0:0:
448,192,38062,1,0,0:0:0:0:
448,192,38176,1,0,0:0:0:0:
320,192,38176,1,0,0:0:0:0:
448,192,38290,1,0,0:0:0:0:
448,192,38405,1,0,0:0:0:0:
448,192,38519,1,0,0:0:0:0:
448,192,38633,1,0,0:0:0:0:
192,192,38633,1,0,0:0:0:0:
448,192,38747,1,0,0:0:0:0:
64,192,38861,1,0,0:0:0:0:
448,192,38861,1,0,0:0:0:0:
448,192,38975,1,0,0:0:0:0:
320,192,39090,1,0,0:0:0:0:
448,192,39090,1,0,0:0:0:0:
448,192,39204,1,0,0:0:0:0:
448,192,39318,1,0,0:0:0:0:
448,192,39432,1,0,0:0:0:0:
448,192,39546,1,0,0:0:0:0:
320,192,39546,1,0,0:0:0:0:
64,192,39546,1,0,0:0:0:0:
448,192,39660,1,0,0:0:0:0:
448,192,39774,1,0,0:0:0:0:
448,192,39889,1,0,0:0:0:0:
448,192,40003,1,0,0:0:0:0:
448,192,40117,1,0,0:0:0:0:
448,192,40231,1,0,0:0:0:0:
448,192,40345,1,0,0:0:0:0:
448,192,40459,1,0,0:0:0:0:
448,192,40574,1,0,0:0:0:0:
448,192,40688,1,0,0:0:0:0:
192,192,40688,1,0,0:0:0:0:
448,192,40802,1,0,0:0:0:0:
448,192,40916,1,0,0:0:0:0:
448,192,41030,1,0,0:0:0:0:
448,192,41144,1,0,0:0:0:0:
192,192,41144,1,0,0:0:0:0:
448,192,41259,1,0,0:0:0:0:
448,192,41373,1,0,0:0:0:0:
64,192,41373,1,0,0:0:0:0:
320,192,41373,1,0,0:0:0:0:
448,192,41487,1,0,0:0:0:0:
448,192,41601,1,0,0:0:0:0:
448,192,41715,1,0,0:0:0:0:
448,192,41829,1,0,0:0:0:0:
448,192,41943,1,0,0:0:0:0:
448,192,42058,1,0,0:0:0:0:
448,192,42172,1,0,0:0:0:0:
448,192,42286,1,0,0:0:0:0:
448,192,42400,1,0,0:0:0:0:
448,192,42514,1,0,0:0:0:0:
320,192,42514,1,0,0:0:0:0:
448,192,42628,1,0,0:0:0:0:
448,192,42743,1,0,0:0:0:0:
448,192,42857,1,0,0:0:0:0:
192,192,42971,1,0,0:0:0:0:
448,192,42971,1,0,0:0:0:0:
448,192,43085,1,0,0:0:0:0:
64,192,43199,1,0,0:0:0:0:
192,192,43199,1,0,0:0:0:0:
448,192,43199,1,0,0:0:0:0:
448,192,43313,1,0,0:0:0:0:
448,192,43427,1,0,0:0:0:0:
448,192,43542,1,0,0:0:0:0:
448,192,43656,1,0,0:0:0:0:
448,192,43770,1,0,0:0:0:0:
448,192,43884,1,0,0:0:0:0:
448,192,43998,1,0,0:0:0:0:
448,192,44112,1,0,0:0:0:0:
320,192,44112,1,0,0:0:0:0:
192,192,44112,1,0,0:0:0:0:
448,192,44227,1,0,0:0:0:0:
448,192,44341,1,0,0:0:0:0:
448,192,44455,1,0,0:0:0:0:
448,192,44569,1,0,0:0:0:0:
448,192,44683,1,0,0:0:0:0:
448,192,44797,1,0,0:0:0:0:
320,192,44797,1,0,0:0:0:0:
448,192,44911,1,0,0:0:0:0:
192,192,44911,1,0,0:0:0:0:
448,192,45026,1,0,0:0:0:0:
64,192,45026,1,0,0:0:0:0:
448,192,45140,1,0,0:0:0:0:
192,192,45140,1,0,0:0:0:0:
448,192,45254,1,0,0:0:0:0:
320,192,45254,1,0,0:0:0:0:
448,192,45368,1,0,0:0:0:0:
192,192,45368,1,0,0:0:0:0:
448,192,45482,1,0,0:0:0:0:
64,192,45482,1,0,0:0:0:0:
448,192,45596,1,0,0:0:0:0:
192,192,45596,1,0,0:0:0:0:
448,192,45711,1,0,0:0:0:0:
320,192,45711,1,0,0:0:0:0:
448,192,45825,1,0,0:0:0:0:
192,192,45825,1,0,0:0:0:0:
448,192,45939,1,0,0:0:0:0:
64,192,45939,1,0,0:0:0:0:
448,192,46053,1,0,0:0:0:0:
192,192,46053,1,0,0:0:0:0:
448,192,46167,1,0,0:0:0:0:
320,192,46167,1,0,0:0:0:0:
448,192,46281,1,0,0:0:0:0:
192,192,46281,1,0,0:0:0:0:
448,192,46395,1,0,0:0:0:0:
64,192,46395,1,0,0:0:0:0:
448,192,46510,1,0,0:0:0:0:
192,192,46510,1,0,0:0:0:0:
448,192,46624,1,0,0:0:0:0:
320,192,46624,1,0,0:0:0:0:
448,192,46738,1,0,0:0:0:0:
192,192,46738,1,0,0:0:0:0:
448,192,46852,1,0,0:0:0:0:
64,192,46852,1,0,0:0:0:0:
64,192,46966,1,0,0:0:0:0:
64,192,47080,1,0,0:0:0:0:
64,192,47195,1,0,0:0:0:0:
64,192,47309,1,0,0:0:0:0:
64,192,47423,1,0,0:0:0:0:
64,192,47537,1,0,0:0:0:0:
64,192,47651,1,0,0:0:0:0:
64,192,47765,1,0,0:0:0:0:
64,192,47880,1,0,0:0:0:0:
64,192,47994,1,0,0:0:0:0:
192,192,47994,1,0,0:0:0:0:
64,192,48108,1,0,0:0:0:0:
64,192,48222,1,0,0:0:0:0:
64,192,48336,1,0,0:0:0:0:
64,192,48450,1,0,0:0:0:0:
192,192,48450,1,0,0:0:0:0:
64,192,48564,1,0,0:0:0:0:
64,192,48679,1,0,0:0:0:0:
192,192,48679,1,0,0:0:0:0:
320,192,48679,1,0,0:0:0:0:
64,192,48793,1,0,0:0:0:0:
64,192,48907,1,0,0:0:0:0:
64,192,49021,1,0,0:0:0:0:
64,192,49135,1,0,0:0:0:0:
64,192,49249,1,0,0:0:0:0:
64,192,49364,1,0,0:0:0:0:
64,192,49478,1,0,0:0:0:0:
64,192,49592,1,0,0:0:0:0:
64,192,49706,1,0,0:0:0:0:
64,192,49820,1,0,0:0:0:0:
320,192,49820,1,0,0:0:0:0:
64,192,49934,1,0,0:0:0:0:
64,192,50048,1,0,0:0:0:0:
64,192,50163,1,0,0:0:0:0:
64,192,50277,1,0,0:0:0:0:
320,192,50277,1,0,0:0:0:0:
64,192,50391,1,0,0:0:0:0:
64,192,50505,1,0,0:0:0:0:
448,192,50505,1,0,0:0:0:0:
192,192,50505,1,0,0:0:0:0:
64,192,50619,1,0,0:0:0:0:
64,192,50733,1,0,0:0:0:0:
64,192,50848,1,0,0:0:0:0:
64,192,50962,1,0,0:0:0:0:
64,192,51076,1,0,0:0:0:0:
64,192,51190,1,0,0:0:0:0:
64,192,51304,1,0,0:0:0:0:
64,192,51418,1,0,0:0:0:0:
64,192,51532,1,0,0:0:0:0:
64,192,51647,1,0,0:0:0:0:
448,192,51647,1,0,0:0:0:0:
64,192,51761,1,0,0:0:0:0:
64,192,51875,1,0,0:0:0:0:
64,192,51989,1,0,0:0:0:0:
64,192,52103,1,0,0:0:0:0:
448,192,52103,1,0,0:0:0:0:
64,192,52217,1,0,0:0:0:0:
64,192,52332,1,0,0:0:0:0:
448,192,52332,1,0,0:0:0:0:
320,192,52332,1,0,0:0:0:0:
64,192,52446,1,0,0:0:0:0:
64,192,52560,1,0,0:0:0:0:
64,192,52674,1,0,0:0:0:0:
64,192,52788,1,0,0:0:0:0:
448,192,52788,1,0,0:0:0:0:
192,192,52788,1,0,0:0:0:0:
64,192,52902,1,0,0:0:0:0:
64,192,53016,1,0,0:0:0:0:
64,192,53131,1,0,0:0:0:0:
64,192,53245,1,0,0:0:0:0:
320,192,53245,1,0,0:0:0:0:
192,192,53245,1,0,0:0:0:0:
64,192,53359,1,0,0:0:0:0:
64,192,53473,1,0,0:0:0:0:
448,192,53473,1,0,0:0:0:0:
64,192,53587,1,0,0:0:0:0:
64,192,53701,1,0,0:0:0:0:
64,192,53816,1,0,0:0:0:0:
64,192,53930,1,0,0:0:0:0:
64,192,54044,1,0,0:0:0:0:
192,192,54158,1,0,0:0:0:0:
64,192,54158,1,0,0:0:0:0:
192,192,54272,1,0,0:0:0:0:
192,192,54386,1,0,0:0:0:0:
192,192,54501,1,0,0:0:0:0:
192,192,54615,1,0,0:0:0:0:
192,192,54729,1,0,0:0:0:0:
192,192,54843,1,0,0:0:0:0:
192,192,54957,1,0,0:0:0:0:
192,192,55071,1,0,0:0:0:0:
192,192,55185,1,0,0:0:0:0:
192,192,55300,1,0,0:0:0:0:
448,192,55300,1,0,0:0:0:0:
192,192,55414,1,0,0:0:0:0:
192,192,55528,1,0,0:0:0:0:
192,192,55642,1,0,0:0:0:0:
192,192,55756,1,0,0:0:0:0:
448,192,55756,1,0,0:0:0:0:
192,192,55870,1,0,0:0:0:0:
192,192,55985,1,0,0:0:0:0:
448,192,55985,1,0,0:0:0:0:
64,192,55985,1,0,0:0:0:0:
192,192,56099,1,0,0:0:0:0:
192,192,56213,1,0,0:0:0:0:
192,192,56327,1,0,0:0:0:0:
192,192,56441,1,0,0:0:0:0:
192,192,56555,1,0,0:0:0:0:
192,192,56669,1,0,0:0:0:0:
192,192,56784,1,0,0:0:0:0:
192,192,56898,1,0,0:0:0:0:
192,192,57012,1,0,0:0:0:0:
192,192,57126,1,0,0:0:0:0:
448,192,57126,1,0,0:0:0:0:
192,192,57240,1,0,0:0:0:0:
192,192,57354,1,0,0:0:0:0:
192,192,57469,1,0,0:0:0:0:
192,192,57583,1,0,0:0:0:0:
448,192,57583,1,0,0:0:0:0:
192,192,57697,1,0,0:0:0:0:
192,192,57811,1,0,0:0:0:0:
64,192,57811,1,0,0:0:0:0:
448,192,57811,1,0,0:0:0:0:
192,192,57925,1,0,0:0:0:0:
192,192,58039,1,0,0:0:0:0:
192,192,58153,1,0,0:0:0:0:
192,192,58268,1,0,0:0:0:0:
192,192,58382,1,0,0:0:0:0:
192,192,58496,1,0,0:0:0:0:
192,192,58610,1,0,0:0:0:0:
192,192,58724,1,0,0:0:0:0:
448,192,58724,1,0,0:0:0:0:
64,192,58724,1,0,0:0:0:0:
192,192,58838,1,0,0:0:0:0:
192,192,58953,1,0,0:0:0:0:
192,192,59067,1,0,0:0:0:0:
192,192,59181,1,0,0:0:0:0:
192,192,59295,1,0,0:0:0:0:
192,192,59409,1,0,0:0:0:0:
448,192,59409,1,0,0:0:0:0:
192,192,59523,1,0,0:0:0:0:
320,192,59523,1,0,0:0:0:0:
192,192,59638,1,0,0:0:0:0:
64,192,59638,1,0,0:0:0:0:
192,192,59752,1,0,0:0:0:0:
320,192,59752,1,0,0:0:0:0:
192,192,59866,1,0,0:0:0:0:
448,192,59866,1,0,0:0:0:0:
192,192,59980,1,0,0:0:0:0:
320,192,59980,1,0,0:0:0:0:
192,192,60094,1,0,0:0:0:0:
64,192,60094,1,0,0:0:0:0:
192,192,60208,1,0,0:0:0:0:
320,192,60208,1,0,0:0:0:0:
192,192,60322,1,0,0:0:0:0:
448,192,60322,1,0,0:0:0:0:
192,192,60437,1,0,0:0:0:0:
320,192,60437,1,0,0:0:0:0:
192,192,60551,1,0,0:0:0:0:
64,192,60551,1,0,0:0:0:0:
192,192,60665,1,0,0:0:0:0:
320,192,60665,1,0,0:0:0:0:
192,192,60779,1,0,0:0:0:0:
448,192,60779,1,0,0:0:0:0:
192,192,60893,1,0,0:0:0:0:
320,192,60893,1,0,0:0:0:0:
192,192,61007,1,0,0:0:0:0:
64,192,61007,1,0,0:0:0:0:
192,192,61122,1,0,0:0:0:0:
320,192,61122,1,0,0:0:0:0:
192,192,61236,1,0,0:0:0:0:
448,192,61236,1,0,0:0:0:0:
192,192,61350,1,0,0:0:0:0:
320,192,61350,1,0,0:0:0:0:
64,192,61464,1,0,0:0:0:0:
448,192,61464,1,0,0:0:0:0:
192,192,61464,1,0,0:0:0:0:
320,192,61464,1,0,0:0:0:0:
192,192,61692,1,0,0:0:0:0:
192,192,61806,1,0,0:0:0:0:
192,192,61921,1,0,0:0:0:0:
320,192,61921,1,0,0:0:0:0:
448,192,61921,1,0,0:0:0:0:
64,192,61921,1,0,0:0:0:0:
448,192,62035,1,0,0:0:0:0:
448,192,62263,1,0,0:0:0:0:
320,192,62377,1,0,0:0:0:0:
192,192,62377,1,0,0:0:0:0:
64,192,62377,1,0,0:0:0:0:
448,192,62377,1,0,0:0:0:0:
448,192,62491,1,0,0:0:0:0:
448,192,62720,1,0,0:0:0:0:
448,192,62834,1,0,0:0:0:0:
64,192,62834,1,0,0:0:0:0:
320,192,62834,1,0,0:0:0:0:
192,192,62834,1,0,0:0:0:0:
64,192,62948,1,0,0:0:0:0:
448,192,63062,1,0,0:0:0:0:
448,192,63176,1,0,0:0:0:0:
448,192,63290,1,0,0:0:0:0:
320,192,63290,1,0,0:0:0:0:
192,192,63290,1,0,0:0:0:0:
64,192,63290,1,0,0:0:0:0:
192,192,63519,1,0,0:0:0:0:
192,192,63633,1,0,0:0:0:0:
192,192,63747,1,0,0:0:0:0:
64,192,63747,1,0,0:0:0:0:
320,192,63747,1,0,0:0:0:0:
448,192,63747,1,0,0:0:0:0:
64,192,63861,1,0,0:0:0:0:
192,192,64090,1,0,0:0:0:0:
64,192,64204,1,0,0:0:0:0:
192,192,64204,1,0,0:0:0:0:
320,192,64204,1,0,0:0:0:0:
448,192,64204,1,0,0:0:0:0:
320,192,64318,1,0,0:0:0:0:
448,192,64546,1,0,0:0:0:0:
192,192,64660,1,0,0:0:0:0:
320,192,64660,1,0,0:0:0:0:
64,192,64660,1,0,0:0:0:0:
448,192,64660,1,0,0:0:0:0:
192,192,64774,1,0,0:0:0:0:
320,192,64889,1,0,0:0:0:0:
320,192,65003,1,0,0:0:0:0:
320,192,65117,1,0,0:0:0:0:
192,192,65117,1,0,0:0:0:0:
448,192,65117,1,0,0:0:0:0:
64,192,65117,1,0,0:0:0:0:
320,192,65345,1,0,0:0:0:0:
320,192,65459,1,0,0:0:0:0:
320,192,65574,1,0,0:0:0:0:
192,192,65574,1,0,0:0:0:0:
64,192,65574,1,0,0:0:0:0:
448,192,65574,1,0,0:0:0:0:
320,192,65688,1,0,0:0:0:0:
320,192,65916,1,0,0:0:0:0:
320,192,66030,1,0,0:0:0:0:
448,192,66030,1,0,0:0:0:0:
192,192,66030,1,0,0:0:0:0:
64,192,66030,1,0,0:0:0:0:
448,192,66144,1,0,0:0:0:0:
320,192,66259,1,0,0:0:0:0:
320,192,66373,1,0,0:0:0:0:
192,192,66487,1,0,0:0:0:0:
448,192,66487,1,0,0:0:0:0:
64,192,66487,1,0,0:0:0:0:
320,192,66487,1,0,0:0:0:0:
192,192,66601,1,0,0:0:0:0:
64,192,66715,1,0,0:0:0:0:
64,192,66829,1,0,0:0:0:0:
192,192,66943,1,0,0:0:0:0:
448,192,66943,1,0,0:0:0:0:
320,192,66943,1,0,0:0:0:0:
64,192,66943,1,0,0:0:0:0:
192,192,67172,1,0,0:0:0:0:
192,192,67286,1,0,0:0:0:0:
192,192,67400,1,0,0:0:0:0:
64,192,67400,1,0,0:0:0:0:
448,192,67400,1,0,0:0:0:0:
320,192,67400,1,0,0:0:0:0:
192,192,67514,1,0,0:0:0:0:
448,192,67743,1,0,0:0:0:0:
192,192,67857,1,0,0:0:0:0:
64,192,67857,1,0,0:0:0:0:
320,192,67857,1,0,0:0:0:0:
448,192,67857,1,0,0:0:0:0:
320,192,67971,1,0,0:0:0:0:
192,192,68199,1,0,0:0:0:0:
192,192,68313,1,0,0:0:0:0:
64,192,68313,1,0,0:0:0:0:
448,192,68313,1,0,0:0:0:0:
320,192,68313,1,0,0:0:0:0:
64,192,68542,1,0,0:0:0:0:
64,192,68656,1,0,0:0:0:0:
448,192,68770,1,0,0:0:0:0:
64,192,68770,1,0,0:0:0:0:
320,192,68770,1,0,0:0:0:0:
192,192,68770,1,0,0:0:0:0:
320,192,68998,1,0,0:0:0:0:
320,192,69112,1,0,0:0:0:0:
320,192,69227,1,0,0:0:0:0:
192,192,69227,1,0,0:0:0:0:
64,192,69227,1,0,0:0:0:0:
448,192,69227,1,0,0:0:0:0:
64,192,69341,1,0,0:0:0:0:
64,192,69569,1,0,0:0:0:0:
192,192,69683,1,0,0:0:0:0:
320,192,69683,1,0,0:0:0:0:
448,192,69683,1,0,0:0:0:0:
64,192,69683,1,0,0:0:0:0:
64,192,69797,1,0,0:0:0:0:
64,192,70026,1,0,0:0:0:0:
64,192,70140,1,0,0:0:0:0:
448,192,70140,1,0,0:0:0:0:
192,192,70140,1,0,0:0:0:0:
320,192,70140,1,0,0:0:0:0:
448,192,70254,1,0,0:0:0:0:
64,192,70368,1,0,0:0:0:0:
64,192,70482,1,0,0:0:0:0:
64,192,70596,1,0,0:0:0:0:
192,192,70596,1,0,0:0:0:0:
320,192,70596,1,0,0:0:0:0:
448,192,70596,1,0,0:0:0:0:
320,192,70825,1,0,0:0:0:0:
320,192,70939,1,0,0:0:0:0:
320,192,71053,1,0,0:0:0:0:
448,192,71053,1,0,0:0:0:0:
192,192,71053,1,0,0:0:0:0:
64,192,71053,1,0,0:0:0:0:
448,192,71167,1,0,0:0:0:0:
320,192,71395,1,0,0:0:0:0:
448,192,71510,1,0,0:0:0:0:
320,192,71510,1,0,0:0:0:0:
192,192,71510,1,0,0:0:0:0:
64,192,71510,1,0,0:0:0:0:
192,192,71624,1,0,0:0:0:0:
64,192,71852,1,0,0:0:0:0:
320,192,71966,1,0,0:0:0:0:
192,192,71966,1,0,0:0:0:0:
448,192,71966,1,0,0:0:0:0:
64,192,71966,1,0,0:0:0:0:
320,192,72080,1,0,0:0:0:0:
192,192,72195,1,0,0:0:0:0:
192,192,72309,1,0,0:0:0:0:
192,192,72423,1,0,0:0:0:0:
320,192,72423,1,0,0:0:0:0:
64,192,72423,1,0,0:0:0:0:
448,192,72423,1,0,0:0:0:0:
192,192,72651,1,0,0:0:0:0:
192,192,72765,1,0,0:0:0:0:
192,192,72880,1,0,0:0:0:0:
320,192,72880,1,0,0:0:0:0:
448,192,72880,1,0,0:0:0:0:
64,192,72880,1,0,0:0:0:0:
192,192,72994,1,0,0:0:0:0:
192,192,73222,1,0,0:0:0:0:
192,192,73336,1,0,0:0:0:0:
64,192,73336,1,0,0:0:0:0:
320,192,73336,1,0,0:0:0:0:
448,192,73336,1,0,0:0:0:0:
64,192,73450,1,0,0:0:0:0:
192,192,73564,1,0,0:0:0:0:
192,192,73679,1,0,0:0:0:0:
320,192,73793,1,0,0:0:0:0:
64,192,73793,1,0,0:0:0:0:
448,192,73793,1,0,0:0:0:0:
192,192,73793,1,0,0:0:0:0:
320,192,73907,1,0,0:0:0:0:
448,192,74021,1,0,0:0:0:0:
448,192,74135,1,0,0:0:0:0:
320,192,74249,1,0,0:0:0:0:
64,192,74249,1,0,0:0:0:0:
192,192,74249,1,0,0:0:0:0:
448,192,74249,1,0,0:0:0:0:
320,192,74478,1,0,0:0:0:0:
320,192,74592,1,0,0:0:0:0:
320,192,74706,1,0,0:0:0:0:
448,192,74706,1,0,0:0:0:0:
64,192,74706,1,0,0:0:0:0:
192,192,74706,1,0,0:0:0:0:
320,192,74820,1,0,0:0:0:0:
64,192,75048,1,0,0:0:0:0:
320,192,75163,1,0,0:0:0:0:
448,192,75163,1,0,0:0:0:0:
192,192,75163,1,0,0:0:0:0:
64,192,75163,1,0,0:0:0:0:
192,192,75277,1,0,0:0:0:0:
320,192,75505,1,0,0:0:0:0:
320,192,75619,1,0,0:0:0:0:
448,192,75619,1,0,0:0:0:0:
64,192,75619,1,0,0:0:0:0:
192,192,75619,1,0,0:0:0:0:
448,192,75848,1,0,0:0:0:0:
448,192,75962,1,0,0:0:0:0:
192,192,76076,1,0,0:0:0:0:
448,192,76076,1,0,0:0:0:0:
64,192,76076,1,0,0:0:0:0:
320,192,76076,1,0,0:0:0:0:
192,192,76304,1,0,0:0:0:0:
192,192,76418,1,0,0:0:0:0:
448,192,76532,1,0,0:0:0:0:
320,192,76532,1,0,0:0:0:0:
192,192,76532,1,0,0:0:0:0:
64,192,76532,1,0,0:0:0:0:
448,192,76647,1,0,0:0:0:0:
448,192,76875,1,0,0:0:0:0:
64,192,76989,1,0,0:0:0:0:
192,192,76989,1,0,0:0:0:0:
320,192,76989,1,0,0:0:0:0:
448,192,76989,1,0,0:0:0:0:
448,192,77103,1,0,0:0:0:0:
448,192,77332,1,0,0:0:0:0:
320,192,77446,1,0,0:0:0:0:
64,192,77446,1,0,0:0:0:0:
448,192,77446,1,0,0:0:0:0:
192,192,77446,1,0,0:0:0:0:
64,192,77560,1,0,0:0:0:0:
448,192,77674,1,0,0:0:0:0:
448,192,77788,1,0,0:0:0:0:
192,192,77902,1,0,0:0:0:0:
320,192,77902,1,0,0:0:0:0:
448,192,77902,1,0,0:0:0:0:
64,192,77902,1,0,0:0:0:0:
192,192,78131,1,0,0:0:0:0:
192,192,78245,1,0,0:0:0:0:
320,192,78359,1,0,0:0:0:0:
64,192,78359,1,0,0:0:0:0:
192,192,78359,1,0,0:0:0:0:
448,192,78359,1,0,0:0:0:0:
64,192,78473,1,0,0:0:0:0:
192,192,78701,1,0,0:0:0:0:
320,192,78816,1,0,0:0:0:0:
192,192,78816,1,0,0:0:0:0:
64,192,78816,1,0,0:0:0:0:
448,192,78816,1,0,0:0:0:0:
320,192,78930,1,0,0:0:0:0:
448,192,79158,1,0,0:0:0:0:
64,192,79272,1,0,0:0:0:0:
320,192,79272,1,0,0:0:0:0:
192,192,79272,1,0,0:0:0:0:
448,192,79272,1,0,0:0:0:0:
192,192,79386,1,0,0:0:0:0:
320,192,79501,1,0,0:0:0:0:
320,192,79615,1,0,0:0:0:0:
448,192,79729,1,0,0:0:0:0:
192,192,79729,1,0,0:0:0:0:
320,192,79729,1,0,0:0:0:0:
64,192,79729,1,0,0:0:0:0:
320,192,79957,1,0,0:0:0:0:
320,192,80071,1,0,0:0:0:0:
64,192,80185,1,0,0:0:0:0:
192,192,80185,1,0,0:0:0:0:
320,192,80185,1,0,0:0:0:0:
448,192,80185,1,0,0:0:0:0:
320,192,80300,1,0,0:0:0:0:
320,192,80528,1,0,0:0:0:0:
192,192,80642,1,0,0:0:0:0:
448,192,80642,1,0,0:0:0:0:
320,192,80642,1,0,0:0:0:0:
64,192,80642,1,0,0:0:0:0:
448,192,80756,1,0,0:0:0:0:
320,192,80870,1,0,0:0:0:0:
320,192,80985,1,0,0:0:0:0:
64,192,81099,1,0,0:0:0:0:
448,192,81099,1,0,0:0:0:0:
192,192,81099,1,0,0:0:0:0:
320,192,81099,1,0,0:0:0:0:
192,192,81213,1,0,0:0:0:0:
64,192,81327,1,0,0:0:0:0:
64,192,81441,1,0,0:0:0:0:
320,192,81555,1,0,0:0:0:0:
448,192,81555,1,0,0:0:0:0:
192,192,81555,1,0,0:0:0:0:
64,192,81555,1,0,0:0:0:0:
192,192,81784,1,0,0:0:0:0:
192,192,81898,1,0,0:0:0:0:
448,192,82012,1,0,0:0:0:0:
64,192,82012,1,0,0:0:0:0:
192,192,82012,1,0,0:0:0:0:
320,192,82012,1,0,0:0:0:0:
192,192,82126,1,0,0:0:0:0:
448,192,82354,1,0,0:0:0:0:
320,192,82469,1,0,0:0:0:0:
64,192,82469,1,0,0:0:0:0:
192,192,82469,1,0,0:0:0:0:
448,192,82469,1,0,0:0:0:0:
320,192,82583,1,0,0:0:0:0:
192,192,82811,1,0,0:0:0:0:
448,192,82925,1,0,0:0:0:0:
64,192,82925,1,0,0:0:0:0:
192,192,82925,1,0,0:0:0:0:
320,192,82925,1,0,0:0:0:0:
64,192,83153,1,0,0:0:0:0:
64,192,83268,1,0,0:0:0:0:
448,192,83382,1,0,0:0:0:0:
64,192,83382,1,0,0:0:0:0:
320,192,83382,1,0,0:0:0:0:
192,192,83382,1,0,0:0:0:0:
320,192,83610,1,0,0:0:0:0:
320,192,83724,1,0,0:0:0:0:
320,192,83838,1,0,0:0:0:0:
192,192,83838,1,0,0:0:0:0:
64,192,83838,1,0,0:0:0:0:
448,192,83838,1,0,0:0:0:0:
64,192,83953,1,0,0:0:0:0:
64,192,84181,1,0,0:0:0:0:
192,192,84295,1,0,0:0:0:0:
320,192,84295,1,0,0:0:0:0:
448,192,84295,1,0,0:0:0:0:
64,192,84295,1,0,0:0:0:0:
64,192,84409,1,0,0:0:0:0:
64,192,84638,1,0,0:0:0:0:
64,192,84752,1,0,0:0:0:0:
448,192,84752,1,0,0:0:0:0:
192,192,84752,1,0,0:0:0:0:
320,192,84752,1,0,0:0:0:0:
448,192,84866,1,0,0:0:0:0:
64,192,84980,1,0,0:0:0:0:
64,192,85094,1,0,0:0:0:0:
64,192,85208,1,0,0:0:0:0:
192,192,85208,1,0,0:0:0:0:
320,192,85208,1,0,0:0:0:0:
448,192,85208,1,0,0:0:0:0:
320,192,85437,1,0,0:0:0:0:
320,192,85551,1,0,0:0:0:0:
320,192,85665,1,0,0:0:0:0:
448,192,85665,1,0,0:0:0:0:
192,192,85665,1,0,0:0:0:0:
64,192,85665,1,0,0:0:0:0:
448,192,85779,1,0,0:0:0:0:
320,192,86007,1,0,0:0:0:0:
448,192,86122,1,0,0:0:0:0:
320,192,86122,1,0,0:0:0:0:
192,192,86122,1,0,0:0:0:0:
64,192,86122,1,0,0:0:0:0:
192,192,86236,1,0,0:0:0:0:
64,192,86464,1,0,0:0:0:0:
320,192,86578,1,0,0:0:0:0:
192,192,86578,1,0,0:0:0:0:
448,192,86578,1,0,0:0:0:0:
64,192,86578,1,0,0:0:0:0:
320,192,86692,1,0,0:0:0:0:
192,192,86806,1,0,0:0:0:0:
192,192,86921,1,0,0:0:0:0:
192,192,87035,1,0,0:0:0:0:
320,192,87035,1,0,0:0:0:0:
64,192,87035,1,0,0:0:0:0:
448,192,87035,1,0,0:0:0:0:
192,192,87263,1,0,0:0:0:0:
192,192,87377,1,0,0:0:0:0:
192,192,87491,1,0,0:0:0:0:
320,192,87491,1,0,0:0:0:0:
448,192,87491,1,0,0:0:0:0:
64,192,87491,1,0,0:0:0:0:
192,192,87606,1,0,0:0:0:0:
192,192,87834,1,0,0:0:0:0:
192,192,87948,1,0,0:0:0:0:
64,192,87948,1,0,0:0:0:0:
320,192,87948,1,0,0:0:0:0:
448,192,87948,1,0,0:0:0:0:
64,192,88062,1,0,0:0:0:0:
192,192,88176,1,0,0:0:0:0:
192,192,88290,1,0,0:0:0:0:
320,192,88405,1,0,0:0:0:0:
64,192,88405,1,0,0:0:0:0:
448,192,88405,1,0,0:0:0:0:
192,192,88405,1,0,0:0:0:0:
320,192,88519,1,0,0:0:0:0:
448,192,88633,1,0,0:0:0:0:
448,192,88747,1,0,0:0:0:0:
320,192,88861,1,0,0:0:0:0:
64,192,88861,1,0,0:0:0:0:
192,192,88861,1,0,0:0:0:0:
448,192,88861,1,0,0:0:0:0:
320,192,89090,1,0,0:0:0:0:
320,192,89204,1,0,0:0:0:0:
320,192,89318,1,0,0:0:0:0:
448,192,89318,1,0,0:0:0:0:
64,192,89318,1,0,0:0:0:0:
192,192,89318,1,0,0:0:0:0:
320,192,89432,1,0,0:0:0:0:
64,192,89660,1,0,0:0:0:0:
320,192,89774,1,0,0:0:0:0:
448,192,89774,1,0,0:0:0:0:
192,192,89774,1,0,0:0:0:0:
64,192,89774,1,0,0:0:0:0:
192,192,89889,1,0,0:0:0:0:
320,192,90117,1,0,0:0:0:0:
320,192,90231,1,0,0:0:0:0:
448,192,90231,1,0,0:0:0:0:
64,192,90231,1,0,0:0:0:0:
192,192,90231,1,0,0:0:0:0:
448,192,90459,1,0,0:0:0:0:
448,192,90574,1,0,0:0:0:0:
448,192,90688,1,0,0:0:0:0:
64,192,90688,1,0,0:0:0:0:
320,192,90688,1,0,0:0:0:0:
192,192,90688,1,0,0:0:0:0:
64,192,90802,1,0,0:0:0:0:
64,192,90916,1,0,0:0:0:0:
64,192,91030,1,0,0:0:0:0:
64,192,91144,1,0,0:0:0:0:
320,192,91144,1,0,0:0:0:0:
64,192,91259,1,0,0:0:0:0:
64,192,91373,1,0,0:0:0:0:
64,192,91487,1,0,0:0:0:0:
64,192,91601,1,0,0:0:0:0:
448,192,91601,1,0,0:0:0:0:
64,192,91715,1,0,0:0:0:0:
64,192,91829,1,0,0:0:0:0:
64,192,91943,1,0,0:0:0:0:
64,192,92058,1,0,0:0:0:0:
448,192,92058,1,0,0:0:0:0:
64,192,92172,1,0,0:0:0:0:
64,192,92286,1,0,0:0:0:0:
192,192,92286,1,0,0:0:0:0:
64,192,92400,1,0,0:0:0:0:
64,192,92514,1,0,0:0:0:0:
64,192,92628,1,0,0:0:0:0:
64,192,92743,1,0,0:0:0:0:
192,192,92743,1,0,0:0:0:0:
64,192,92857,1,0,0:0:0:0:
64,192,92971,1,0,0:0:0:0:
64,192,93085,1,0,0:0:0:0:
64,192,93199,1,0,0:0:0:0:
192,192,93199,1,0,0:0:0:0:
64,192,93313,1,0,0:0:0:0:
64,192,93427,1,0,0:0:0:0:
320,192,93427,1,0,0:0:0:0:
64,192,93542,1,0,0:0:0:0:
64,192,93656,1,0,0:0:0:0:
448,192,93656,1,0,0:0:0:0:
64,192,93770,1,0,0:0:0:0:
64,192,93884,1,0,0:0:0:0:
320,192,93884,1,0,0:0:0:0:
64,192,93998,1,0,0:0:0:0:
64,192,94112,1,0,0:0:0:0:
64,192,94227,1,0,0:0:0:0:
64,192,94341,1,0,0:0:0:0:
320,192,94341,1,0,0:0:0:0:
192,192,94341,1,0,0:0:0:0:
320,192,94455,1,0,0:0:0:0:
320,192,94569,1,0,0:0:0:0:
320,192,94683,1,0,0:0:0:0:
320,192,94797,1,0,0:0:0:0:
64,192,94797,1,0,0:0:0:0:
320,192,94911,1,0,0:0:0:0:
320,192,95026,1,0,0:0:0:0:
320,192,95140,1,0,0:0:0:0:
320,192,95254,1,0,0:0:0:0:
448,192,95254,1,0,0:0:0:0:
320,192,95368,1,0,0:0:0:0:
320,192,95482,1,0,0:0:0:0:
320,192,95596,1,0,0:0:0:0:
320,192,95711,1,0,0:0:0:0:
448,192,95711,1,0,0:0:0:0:
320,192,95825,1,0,0:0:0:0:
320,192,95939,1,0,0:0:0:0:
64,192,95939,1,0,0:0:0:0:
320,192,96053,1,0,0:0:0:0:
320,192,96167,1,0,0:0:0:0:
320,192,96281,1,0,0:0:0:0:
320,192,96395,1,0,0:0:0:0:
64,192,96395,1,0,0:0:0:0:
320,192,96510,1,0,0:0:0:0:
320,192,96624,1,0,0:0:0:0:
320,192,96738,1,0,0:0:0:0:
320,192,96852,1,0,0:0:0:0:
64,192,96852,1,0,0:0:0:0:
320,192,96966,1,0,0:0:0:0:
320,192,97080,1,0,0:0:0:0:
192,192,97080,1,0,0:0:0:0:
320,192,97195,1,0,0:0:0:0:
320,192,97309,1,0,0:0:0:0:
448,192,97309,1,0,0:0:0:0:
320,192,97423,1,0,0:0:0:0:
320,192,97537,1,0,0:0:0:0:
192,192,97537,1,0,0:0:0:0:
320,192,97651,1,0,0:0:0:0:
320,192,97765,1,0,0:0:0:0:
320,192,97880,1,0,0:0:0:0:
320,192,97994,1,0,0:0:0:0:
64,192,97994,1,0,0:0:0:0:
192,192,97994,1,0,0:0:0:0:
64,192,98450,1,0,0:0:0:0:
192,192,98907,1,0,0:0:0:0:
192,192,99364,1,0,0:0:0:0:
320,192,99592,1,0,0:0:0:0:
320,192,100048,1,0,0:0:0:0:
320,192,100505,1,0,0:0:0:0:
448,192,100733,1,0,0:0:0:0:
64,192,100962,1,0,0:0:0:0:
192,192,101190,1,0,0:0:0:0:
448,192,101647,1,0,0:0:0:0:
192,192,102103,1,0,0:0:0:0:
320,192,102560,1,0,0:0:0:0:
64,192,103016,1,0,0:0:0:0:
192,192,103245,1,0,0:0:0:0:
320,192,103473,1,0,0:0:0:0:
448,192,103473,1,0,0:0:0:0:
192,192,103701,1,0,0:0:0:0:
64,192,103930,1,0,0:0:0:0:
320,192,104158,1,0,0:0:0:0:
192,192,104386,1,0,0:0:0:0:
448,192,104615,1,0,0:0:0:0:
320,192,104843,1,0,0:0:0:0:
64,192,105071,1,0,0:0:0:0:
448,192,105071,1,0,0:0:0:0:
64,192,105185,1,0,0:0:0:0:
448,192,105185,1,0,0:0:0:0:
64,192,105300,1,0,0:0:0:0:
320,192,105300,1,0,0:0:0:0:
448,192,105300,1,0,0:0:0:0:
320,192,105414,1,0,0:0:0:0:
320,192,105528,1,0,0:0:0:0:
192,192,105528,1,0,0:0:0:0:
448,192,105756,1,0,0:0:0:0:
448,192,105870,1,0,0:0:0:0:
448,192,105985,1,0,0:0:0:0:
320,192,105985,1,0,0:0:0:0:
320,192,106213,1,0,0:0:0:0:
320,192,106327,1,0,0:0:0:0:
320,192,106441,1,0,0:0:0:0:
192,192,106441,1,0,0:0:0:0:
64,192,106669,1,0,0:0:0:0:
64,192,106784,1,0,0:0:0:0:
64,192,106898,1,0,0:0:0:0:
192,192,106898,1,0,0:0:0:0:
192,192,107126,1,0,0:0:0:0:
192,192,107240,1,0,0:0:0:0:
192,192,107354,1,0,0:0:0:0:
320,192,107354,1,0,0:0:0:0:
320,192,107583,1,0,0:0:0:0:
320,192,107697,1,0,0:0:0:0:
320,192,107811,1,0,0:0:0:0:
448,192,107811,1,0,0:0:0:0:
448,192,108039,1,0,0:0:0:0:
448,192,108153,1,0,0:0:0:0:
448,192,108268,1,0,0:0:0:0:
320,192,108268,1,0,0:0:0:0:
192,192,108496,1,0,0:0:0:0:
192,192,108610,1,0,0:0:0:0:
192,192,108724,1,0,0:0:0:0:
320,192,108724,1,0,0:0:0:0:
320,192,108953,1,0,0:0:0:0:
320,192,109067,1,0,0:0:0:0:
320,192,109181,1,0,0:0:0:0:
192,192,109181,1,0,0:0:0:0:
64,192,109409,1,0,0:0:0:0:
64,192,109523,1,0,0:0:0:0:
64,192,109638,1,0,0:0:0:0:
192,192,109638,1,0,0:0:0:0:
320,192,109866,1,0,0:0:0:0:
320,192,109980,1,0,0:0:0:0:
320,192,110094,1,0,0:0:0:0:
448,192,110094,1,0,0:0:0:0:
192,192,110322,1,0,0:0:0:0:
192,192,110437,1,0,0:0:0:0:
192,192,110551,1,0,0:0:0:0:
320,192,110551,1,0,0:0:0:0:
448,192,110779,1,0,0:0:0:0:
448,192,110893,1,0,0:0:0:0:
448,192,111007,1,0,0:0:0:0:
320,192,111007,1,0,0:0:0:0:
320,192,111236,1,0,0:0:0:0:
320,192,111350,1,0,0:0:0:0:
320,192,111464,1,0,0:0:0:0:
192,192,111464,1,0,0:0:0:0:
192,192,111692,1,0,0:0:0:0:
192,192,111806,1,0,0:0:0:0:
192,192,111921,1,0,0:0:0:0:
64,192,111921,1,0,0:0:0:0:
320,192,112149,1,0,0:0:0:0:
320,192,112263,1,0,0:0:0:0:
320,192,112377,1,0,0:0:0:0:
448,192,112377,1,0,0:0:0:0:
64,192,112606,1,0,0:0:0:0:
64,192,112720,1,0,0:0:0:0:
64,192,112834,1,0,0:0:0:0:
192,192,112834,1,0,0:0:0:0:
192,192,113062,5,0,0:0:0:0:
192,192,113176,1,0,0:0:0:0:
192,192,113290,1,0,0:0:0:0:
320,192,113290,1,0,0:0:0:0:
320,192,113519,1,0,0:0:0:0:
320,192,113633,1,0,0:0:0:0:
320,192,113747,1,0,0:0:0:0:
448,192,113747,1,0,0:0:0:0:
192,192,113975,1,0,0:0:0:0:
192,192,114090,1,0,0:0:0:0:
192,192,114204,1,0,0:0:0:0:
320,192,114204,1,0,0:0:0:0:
64,192,114432,1,0,0:0:0:0:
64,192,114546,1,0,0:0:0:0:
64,192,114660,1,0,0:0:0:0:
192,192,114660,1,0,0:0:0:0:
192,192,114889,1,0,0:0:0:0:
192,192,115003,1,0,0:0:0:0:
192,192,115117,1,0,0:0:0:0:
320,192,115117,1,0,0:0:0:0:
64,192,115345,1,0,0:0:0:0:
64,192,115459,1,0,0:0:0:0:
64,192,115574,1,0,0:0:0:0:
192,192,115574,1,0,0:0:0:0:
320,192,115802,1,0,0:0:0:0:
320,192,115916,1,0,0:0:0:0:
320,192,116030,1,0,0:0:0:0:
192,192,116030,1,0,0:0:0:0:
320,192,116259,1,0,0:0:0:0:
320,192,116373,1,0,0:0:0:0:
320,192,116487,1,0,0:0:0:0:
448,192,116487,1,0,0:0:0:0:
192,192,116715,1,0,0:0:0:0:
192,192,116829,1,0,0:0:0:0:
192,192,116943,1,0,0:0:0:0:
320,192,116943,1,0,0:0:0:0:
448,192,117172,1,0,0:0:0:0:
448,192,117286,1,0,0:0:0:0:
448,192,117400,1,0,0:0:0:0:
320,192,117400,1,0,0:0:0:0:
192,192,117628,1,0,0:0:0:0:
192,192,117743,1,0,0:0:0:0:
192,192,117857,1,0,0:0:0:0:
64,192,117857,1,0,0:0:0:0:
320,192,118085,1,0,0:0:0:0:
320,192,118199,1,0,0:0:0:0:
320,192,118313,1,0,0:0:0:0:
320,192,118427,1,0,0:0:0:0:
192,192,118542,1,0,0:0:0:0:
320,192,118542,1,0,0:0:0:0:
192,192,118656,1,0,0:0:0:0:
192,192,118770,1,0,0:0:0:0:
192,192,118884,1,0,0:0:0:0:
192,192,118998,1,0,0:0:0:0:
448,192,118998,1,0,0:0:0:0:
448,192,119112,1,0,0:0:0:0:
448,192,119227,1,0,0:0:0:0:
448,192,119341,1,0,0:0:0:0:
448,192,119455,1,0,0:0:0:0:
64,192,119455,1,0,0:0:0:0:
64,192,119569,1,0,0:0:0:0:
64,192,119683,1,0,0:0:0:0:
64,192,119797,1,0,0:0:0:0:
64,192,119911,1,0,0:0:0:0:
192,192,119911,1,0,0:0:0:0:
448,192,119911,1,0,0:0:0:0:
192,192,126532,5,0,0:0:0:0:
320,192,126532,1,0,0:0:0:0:
320,192,126647,1,0,0:0:0:0:
192,192,126647,1,0,0:0:0:0:
192,192,126761,1,0,0:0:0:0:
320,192,126761,1,0,0:0:0:0:
320,192,126875,1,0,0:0:0:0:
192,192,126875,1,0,0:0:0:0:
192,192,126989,1,0,0:0:0:0:
320,192,126989,1,0,0:0:0:0:
64,192,127217,1,0,0:0:0:0:
192,192,127217,1,0,0:0:0:0:
320,192,127217,1,0,0:0:0:0:
448,192,127217,1,0,0:0:0:0:
448,192,127332,1,0,0:0:0:0:
192,192,127332,1,0,0:0:0:0:
448,192,127446,1,0,0:0:0:0:
64,192,127446,1,0,0:0:0:0:
448,192,127560,1,0,0:0:0:0:
320,192,127560,1,0,0:0:0:0:
448,192,127674,1,0,0:0:0:0:
192,192,127674,1,0,0:0:0:0:
64,192,127674,1,0,0:0:0:0:
448,192,127788,1,0,0:0:0:0:
320,192,127788,1,0,0:0:0:0:
448,192,127902,1,0,0:0:0:0:
64,192,127902,1,0,0:0:0:0:
448,192,128016,1,0,0:0:0:0:
192,192,128016,1,0,0:0:0:0:
448,192,128131,1,0,0:0:0:0:
64,192,128131,1,0,0:0:0:0:
320,192,128131,1,0,0:0:0:0:
448,192,128245,1,0,0:0:0:0:
192,192,128245,1,0,0:0:0:0:
448,192,128359,1,0,0:0:0:0:
320,192,128359,1,0,0:0:0:0:
192,192,128359,1,0,0:0:0:0:
64,192,128359,1,0,0:0:0:0:
448,192,128473,1,0,0:0:0:0:
64,192,128473,1,0,0:0:0:0:
448,192,128587,1,0,0:0:0:0:
320,192,128587,1,0,0:0:0:0:
64,192,128587,1,0,0:0:0:0:
448,192,128701,1,0,0:0:0:0:
64,192,128701,1,0,0:0:0:0:
448,192,128816,1,0,0:0:0:0:
320,192,128816,1,0,0:0:0:0:
192,192,128816,1,0,0:0:0:0:
64,192,128816,1,0,0:0:0:0:
448,192,128930,1,0,0:0:0:0:
192,192,128930,1,0,0:0:0:0:
320,192,129044,1,0,0:0:0:0:
448,192,129044,1,0,0:0:0:0:
64,192,129044,1,0,0:0:0:0:
192,192,129044,1,0,0:0:0:0:
320,192,129158,1,0,0:0:0:0:
192,192,129158,1,0,0:0:0:0:
320,192,129272,1,0,0:0:0:0:
64,192,129272,1,0,0:0:0:0:
320,192,129386,1,0,0:0:0:0:
448,192,129386,1,0,0:0:0:0:
320,192,129501,1,0,0:0:0:0:
192,192,129501,1,0,0:0:0:0:
64,192,129501,1,0,0:0:0:0:
320,192,129615,1,0,0:0:0:0:
448,192,129615,1,0,0:0:0:0:
320,192,129729,1,0,0:0:0:0:
192,192,129729,1,0,0:0:0:0:
320,192,129843,1,0,0:0:0:0:
448,192,129843,1,0,0:0:0:0:
320,192,129957,1,0,0:0:0:0:
64,192,129957,1,0,0:0:0:0:
448,192,129957,1,0,0:0:0:0:
320,192,130071,1,0,0:0:0:0:
192,192,130071,1,0,0:0:0:0:
320,192,130185,1,0,0:0:0:0:
448,192,130185,1,0,0:0:0:0:
192,192,130185,1,0,0:0:0:0:
64,192,130185,1,0,0:0:0:0:
320,192,130300,1,0,0:0:0:0:
64,192,130300,1,0,0:0:0:0:
320,192,130414,1,0,0:0:0:0:
192,192,130414,1,0,0:0:0:0:
448,192,130414,1,0,0:0:0:0:
320,192,130528,1,0,0:0:0:0:
64,192,130528,1,0,0:0:0:0:
320,192,130642,1,0,0:0:0:0:
448,192,130642,1,0,0:0:0:0:
192,192,130642,1,0,0:0:0:0:
64,192,130642,1,0,0:0:0:0:
320,192,130756,1,0,0:0:0:0:
192,192,130756,1,0,0:0:0:0:
320,192,130870,1,0,0:0:0:0:
192,192,130870,1,0,0:0:0:0:
64,192,130870,1,0,0:0:0:0:
448,192,130870,1,0,0:0:0:0:
192,192,130985,1,0,0:0:0:0:
320,192,130985,1,0,0:0:0:0:
192,192,131099,1,0,0:0:0:0:
448,192,131099,1,0,0:0:0:0:
192,192,131213,1,0,0:0:0:0:
320,192,131213,1,0,0:0:0:0:
192,192,131327,1,0,0:0:0:0:
64,192,131327,1,0,0:0:0:0:
448,192,131327,1,0,0:0:0:0:
192,192,131441,1,0,0:0:0:0:
448,192,131441,1,0,0:0:0:0:
192,192,131555,1,0,0:0:0:0:
320,192,131555,1,0,0:0:0:0:
192,192,131669,1,0,0:0:0:0:
64,192,131669,1,0,0:0:0:0:
192,192,131784,1,0,0:0:0:0:
448,192,131784,1,0,0:0:0:0:
320,192,131784,1,0,0:0:0:0:
192,192,131898,1,0,0:0:0:0:
64,192,131898,1,0,0:0:0:0:
192,192,132012,1,0,0:0:0:0:
320,192,132012,1,0,0:0:0:0:
448,192,132012,1,0,0:0:0:0:
64,192,132012,1,0,0:0:0:0:
192,192,132126,1,0,0:0:0:0:
448,192,132126,1,0,0:0:0:0:
192,192,132240,1,0,0:0:0:0:
64,192,132240,1,0,0:0:0:0:
320,192,132240,1,0,0:0:0:0:
192,192,132354,1,0,0:0:0:0:
448,192,132354,1,0,0:0:0:0:
192,192,132469,1,0,0:0:0:0:
64,192,132469,1,0,0:0:0:0:
320,192,132469,1,0,0:0:0:0:
448,192,132469,1,0,0:0:0:0:
192,192,132583,1,0,0:0:0:0:
448,192,132583,1,0,0:0:0:0:
64,192,132697,1,0,0:0:0:0:
192,192,132697,1,0,0:0:0:0:
320,192,132697,1,0,0:0:0:0:
448,192,132697,1,0,0:0:0:0:
64,192,132811,1,0,0:0:0:0:
192,192,132811,1,0,0:0:0:0:
64,192,132925,1,0,0:0:0:0:
320,192,132925,1,0,0:0:0:0:
64,192,133039,1,0,0:0:0:0:
448,192,133039,1,0,0:0:0:0:
64,192,133153,1,0,0:0:0:0:
192,192,133153,1,0,0:0:0:0:
320,192,133153,1,0,0:0:0:0:
448,192,133153,1,0,0:0:0:0:
64,192,133268,1,0,0:0:0:0:
192,192,133268,1,0,0:0:0:0:
64,192,133382,1,0,0:0:0:0:
320,192,133382,1,0,0:0:0:0:
64,192,133496,1,0,0:0:0:0:
448,192,133496,1,0,0:0:0:0:
64,192,133610,1,0,0:0:0:0:
192,192,133610,1,0,0:0:0:0:
320,192,133610,1,0,0:0:0:0:
448,192,133610,1,0,0:0:0:0:
64,192,133724,1,0,0:0:0:0:
320,192,133724,1,0,0:0:0:0:
64,192,133838,1,0,0:0:0:0:
448,192,133838,1,0,0:0:0:0:
320,192,133838,1,0,0:0:0:0:
192,192,133838,1,0,0:0:0:0:
64,192,133953,1,0,0:0:0:0:
448,192,133953,1,0,0:0:0:0:
64,192,134067,1,0,0:0:0:0:
320,192,134067,1,0,0:0:0:0:
192,192,134067,1,0,0:0:0:0:
64,192,134181,1,0,0:0:0:0:
192,192,134181,1,0,0:0:0:0:
64,192,134295,1,0,0:0:0:0:
320,192,134295,1,0,0:0:0:0:
64,192,134409,1,0,0:0:0:0:
192,192,134409,1,0,0:0:0:0:
64,192,134523,1,0,0:0:0:0:
448,192,134523,1,0,0:0:0:0:
320,192,134523,1,0,0:0:0:0:
192,192,134523,1,0,0:0:0:0:
448,192,134638,1,0,0:0:0:0:
192,192,134638,1,0,0:0:0:0:
448,192,134752,1,0,0:0:0:0:
64,192,134752,1,0,0:0:0:0:
448,192,134866,1,0,0:0:0:0:
320,192,134866,1,0,0:0:0:0:
448,192,134980,1,0,0:0:0:0:
192,192,134980,1,0,0:0:0:0:
64,192,134980,1,0,0:0:0:0:
448,192,135094,1,0,0:0:0:0:
320,192,135094,1,0,0:0:0:0:
448,192,135208,1,0,0:0:0:0:
64,192,135208,1,0,0:0:0:0:
448,192,135322,1,0,0:0:0:0:
192,192,135322,1,0,0:0:0:0:
448,192,135437,1,0,0:0:0:0:
64,192,135437,1,0,0:0:0:0:
320,192,135437,1,0,0:0:0:0:
448,192,135551,1,0,0:0:0:0:
448,192,135665,1,0,0:0:0:0:
320,192,135665,1,0,0:0:0:0:
192,192,135665,1,0,0:0:0:0:
64,192,135665,1,0,0:0:0:0:
448,192,135779,1,0,0:0:0:0:
192,192,135779,1,0,0:0:0:0:
448,192,135893,1,0,0:0:0:0:
320,192,135893,1,0,0:0:0:0:
64,192,135893,1,0,0:0:0:0:
448,192,136007,1,0,0:0:0:0:
192,192,136007,1,0,0:0:0:0:
448,192,136122,1,0,0:0:0:0:
64,192,136122,1,0,0:0:0:0:
320,192,136122,1,0,0:0:0:0:
192,192,136122,1,0,0:0:0:0:
448,192,136236,1,0,0:0:0:0:
192,192,136236,1,0,0:0:0:0:
192,192,136350,1,0,0:0:0:0:
64,192,136350,1,0,0:0:0:0:
320,192,136350,1,0,0:0:0:0:
448,192,136350,1,0,0:0:0:0:
320,192,136464,1,0,0:0:0:0:
448,192,136464,1,0,0:0:0:0:
320,192,136578,1,0,0:0:0:0:
192,192,136578,1,0,0:0:0:0:
320,192,136692,1,0,0:0:0:0:
448,192,136692,1,0,0:0:0:0:
320,192,136806,1,0,0:0:0:0:
64,192,136806,1,0,0:0:0:0:
192,192,136806,1,0,0:0:0:0:
320,192,136921,1,0,0:0:0:0:
448,192,136921,1,0,0:0:0:0:
320,192,137035,1,0,0:0:0:0:
192,192,137035,1,0,0:0:0:0:
320,192,137149,1,0,0:0:0:0:
64,192,137149,1,0,0:0:0:0:
320,192,137263,1,0,0:0:0:0:
448,192,137263,1,0,0:0:0:0:
192,192,137263,1,0,0:0:0:0:
320,192,137377,1,0,0:0:0:0:
64,192,137377,1,0,0:0:0:0:
320,192,137491,1,0,0:0:0:0:
192,192,137491,1,0,0:0:0:0:
448,192,137491,1,0,0:0:0:0:
64,192,137491,1,0,0:0:0:0:
320,192,137606,1,0,0:0:0:0:
192,192,137606,1,0,0:0:0:0:
320,192,137720,1,0,0:0:0:0:
64,192,137720,1,0,0:0:0:0:
448,192,137720,1,0,0:0:0:0:
320,192,137834,1,0,0:0:0:0:
448,192,137834,1,0,0:0:0:0:
320,192,137948,1,0,0:0:0:0:
448,192,137948,1,0,0:0:0:0:
192,192,137948,1,0,0:0:0:0:
64,192,137948,1,0,0:0:0:0:
320,192,138062,1,0,0:0:0:0:
192,192,138062,1,0,0:0:0:0:
192,192,138176,1,0,0:0:0:0:
64,192,138176,1,0,0:0:0:0:
320,192,138176,1,0,0:0:0:0:
448,192,138176,1,0,0:0:0:0:
192,192,138290,1,0,0:0:0:0:
320,192,138290,1,0,0:0:0:0:
192,192,138405,1,0,0:0:0:0:
448,192,138405,1,0,0:0:0:0:
192,192,138519,1,0,0:0:0:0:
320,192,138519,1,0,0:0:0:0:
192,192,138633,1,0,0:0:0:0:
64,192,138633,1,0,0:0:0:0:
448,192,138633,1,0,0:0:0:0:
192,192,138747,1,0,0:0:0:0:
320,192,138747,1,0,0:0:0:0:
192,192,138861,1,0,0:0:0:0:
448,192,138861,1,0,0:0:0:0:
192,192,138975,1,0,0:0:0:0:
320,192,138975,1,0,0:0:0:0:
192,192,139090,1,0,0:0:0:0:
320,192,139090,1,0,0:0:0:0:
448,192,139090,1,0,0:0:0:0:
64,192,139090,1,0,0:0:0:0:
192,192,139204,1,0,0:0:0:0:
64,192,139204,1,0,0:0:0:0:
192,192,139318,1,0,0:0:0:0:
320,192,139318,1,0,0:0:0:0:
192,192,139432,1,0,0:0:0:0:
64,192,139432,1,0,0:0:0:0:
192,192,139546,1,0,0:0:0:0:
320,192,139546,1,0,0:0:0:0:
448,192,139546,1,0,0:0:0:0:
192,192,139660,1,0,0:0:0:0:
320,192,139660,1,0,0:0:0:0:
64,192,139774,1,0,0:0:0:0:
192,192,139774,1,0,0:0:0:0:
448,192,139889,1,0,0:0:0:0:
320,192,139889,1,0,0:0:0:0:
64,192,140003,1,0,0:0:0:0:
192,192,140003,1,0,0:0:0:0:
320,192,140003,1,0,0:0:0:0:
448,192,140003,1,0,0:0:0:0:
64,192,140117,1,0,0:0:0:0:
192,192,140117,1,0,0:0:0:0:
320,192,140117,1,0,0:0:0:0:
448,192,140117,1,0,0:0:0:0:
64,192,140231,1,0,0:0:0:0:
192,192,140231,1,0,0:0:0:0:
320,192,140231,1,0,0:0:0:0:
448,192,140231,1,0,0:0:0:0:
64,192,140345,1,0,0:0:0:0:
320,192,140345,1,0,0:0:0:0:
448,192,140345,1,0,0:0:0:0:
192,192,140345,1,0,0:0:0:0:
64,192,140459,1,0,0:0:0:0:
192,192,140459,1,0,0:0:0:0:
320,192,140459,1,0,0:0:0:0:
448,192,140459,1,0,0:0:0:0:
64,192,140574,1,0,0:0:0:0:
448,192,140574,1,0,0:0:0:0:
320,192,140574,1,0,0:0:0:0:
192,192,140574,1,0,0:0:0:0:
64,192,140688,1,0,0:0:0:0:
192,192,140688,1,0,0:0:0:0:
320,192,140688,1,0,0:0:0:0:
448,192,140688,1,0,0:0:0:0:
64,192,140802,1,0,0:0:0:0:
448,192,140802,1,0,0:0:0:0:
320,192,140802,1,0,0:0:0:0:
192,192,140802,1,0,0:0:0:0:
64,192,140916,1,0,0:0:0:0:
192,192,140916,1,0,0:0:0:0:
320,192,140916,1,0,0:0:0:0:
448,192,140916,1,0,0:0:0:0:
64,192,141030,1,0,0:0:0:0:
448,192,141030,1,0,0:0:0:0:
320,192,141030,1,0,0:0:0:0:
192,192,141030,1,0,0:0:0:0:
64,192,141144,1,0,0:0:0:0:
192,192,141144,1,0,0:0:0:0:
320,192,141144,1,0,0:0:0:0:
448,192,141144,1,0,0:0:0:0:
64,192,141259,1,0,0:0:0:0:
448,192,141259,1,0,0:0:0:0:
320,192,141259,1,0,0:0:0:0:
192,192,141259,1,0,0:0:0:0:
64,192,141373,1,0,0:0:0:0:
192,192,141373,1,0,0:0:0:0:
320,192,141373,1,0,0:0:0:0:
448,192,141373,1,0,0:0:0:0:
64,192,141487,1,0,0:0:0:0:
320,192,141487,1,0,0:0:0:0:
192,192,141487,1,0,0:0:0:0:
448,192,141487,1,0,0:0:0:0:
64,192,141601,1,0,0:0:0:0:
448,192,141601,1,0,0:0:0:0:
320,192,141601,1,0,0:0:0:0:
192,192,141601,1,0,0:0:0:0:
64,192,141715,1,0,0:0:0:0:
192,192,141715,1,0,0:0:0:0:
320,192,141715,1,0,0:0:0:0:
448,192,141715,1,0,0:0:0:0:
64,192,141829,1,0,0:0:0:0:
192,192,141829,1,0,0:0:0:0:
320,192,141829,1,0,0:0:0:0:
448,192,141829,1,0,0:0:0:0:
448,192,141943,1,0,0:0:0:0:
192,192,141943,1,0,0:0:0:0:
448,192,142058,1,0,0:0:0:0:
64,192,142058,1,0,0:0:0:0:
448,192,142172,1,0,0:0:0:0:
320,192,142172,1,0,0:0:0:0:
448,192,142286,1,0,0:0:0:0:
192,192,142286,1,0,0:0:0:0:
64,192,142286,1,0,0:0:0:0:
448,192,142400,1,0,0:0:0:0:
320,192,142400,1,0,0:0:0:0:
448,192,142514,1,0,0:0:0:0:
64,192,142514,1,0,0:0:0:0:
448,192,142628,1,0,0:0:0:0:
192,192,142628,1,0,0:0:0:0:
448,192,142743,1,0,0:0:0:0:
64,192,142743,1,0,0:0:0:0:
320,192,142743,1,0,0:0:0:0:
448,192,142857,1,0,0:0:0:0:
192,192,142857,1,0,0:0:0:0:
448,192,142971,1,0,0:0:0:0:
320,192,142971,1,0,0:0:0:0:
192,192,142971,1,0,0:0:0:0:
64,192,142971,1,0,0:0:0:0:
448,192,143085,1,0,0:0:0:0:
64,192,143085,1,0,0:0:0:0:
448,192,143199,1,0,0:0:0:0:
320,192,143199,1,0,0:0:0:0:
64,192,143199,1,0,0:0:0:0:
448,192,143313,1,0,0:0:0:0:
64,192,143313,1,0,0:0:0:0:
448,192,143427,1,0,0:0:0:0:
320,192,143427,1,0,0:0:0:0:
192,192,143427,1,0,0:0:0:0:
64,192,143427,1,0,0:0:0:0:
448,192,143542,1,0,0:0:0:0:
192,192,143542,1,0,0:0:0:0:
320,192,143656,1,0,0:0:0:0:
448,192,143656,1,0,0:0:0:0:
64,192,143656,1,0,0:0:0:0:
192,192,143656,1,0,0:0:0:0:
320,192,143770,1,0,0:0:0:0:
192,192,143770,1,0,0:0:0:0:
320,192,143884,1,0,0:0:0:0:
64,192,143884,1,0,0:0:0:0:
320,192,143998,1,0,0:0:0:0:
448,192,143998,1,0,0:0:0:0:
320,192,144112,1,0,0:0:0:0:
192,192,144112,1,0,0:0:0:0:
64,192,144112,1,0,0:0:0:0:
320,192,144227,1,0,0:0:0:0:
448,192,144227,1,0,0:0:0:0:
320,192,144341,1,0,0:0:0:0:
192,192,144341,1,0,0:0:0:0:
320,192,144455,1,0,0:0:0:0:
448,192,144455,1,0,0:0:0:0:
320,192,144569,1,0,0:0:0:0:
64,192,144569,1,0,0:0:0:0:
448,192,144569,1,0,0:0:0:0:
320,192,144683,1,0,0:0:0:0:
192,192,144683,1,0,0:0:0:0:
320,192,144797,1,0,0:0:0:0:
448,192,144797,1,0,0:0:0:0:
192,192,144797,1,0,0:0:0:0:
64,192,144797,1,0,0:0:0:0:
320,192,144911,1,0,0:0:0:0:
64,192,144911,1,0,0:0:0:0:
320,192,145026,1,0,0:0:0:0:
192,192,145026,1,0,0:0:0:0:
448,192,145026,1,0,0:0:0:0:
320,192,145140,1,0,0:0:0:0:
64,192,145140,1,0,0:0:0:0:
320,192,145254,1,0,0:0:0:0:
448,192,145254,1,0,0:0:0:0:
192,192,145254,1,0,0:0:0:0:
64,192,145254,1,0,0:0:0:0:
320,192,145368,1,0,0:0:0:0:
192,192,145368,1,0,0:0:0:0:
320,192,145482,1,0,0:0:0:0:
192,192,145482,1,0,0:0:0:0:
64,192,145482,1,0,0:0:0:0:
448,192,145482,1,0,0:0:0:0:
192,192,145596,1,0,0:0:0:0:
320,192,145596,1,0,0:0:0:0:
192,192,145711,1,0,0:0:0:0:
448,192,145711,1,0,0:0:0:0:
192,192,145825,1,0,0:0:0:0:
320,192,145825,1,0,0:0:0:0:
192,192,145939,1,0,0:0:0:0:
64,192,145939,1,0,0:0:0:0:
448,192,145939,1,0,0:0:0:0:
192,192,146053,1,0,0:0:0:0:
448,192,146053,1,0,0:0:0:0:
192,192,146167,1,0,0:0:0:0:
320,192,146167,1,0,0:0:0:0:
192,192,146281,1,0,0:0:0:0:
64,192,146281,1,0,0:0:0:0:
192,192,146395,1,0,0:0:0:0:
448,192,146395,1,0,0:0:0:0:
320,192,146395,1,0,0:0:0:0:
192,192,146510,1,0,0:0:0:0:
64,192,146510,1,0,0:0:0:0:
192,192,146624,1,0,0:0:0:0:
320,192,146624,1,0,0:0:0:0:
448,192,146624,1,0,0:0:0:0:
64,192,146624,1,0,0:0:0:0:
192,192,146738,1,0,0:0:0:0:
448,192,146738,1,0,0:0:0:0:
192,192,146852,1,0,0:0:0:0:
64,192,146852,1,0,0:0:0:0:
320,192,146852,1,0,0:0:0:0:
192,192,146966,1,0,0:0:0:0:
448,192,146966,1,0,0:0:0:0:
192,192,147080,1,0,0:0:0:0:
64,192,147080,1,0,0:0:0:0:
320,192,147080,1,0,0:0:0:0:
448,192,147080,1,0,0:0:0:0:
192,192,147195,1,0,0:0:0:0:
448,192,147195,1,0,0:0:0:0:
64,192,147309,1,0,0:0:0:0:
192,192,147309,1,0,0:0:0:0:
320,192,147309,1,0,0:0:0:0:
448,192,147309,1,0,0:0:0:0:
64,192,147423,1,0,0:0:0:0:
192,192,147423,1,0,0:0:0:0:
64,192,147537,1,0,0:0:0:0:
320,192,147537,1,0,0:0:0:0:
64,192,147651,1,0,0:0:0:0:
448,192,147651,1,0,0:0:0:0:
64,192,147765,1,0,0:0:0:0:
192,192,147765,1,0,0:0:0:0:
320,192,147765,1,0,0:0:0:0:
448,192,147765,1,0,0:0:0:0:
64,192,147880,1,0,0:0:0:0:
192,192,147880,1,0,0:0:0:0:
64,192,147994,1,0,0:0:0:0:
320,192,147994,1,0,0:0:0:0:
64,192,148108,1,0,0:0:0:0:
448,192,148108,1,0,0:0:0:0:
64,192,148222,1,0,0:0:0:0:
192,192,148222,1,0,0:0:0:0:
320,192,148222,1,0,0:0:0:0:
448,192,148222,1,0,0:0:0:0:
64,192,148336,1,0,0:0:0:0:
320,192,148336,1,0,0:0:0:0:
64,192,148450,1,0,0:0:0:0:
448,192,148450,1,0,0:0:0:0:
320,192,148450,1,0,0:0:0:0:
192,192,148450,1,0,0:0:0:0:
64,192,148564,1,0,0:0:0:0:
448,192,148564,1,0,0:0:0:0:
64,192,148679,1,0,0:0:0:0:
320,192,148679,1,0,0:0:0:0:
192,192,148679,1,0,0:0:0:0:
64,192,148793,1,0,0:0:0:0:
192,192,148793,1,0,0:0:0:0:
64,192,148907,1,0,0:0:0:0:
320,192,148907,1,0,0:0:0:0:
64,192,149021,1,0,0:0:0:0:
192,192,149021,1,0,0:0:0:0:
64,192,149135,1,0,0:0:0:0:
448,192,149135,1,0,0:0:0:0:
320,192,149135,1,0,0:0:0:0:
192,192,149135,1,0,0:0:0:0:
448,192,149249,1,0,0:0:0:0:
192,192,149249,1,0,0:0:0:0:
448,192,149364,1,0,0:0:0:0:
64,192,149364,1,0,0:0:0:0:
448,192,149478,1,0,0:0:0:0:
320,192,149478,1,0,0:0:0:0:
448,192,149592,1,0,0:0:0:0:
192,192,149592,1,0,0:0:0:0:
64,192,149592,1,0,0:0:0:0:
448,192,149706,1,0,0:0:0:0:
320,192,149706,1,0,0:0:0:0:
448,192,149820,1,0,0:0:0:0:
64,192,149820,1,0,0:0:0:0:
448,192,149934,1,0,0:0:0:0:
192,192,149934,1,0,0:0:0:0:
448,192,150048,1,0,0:0:0:0:
64,192,150048,1,0,0:0:0:0:
320,192,150048,1,0,0:0:0:0:
448,192,150163,1,0,0:0:0:0:
448,192,150277,1,0,0:0:0:0:
320,192,150277,1,0,0:0:0:0:
192,192,150277,1,0,0:0:0:0:
64,192,150277,1,0,0:0:0:0:
448,192,150391,1,0,0:0:0:0:
192,192,150391,1,0,0:0:0:0:
448,192,150505,1,0,0:0:0:0:
320,192,150505,1,0,0:0:0:0:
64,192,150505,1,0,0:0:0:0:
448,192,150619,1,0,0:0:0:0:
192,192,150619,1,0,0:0:0:0:
448,192,150733,1,0,0:0:0:0:
64,192,150733,1,0,0:0:0:0:
320,192,150733,1,0,0:0:0:0:
192,192,150733,1,0,0:0:0:0:
448,192,150848,1,0,0:0:0:0:
192,192,150848,1,0,0:0:0:0:
192,192,150962,1,0,0:0:0:0:
64,192,150962,1,0,0:0:0:0:
320,192,150962,1,0,0:0:0:0:
448,192,150962,1,0,0:0:0:0:
320,192,151076,1,0,0:0:0:0:
448,192,151076,1,0,0:0:0:0:
320,192,151190,1,0,0:0:0:0:
192,192,151190,1,0,0:0:0:0:
320,192,151304,1,0,0:0:0:0:
448,192,151304,1,0,0:0:0:0:
320,192,151418,1,0,0:0:0:0:
64,192,151418,1,0,0:0:0:0:
192,192,151418,1,0,0:0:0:0:
320,192,151532,1,0,0:0:0:0:
448,192,151532,1,0,0:0:0:0:
320,192,151647,1,0,0:0:0:0:
192,192,151647,1,0,0:0:0:0:
320,192,151761,1,0,0:0:0:0:
64,192,151761,1,0,0:0:0:0:
320,192,151875,1,0,0:0:0:0:
448,192,151875,1,0,0:0:0:0:
192,192,151875,1,0,0:0:0:0:
320,192,151989,1,0,0:0:0:0:
64,192,151989,1,0,0:0:0:0:
320,192,152103,1,0,0:0:0:0:
192,192,152103,1,0,0:0:0:0:
448,192,152103,1,0,0:0:0:0:
64,192,152103,1,0,0:0:0:0:
320,192,152217,1,0,0:0:0:0:
192,192,152217,1,0,0:0:0:0:
320,192,152332,1,0,0:0:0:0:
64,192,152332,1,0,0:0:0:0:
448,192,152332,1,0,0:0:0:0:
320,192,152446,1,0,0:0:0:0:
448,192,152446,1,0,0:0:0:0:
320,192,152560,1,0,0:0:0:0:
448,192,152560,1,0,0:0:0:0:
192,192,152560,1,0,0:0:0:0:
64,192,152560,1,0,0:0:0:0:
320,192,152674,1,0,0:0:0:0:
192,192,152674,1,0,0:0:0:0:
192,192,152788,1,0,0:0:0:0:
64,192,152788,1,0,0:0:0:0:
320,192,152788,1,0,0:0:0:0:
448,192,152788,1,0,0:0:0:0:
192,192,152902,1,0,0:0:0:0:
320,192,152902,1,0,0:0:0:0:
192,192,153016,1,0,0:0:0:0:
448,192,153016,1,0,0:0:0:0:
192,192,153131,1,0,0:0:0:0:
320,192,153131,1,0,0:0:0:0:
192,192,153245,1,0,0:0:0:0:
64,192,153245,1,0,0:0:0:0:
448,192,153245,1,0,0:0:0:0:
192,192,153359,1,0,0:0:0:0:
320,192,153359,1,0,0:0:0:0:
192,192,153473,1,0,0:0:0:0:
448,192,153473,1,0,0:0:0:0:
192,192,153587,1,0,0:0:0:0:
320,192,153587,1,0,0:0:0:0:
192,192,153701,1,0,0:0:0:0:
320,192,153701,1,0,0:0:0:0:
448,192,153701,1,0,0:0:0:0:
64,192,153701,1,0,0:0:0:0:
192,192,153816,1,0,0:0:0:0:
64,192,153816,1,0,0:0:0:0:
192,192,153930,1,0,0:0:0:0:
320,192,153930,1,0,0:0:0:0:
192,192,154044,1,0,0:0:0:0:
64,192,154044,1,0,0:0:0:0:
192,192,154158,1,0,0:0:0:0:
320,192,154158,1,0,0:0:0:0:
448,192,154158,1,0,0:0:0:0:
192,192,154272,1,0,0:0:0:0:
320,192,154272,1,0,0:0:0:0:
320,192,154386,1,0,0:0:0:0:
448,192,154386,1,0,0:0:0:0:
192,192,154501,1,0,0:0:0:0:
64,192,154501,1,0,0:0:0:0:
64,192,154615,1,0,0:0:0:0:
192,192,154615,1,0,0:0:0:0:
320,192,154615,1,0,0:0:0:0:
448,192,154615,1,0,0:0:0:0:
64,192,154729,1,0,0:0:0:0:
192,192,154729,1,0,0:0:0:0:
320,192,154729,1,0,0:0:0:0:
448,192,154729,1,0,0:0:0:0:
64,192,154843,1,0,0:0:0:0:
192,192,154843,1,0,0:0:0:0:
320,192,154843,1,0,0:0:0:0:
448,192,154843,1,0,0:0:0:0:
64,192,154957,1,0,0:0:0:0:
320,192,154957,1,0,0:0:0:0:
448,192,154957,1,0,0:0:0:0:
192,192,154957,1,0,0:0:0:0:
64,192,155071,1,0,0:0:0:0:
192,192,155071,1,0,0:0:0:0:
320,192,155071,1,0,0:0:0:0:
448,192,155071,1,0,0:0:0:0:
64,192,155185,1,0,0:0:0:0:
448,192,155185,1,0,0:0:0:0:
320,192,155185,1,0,0:0:0:0:
192,192,155185,1,0,0:0:0:0:
64,192,155300,1,0,0:0:0:0:
192,192,155300,1,0,0:0:0:0:
320,192,155300,1,0,0:0:0:0:
448,192,155300,1,0,0:0:0:0:
64,192,155414,1,0,0:0:0:0:
448,192,155414,1,0,0:0:0:0:
320,192,155414,1,0,0:0:0:0:
192,192,155414,1,0,0:0:0:0:
64,192,155528,1,0,0:0:0:0:
192,192,155528,1,0,0:0:0:0:
320,192,155528,1,0,0:0:0:0:
448,192,155528,1,0,0:0:0:0:
64,192,155642,1,0,0:0:0:0:
448,192,155642,1,0,0:0:0:0:
320,192,155642,1,0,0:0:0:0:
192,192,155642,1,0,0:0:0:0:
64,192,155756,1,0,0:0:0:0:
192,192,155756,1,0,0:0:0:0:
320,192,155756,1,0,0:0:0:0:
448,192,155756,1,0,0:0:0:0:
64,192,155870,1,0,0:0:0:0:
448,192,155870,1,0,0:0:0:0:
320,192,155870,1,0,0:0:0:0:
192,192,155870,1,0,0:0:0:0:
64,192,155985,1,0,0:0:0:0:
192,192,155985,1,0,0:0:0:0:
320,192,155985,1,0,0:0:0:0:
448,192,155985,1,0,0:0:0:0:
64,192,156099,1,0,0:0:0:0:
320,192,156099,1,0,0:0:0:0:
192,192,156099,1,0,0:0:0:0:
448,192,156099,1,0,0:0:0:0:
64,192,156213,1,0,0:0:0:0:
448,192,156213,1,0,0:0:0:0:
320,192,156213,1,0,0:0:0:0:
192,192,156213,1,0,0:0:0:0:
64,192,156327,1,0,0:0:0:0:
192,192,156327,1,0,0:0:0:0:
320,192,156327,1,0,0:0:0:0:
448,192,156327,1,0,0:0:0:0:
320,192,156441,1,0,0:0:0:0:
192,192,156441,1,0,0:0:0:0:
64,192,156441,1,0,0:0:0:0:
320,192,156555,1,0,0:0:0:0:
320,192,156669,1,0,0:0:0:0:
448,192,156669,1,0,0:0:0:0:
320,192,156784,1,0,0:0:0:0:
320,192,156898,1,0,0:0:0:0:
64,192,156898,1,0,0:0:0:0:
192,192,156898,1,0,0:0:0:0:
320,192,157012,1,0,0:0:0:0:
320,192,157126,1,0,0:0:0:0:
64,192,157126,1,0,0:0:0:0:
320,192,157240,1,0,0:0:0:0:
320,192,157354,1,0,0:0:0:0:
448,192,157354,1,0,0:0:0:0:
192,192,157354,1,0,0:0:0:0:
320,192,157469,1,0,0:0:0:0:
320,192,157583,1,0,0:0:0:0:
64,192,157583,1,0,0:0:0:0:
320,192,157697,1,0,0:0:0:0:
320,192,157811,1,0,0:0:0:0:
192,192,157811,1,0,0:0:0:0:
448,192,157811,1,0,0:0:0:0:
320,192,157925,1,0,0:0:0:0:
320,192,158039,1,0,0:0:0:0:
192,192,158039,1,0,0:0:0:0:
320,192,158153,1,0,0:0:0:0:
320,192,158268,1,0,0:0:0:0:
192,192,158268,1,0,0:0:0:0:
448,192,158268,1,0,0:0:0:0:
192,192,158382,1,0,0:0:0:0:
192,192,158496,1,0,0:0:0:0:
64,192,158496,1,0,0:0:0:0:
192,192,158610,1,0,0:0:0:0:
192,192,158724,1,0,0:0:0:0:
320,192,158724,1,0,0:0:0:0:
448,192,158724,1,0,0:0:0:0:
192,192,158838,1,0,0:0:0:0:
192,192,158953,1,0,0:0:0:0:
320,192,158953,1,0,0:0:0:0:
192,192,159067,1,0,0:0:0:0:
192,192,159181,1,0,0:0:0:0:
64,192,159181,1,0,0:0:0:0:
320,192,159181,1,0,0:0:0:0:
192,192,159295,1,0,0:0:0:0:
192,192,159409,1,0,0:0:0:0:
448,192,159409,1,0,0:0:0:0:
192,192,159523,1,0,0:0:0:0:
192,192,159638,1,0,0:0:0:0:
320,192,159638,1,0,0:0:0:0:
64,192,159638,1,0,0:0:0:0:
192,192,159752,1,0,0:0:0:0:
192,192,159866,1,0,0:0:0:0:
64,192,159866,1,0,0:0:0:0:
192,192,159980,1,0,0:0:0:0:
192,192,160094,1,0,0:0:0:0:
320,192,160094,1,0,0:0:0:0:
448,192,160094,1,0,0:0:0:0:
320,192,160208,1,0,0:0:0:0:
320,192,160322,1,0,0:0:0:0:
192,192,160322,1,0,0:0:0:0:
320,192,160437,1,0,0:0:0:0:
320,192,160551,1,0,0:0:0:0:
192,192,160551,1,0,0:0:0:0:
448,192,160551,1,0,0:0:0:0:
320,192,160665,1,0,0:0:0:0:
320,192,160779,1,0,0:0:0:0:
448,192,160779,1,0,0:0:0:0:
320,192,160893,1,0,0:0:0:0:
320,192,161007,1,0,0:0:0:0:
448,192,161007,1,0,0:0:0:0:
192,192,161007,1,0,0:0:0:0:
320,192,161122,1,0,0:0:0:0:
320,192,161236,1,0,0:0:0:0:
64,192,161236,1,0,0:0:0:0:
320,192,161350,1,0,0:0:0:0:
320,192,161464,1,0,0:0:0:0:
448,192,161464,1,0,0:0:0:0:
192,192,161464,1,0,0:0:0:0:
320,192,161578,1,0,0:0:0:0:
320,192,161692,1,0,0:0:0:0:
64,192,161692,1,0,0:0:0:0:
320,192,161806,1,0,0:0:0:0:
320,192,161921,1,0,0:0:0:0:
192,192,161921,1,0,0:0:0:0:
64,192,161921,1,0,0:0:0:0:
192,192,162035,1,0,0:0:0:0:
192,192,162149,1,0,0:0:0:0:
448,192,162149,1,0,0:0:0:0:
192,192,162263,1,0,0:0:0:0:
192,192,162377,1,0,0:0:0:0:
64,192,162377,1,0,0:0:0:0:
448,192,162377,1,0,0:0:0:0:
192,192,162491,1,0,0:0:0:0:
192,192,162606,1,0,0:0:0:0:
320,192,162606,1,0,0:0:0:0:
192,192,162720,1,0,0:0:0:0:
192,192,162834,1,0,0:0:0:0:
64,192,162834,1,0,0:0:0:0:
448,192,162834,1,0,0:0:0:0:
192,192,162948,1,0,0:0:0:0:
192,192,163062,1,0,0:0:0:0:
64,192,163062,1,0,0:0:0:0:
192,192,163176,1,0,0:0:0:0:
192,192,163290,1,0,0:0:0:0:
320,192,163290,1,0,0:0:0:0:
448,192,163290,1,0,0:0:0:0:
192,192,163405,1,0,0:0:0:0:
192,192,163519,1,0,0:0:0:0:
64,192,163519,1,0,0:0:0:0:
192,192,163633,1,0,0:0:0:0:
192,192,163747,1,0,0:0:0:0:
448,192,163747,1,0,0:0:0:0:
320,192,163747,1,0,0:0:0:0:
64,192,163747,1,0,0:0:0:0:
192,192,163861,1,0,0:0:0:0:
320,192,163975,1,0,0:0:0:0:
448,192,164090,1,0,0:0:0:0:
64,192,164204,1,0,0:0:0:0:
192,192,164204,1,0,0:0:0:0:
192,192,164318,1,0,0:0:0:0:
320,192,164432,1,0,0:0:0:0:
448,192,164546,1,0,0:0:0:0:
448,192,164660,1,0,0:0:0:0:
320,192,164774,1,0,0:0:0:0:
192,192,164889,1,0,0:0:0:0:
64,192,165003,1,0,0:0:0:0:
448,192,165117,1,0,0:0:0:0:
320,192,165117,1,0,0:0:0:0:
320,192,165231,1,0,0:0:0:0:
192,192,165345,1,0,0:0:0:0:
64,192,165459,1,0,0:0:0:0:
64,192,165574,1,0,0:0:0:0:
192,192,165688,1,0,0:0:0:0:
320,192,165802,1,0,0:0:0:0:
448,192,165916,1,0,0:0:0:0:
64,192,166030,1,0,0:0:0:0:
192,192,166030,1,0,0:0:0:0:
192,192,166144,1,0,0:0:0:0:
320,192,166259,1,0,0:0:0:0:
448,192,166373,1,0,0:0:0:0:
448,192,166487,1,0,0:0:0:0:
320,192,166601,1,0,0:0:0:0:
192,192,166715,1,0,0:0:0:0:
320,192,166715,1,0,0:0:0:0:
64,192,166829,1,0,0:0:0:0:
448,192,166943,1,0,0:0:0:0:
320,192,166943,1,0,0:0:0:0:
320,192,167058,1,0,0:0:0:0:
192,192,167172,1,0,0:0:0:0:
64,192,167286,1,0,0:0:0:0:
64,192,167400,1,0,0:0:0:0:
192,192,167514,1,0,0:0:0:0:
320,192,167628,1,0,0:0:0:0:
448,192,167743,1,0,0:0:0:0:
64,192,167857,1,0,0:0:0:0:
192,192,167857,1,0,0:0:0:0:
192,192,167971,1,0,0:0:0:0:
320,192,168085,1,0,0:0:0:0:
448,192,168199,1,0,0:0:0:0:
448,192,168313,1,0,0:0:0:0:
320,192,168427,1,0,0:0:0:0:
192,192,168542,1,0,0:0:0:0:
64,192,168656,1,0,0:0:0:0:
448,192,168770,1,0,0:0:0:0:
320,192,168770,1,0,0:0:0:0:
320,192,168884,1,0,0:0:0:0:
192,192,168998,1,0,0:0:0:0:
64,192,169112,1,0,0:0:0:0:
64,192,169227,1,0,0:0:0:0:
320,192,169227,1,0,0:0:0:0:
192,192,169341,1,0,0:0:0:0:
320,192,169455,1,0,0:0:0:0:
448,192,169569,1,0,0:0:0:0:
64,192,169683,1,0,0:0:0:0:
320,192,169683,1,0,0:0:0:0:
192,192,169797,1,0,0:0:0:0:
320,192,169911,1,0,0:0:0:0:
448,192,170026,1,0,0:0:0:0:
64,192,170140,1,0,0:0:0:0:
320,192,170140,1,0,0:0:0:0:
192,192,170254,1,0,0:0:0:0:
448,192,170368,1,0,0:0:0:0:
320,192,170482,1,0,0:0:0:0:
64,192,170596,1,0,0:0:0:0:
448,192,170596,1,0,0:0:0:0:
192,192,170711,1,0,0:0:0:0:
448,192,170825,1,0,0:0:0:0:
320,192,170939,1,0,0:0:0:0:
192,192,171053,1,0,0:0:0:0:
