osu file format v14

[General]
AudioFilename: angel_0.8.mp3
AudioLeadIn: 0
PreviewTime: -1
Countdown: 0
SampleSet: None
StackLeniency: 0.7
Mode: 3
LetterboxInBreaks: 0
SpecialStyle: 0
WidescreenStoryboard: 0

[Editor]
Bookmarks: 2732,9307,15882,22458,29033,35608,42184,48759,55334,61910,81636,88211,94786,107937,114512,121088,127663
DistanceSpacing: 1
BeatDivisor: 4
GridSize: 4
TimelineZoom: 2.1

[Metadata]
Title:angelic_layer
TitleUnicode:angelic_layer
Artist:Shiki
ArtistUnicode:Shiki
Creator:fufu-
Version:0.8
Source:
Tags:
BeatmapID:1415199
BeatmapSetID:669058

[Difficulty]
HPDrainRate:8
CircleSize:4
OverallDifficulty:9.3
ApproachRate:5
SliderMultiplier:1.4
SliderTickRate:1

[Events]
//Background and Video events
0,0,"title.jpg",0,0
//Break Periods
2,11793,16557
2,135080,141129
//Storyboard Layer 0 (Background)
//Storyboard Layer 1 (Fail)
//Storyboard Layer 2 (Pass)
//Storyboard Layer 3 (Foreground)
//Storyboard Sound Samples

[TimingPoints]
3374,513.698630136986,4,3,0,25,1,0

[HitObjects]
64,192,3374,5,4,0:0:0:0:
192,192,3374,1,0,0:0:0:0:
320,192,3374,1,0,0:0:0:0:
448,192,3374,1,0,0:0:0:0:
64,192,3502,1,0,0:0:0:0:
64,192,3630,1,2,0:0:0:0:
192,192,3630,1,0,0:0:0:0:
64,192,3759,1,0,0:0:0:0:
64,192,3887,1,8,0:0:0:0:
320,192,3887,1,0,0:0:0:0:
448,192,3887,1,0,0:0:0:0:
64,192,4016,1,0,0:0:0:0:
64,192,4144,1,2,0:0:0:0:
192,192,4144,1,0,0:0:0:0:
64,192,4272,1,0,0:0:0:0:
64,192,4401,1,8,0:0:0:0:
192,192,4401,1,0,0:0:0:0:
320,192,4401,1,0,0:0:0:0:
64,192,4529,1,0,0:0:0:0:
64,192,4658,1,2,0:0:0:0:
448,192,4658,1,0,0:0:0:0:
64,192,4786,1,0,0:0:0:0:
64,192,4915,1,8,0:0:0:0:
192,192,4915,1,0,0:0:0:0:
448,192,4915,1,0,0:0:0:0:
64,192,5043,1,0,0:0:0:0:
64,192,5171,1,2,0:0:0:0:
320,192,5171,1,0,0:0:0:0:
64,192,5300,1,0,0:0:0:0:
64,192,5428,1,8,0:0:0:0:
192,192,5428,1,0,0:0:0:0:
320,192,5428,1,0,0:0:0:0:
64,192,5557,1,0,0:0:0:0:
64,192,5685,1,2,0:0:0:0:
192,192,5685,1,0,0:0:0:0:
64,192,5814,1,0,0:0:0:0:
64,192,5942,1,8,0:0:0:0:
320,192,5942,1,0,0:0:0:0:
448,192,5942,1,0,0:0:0:0:
64,192,6070,1,0,0:0:0:0:
64,192,6199,1,2,0:0:0:0:
448,192,6199,1,0,0:0:0:0:
64,192,6327,1,0,0:0:0:0:
64,192,6456,1,8,0:0:0:0:
192,192,6456,1,0,0:0:0:0:
320,192,6456,1,0,0:0:0:0:
64,192,6584,1,0,0:0:0:0:
448,192,6584,1,0,0:0:0:0:
64,192,6713,1,2,0:0:0:0:
320,192,6713,1,0,0:0:0:0:
192,192,6713,1,0,0:0:0:0:
64,192,6841,1,0,0:0:0:0:
64,192,6969,1,8,0:0:0:0:
192,192,6969,1,0,0:0:0:0:
448,192,6969,1,0,0:0:0:0:
64,192,7098,1,0,0:0:0:0:
64,192,7226,1,2,0:0:0:0:
320,192,7226,1,0,0:0:0:0:
64,192,7355,1,0,0:0:0:0:
64,192,7483,1,8,0:0:0:0:
192,192,7483,1,0,0:0:0:0:
448,192,7483,1,0,0:0:0:0:
64,192,7612,1,0,0:0:0:0:
64,192,7740,1,2,0:0:0:0:
192,192,7740,1,0,0:0:0:0:
64,192,7868,1,0,0:0:0:0:
64,192,7997,1,8,0:0:0:0:
320,192,7997,1,0,0:0:0:0:
448,192,7997,1,0,0:0:0:0:
64,192,8125,1,0,0:0:0:0:
64,192,8254,1,2,0:0:0:0:
192,192,8254,1,0,0:0:0:0:
64,192,8382,1,0,0:0:0:0:
64,192,8510,1,8,0:0:0:0:
192,192,8510,1,0,0:0:0:0:
320,192,8510,1,0,0:0:0:0:
64,192,8639,1,0,0:0:0:0:
64,192,8767,1,2,0:0:0:0:
320,192,8767,1,0,0:0:0:0:
64,192,8896,1,0,0:0:0:0:
64,192,9024,1,8,0:0:0:0:
320,192,9024,1,0,0:0:0:0:
192,192,9024,1,0,0:0:0:0:
64,192,9153,1,0,0:0:0:0:
64,192,9281,1,2,0:0:0:0:
448,192,9281,1,0,0:0:0:0:
64,192,9409,1,0,0:0:0:0:
64,192,9538,1,8,0:0:0:0:
192,192,9538,1,0,0:0:0:0:
320,192,9538,1,0,0:0:0:0:
64,192,9666,1,0,0:0:0:0:
64,192,9795,1,2,0:0:0:0:
192,192,9795,1,0,0:0:0:0:
64,192,9923,1,0,0:0:0:0:
64,192,10052,1,8,0:0:0:0:
320,192,10052,1,0,0:0:0:0:
448,192,10052,1,0,0:0:0:0:
64,192,10180,1,0,0:0:0:0:
64,192,10308,1,2,0:0:0:0:
192,192,10308,1,0,0:0:0:0:
64,192,10437,1,0,0:0:0:0:
64,192,10565,1,2,0:0:0:0:
320,192,10565,1,0,0:0:0:0:
448,192,10565,1,0,0:0:0:0:
64,192,10694,1,8,0:0:0:0:
192,192,10694,1,0,0:0:0:0:
64,192,10822,1,8,0:0:0:0:
320,192,10822,1,0,0:0:0:0:
448,192,10822,1,0,0:0:0:0:
64,192,10951,1,0,0:0:0:0:
64,192,11079,1,8,0:0:0:0:
192,192,11079,1,0,0:0:0:0:
320,192,11079,1,0,0:0:0:0:
64,192,11207,1,0,0:0:0:0:
64,192,11336,1,2,0:0:0:0:
448,192,11336,1,0,0:0:0:0:
64,192,11464,1,0,0:0:0:0:
64,192,11593,1,8,0:0:0:0:
192,192,11593,1,0,0:0:0:0:
320,192,11593,1,0,0:0:0:0:
64,192,17757,5,0,0:0:0:0:
320,192,19812,1,0,0:0:0:0:
64,192,19812,1,0,0:0:0:0:
448,192,19812,1,0,0:0:0:0:
320,192,19940,1,0,0:0:0:0:
192,192,19940,1,0,0:0:0:0:
320,192,20069,1,0,0:0:0:0:
64,192,20069,1,0,0:0:0:0:
320,192,20197,1,0,0:0:0:0:
192,192,20197,1,0,0:0:0:0:
320,192,20326,1,0,0:0:0:0:
64,192,20326,1,0,0:0:0:0:
448,192,20326,1,0,0:0:0:0:
320,192,20454,1,0,0:0:0:0:
192,192,20454,1,0,0:0:0:0:
320,192,20582,1,0,0:0:0:0:
64,192,20582,1,0,0:0:0:0:
320,192,20711,1,0,0:0:0:0:
448,192,20711,1,0,0:0:0:0:
320,192,20839,1,0,0:0:0:0:
64,192,20839,1,0,0:0:0:0:
320,192,20968,1,0,0:0:0:0:
192,192,20968,1,0,0:0:0:0:
320,192,21096,1,0,0:0:0:0:
448,192,21096,1,0,0:0:0:0:
320,192,21225,1,0,0:0:0:0:
192,192,21225,1,0,0:0:0:0:
320,192,21353,1,0,0:0:0:0:
64,192,21353,1,0,0:0:0:0:
448,192,21353,1,0,0:0:0:0:
320,192,21481,1,0,0:0:0:0:
192,192,21481,1,0,0:0:0:0:
320,192,21610,1,0,0:0:0:0:
448,192,21610,1,0,0:0:0:0:
320,192,21738,1,0,0:0:0:0:
192,192,21738,1,0,0:0:0:0:
320,192,21867,1,0,0:0:0:0:
64,192,21867,1,0,0:0:0:0:
192,192,21867,1,0,0:0:0:0:
320,192,21995,1,0,0:0:0:0:
448,192,21995,1,0,0:0:0:0:
320,192,22123,1,0,0:0:0:0:
192,192,22123,1,0,0:0:0:0:
320,192,22252,1,0,0:0:0:0:
64,192,22252,1,0,0:0:0:0:
320,192,22380,1,0,0:0:0:0:
192,192,22380,1,0,0:0:0:0:
448,192,22380,1,0,0:0:0:0:
320,192,22509,1,0,0:0:0:0:
64,192,22509,1,0,0:0:0:0:
320,192,22637,1,0,0:0:0:0:
192,192,22637,1,0,0:0:0:0:
320,192,22766,1,0,0:0:0:0:
64,192,22766,1,0,0:0:0:0:
320,192,22894,1,0,0:0:0:0:
192,192,22894,1,0,0:0:0:0:
448,192,22894,1,0,0:0:0:0:
320,192,23022,1,0,0:0:0:0:
192,192,23022,1,0,0:0:0:0:
64,192,23022,1,0,0:0:0:0:
320,192,23151,1,0,0:0:0:0:
192,192,23151,1,0,0:0:0:0:
320,192,23279,1,0,0:0:0:0:
448,192,23279,1,0,0:0:0:0:
320,192,23408,1,0,0:0:0:0:
64,192,23408,1,0,0:0:0:0:
192,192,23408,1,0,0:0:0:0:
320,192,23536,1,0,0:0:0:0:
192,192,23536,1,0,0:0:0:0:
320,192,23665,1,0,0:0:0:0:
448,192,23665,1,0,0:0:0:0:
320,192,23793,1,0,0:0:0:0:
192,192,23793,1,0,0:0:0:0:
320,192,23921,1,0,0:0:0:0:
64,192,23921,1,0,0:0:0:0:
448,192,23921,1,0,0:0:0:0:
320,192,24050,1,0,0:0:0:0:
192,192,24050,1,0,0:0:0:0:
320,192,24178,1,0,0:0:0:0:
64,192,24178,1,0,0:0:0:0:
320,192,24307,1,0,0:0:0:0:
448,192,24307,1,0,0:0:0:0:
320,192,24435,1,0,0:0:0:0:
192,192,24435,1,0,0:0:0:0:
64,192,24435,1,0,0:0:0:0:
320,192,24564,1,0,0:0:0:0:
448,192,24564,1,0,0:0:0:0:
320,192,24692,1,0,0:0:0:0:
192,192,24692,1,0,0:0:0:0:
320,192,24820,1,0,0:0:0:0:
448,192,24820,1,0,0:0:0:0:
320,192,24949,1,0,0:0:0:0:
192,192,24949,1,0,0:0:0:0:
320,192,25077,1,0,0:0:0:0:
64,192,25077,1,0,0:0:0:0:
320,192,25206,1,0,0:0:0:0:
64,192,25206,1,0,0:0:0:0:
320,192,25334,1,0,0:0:0:0:
192,192,25334,1,0,0:0:0:0:
320,192,25463,1,0,0:0:0:0:
64,192,25463,1,0,0:0:0:0:
448,192,25463,1,0,0:0:0:0:
320,192,25591,1,0,0:0:0:0:
448,192,25591,1,0,0:0:0:0:
320,192,25719,1,0,0:0:0:0:
192,192,25719,1,0,0:0:0:0:
320,192,25848,1,0,0:0:0:0:
64,192,25848,1,0,0:0:0:0:
320,192,25976,1,0,0:0:0:0:
192,192,25976,1,0,0:0:0:0:
320,192,26105,1,0,0:0:0:0:
448,192,26105,1,0,0:0:0:0:
320,192,26233,1,0,0:0:0:0:
192,192,26233,1,0,0:0:0:0:
320,192,26362,1,0,0:0:0:0:
448,192,26362,1,0,0:0:0:0:
320,192,26490,1,0,0:0:0:0:
192,192,26490,1,0,0:0:0:0:
64,192,26490,1,0,0:0:0:0:
320,192,26618,1,0,0:0:0:0:
448,192,26618,1,0,0:0:0:0:
320,192,26747,1,0,0:0:0:0:
192,192,26747,1,0,0:0:0:0:
320,192,26875,1,0,0:0:0:0:
64,192,26875,1,0,0:0:0:0:
320,192,27004,1,0,0:0:0:0:
192,192,27004,1,0,0:0:0:0:
320,192,27132,1,0,0:0:0:0:
64,192,27132,1,0,0:0:0:0:
448,192,27132,1,0,0:0:0:0:
320,192,27260,1,0,0:0:0:0:
192,192,27260,1,0,0:0:0:0:
320,192,27389,1,0,0:0:0:0:
64,192,27389,1,0,0:0:0:0:
320,192,27517,1,0,0:0:0:0:
192,192,27517,1,0,0:0:0:0:
448,192,27517,1,0,0:0:0:0:
320,192,27646,1,0,0:0:0:0:
320,192,27774,1,0,0:0:0:0:
448,192,27774,1,0,0:0:0:0:
64,192,27774,1,0,0:0:0:0:
320,192,27903,1,0,0:0:0:0:
448,192,27903,1,0,0:0:0:0:
64,192,27903,1,0,0:0:0:0:
192,192,28031,1,0,0:0:0:0:
448,192,28031,1,0,0:0:0:0:
64,192,28031,1,0,0:0:0:0:
192,192,28159,1,0,0:0:0:0:
320,192,28159,1,0,0:0:0:0:
192,192,28288,1,0,0:0:0:0:
448,192,28288,1,0,0:0:0:0:
192,192,28416,1,0,0:0:0:0:
320,192,28416,1,0,0:0:0:0:
192,192,28545,1,0,0:0:0:0:
448,192,28545,1,0,0:0:0:0:
64,192,28545,1,0,0:0:0:0:
192,192,28673,1,0,0:0:0:0:
320,192,28673,1,0,0:0:0:0:
192,192,28802,1,0,0:0:0:0:
448,192,28802,1,0,0:0:0:0:
192,192,28930,1,0,0:0:0:0:
64,192,28930,1,0,0:0:0:0:
192,192,29058,1,0,0:0:0:0:
448,192,29058,1,0,0:0:0:0:
192,192,29187,1,0,0:0:0:0:
320,192,29187,1,0,0:0:0:0:
192,192,29315,1,0,0:0:0:0:
64,192,29315,1,0,0:0:0:0:
192,192,29444,1,0,0:0:0:0:
320,192,29444,1,0,0:0:0:0:
192,192,29572,1,0,0:0:0:0:
448,192,29572,1,0,0:0:0:0:
64,192,29572,1,0,0:0:0:0:
192,192,29701,1,0,0:0:0:0:
320,192,29701,1,0,0:0:0:0:
192,192,29829,1,0,0:0:0:0:
64,192,29829,1,0,0:0:0:0:
192,192,29957,1,0,0:0:0:0:
320,192,29957,1,0,0:0:0:0:
192,192,30086,1,0,0:0:0:0:
448,192,30086,1,0,0:0:0:0:
320,192,30086,1,0,0:0:0:0:
192,192,30214,1,0,0:0:0:0:
64,192,30214,1,0,0:0:0:0:
192,192,30343,1,0,0:0:0:0:
320,192,30343,1,0,0:0:0:0:
192,192,30471,1,0,0:0:0:0:
448,192,30471,1,0,0:0:0:0:
192,192,30600,1,0,0:0:0:0:
320,192,30600,1,0,0:0:0:0:
64,192,30600,1,0,0:0:0:0:
192,192,30728,1,0,0:0:0:0:
448,192,30728,1,0,0:0:0:0:
192,192,30856,1,0,0:0:0:0:
320,192,30856,1,0,0:0:0:0:
192,192,30985,1,0,0:0:0:0:
448,192,30985,1,0,0:0:0:0:
192,192,31113,1,0,0:0:0:0:
320,192,31113,1,0,0:0:0:0:
64,192,31113,1,0,0:0:0:0:
192,192,31242,1,0,0:0:0:0:
320,192,31242,1,0,0:0:0:0:
448,192,31242,1,0,0:0:0:0:
192,192,31370,1,0,0:0:0:0:
320,192,31370,1,0,0:0:0:0:
192,192,31498,1,0,0:0:0:0:
64,192,31498,1,0,0:0:0:0:
192,192,31627,1,0,0:0:0:0:
448,192,31627,1,0,0:0:0:0:
320,192,31627,1,0,0:0:0:0:
192,192,31755,1,0,0:0:0:0:
320,192,31755,1,0,0:0:0:0:
192,192,31884,1,0,0:0:0:0:
64,192,31884,1,0,0:0:0:0:
192,192,32012,1,0,0:0:0:0:
320,192,32012,1,0,0:0:0:0:
192,192,32141,1,0,0:0:0:0:
448,192,32141,1,0,0:0:0:0:
64,192,32141,1,0,0:0:0:0:
192,192,32269,1,0,0:0:0:0:
320,192,32269,1,0,0:0:0:0:
192,192,32397,1,0,0:0:0:0:
448,192,32397,1,0,0:0:0:0:
192,192,32526,1,0,0:0:0:0:
64,192,32526,1,0,0:0:0:0:
192,192,32654,1,0,0:0:0:0:
320,192,32654,1,0,0:0:0:0:
448,192,32654,1,0,0:0:0:0:
192,192,32783,1,0,0:0:0:0:
64,192,32783,1,0,0:0:0:0:
192,192,32911,1,0,0:0:0:0:
320,192,32911,1,0,0:0:0:0:
192,192,33040,1,0,0:0:0:0:
64,192,33040,1,0,0:0:0:0:
192,192,33168,1,0,0:0:0:0:
320,192,33168,1,0,0:0:0:0:
192,192,33296,1,0,0:0:0:0:
448,192,33296,1,0,0:0:0:0:
192,192,33425,1,0,0:0:0:0:
448,192,33425,1,0,0:0:0:0:
192,192,33553,1,0,0:0:0:0:
320,192,33553,1,0,0:0:0:0:
192,192,33682,1,0,0:0:0:0:
448,192,33682,1,0,0:0:0:0:
64,192,33682,1,0,0:0:0:0:
192,192,33810,1,0,0:0:0:0:
64,192,33810,1,0,0:0:0:0:
192,192,33939,1,0,0:0:0:0:
320,192,33939,1,0,0:0:0:0:
192,192,34067,1,0,0:0:0:0:
448,192,34067,1,0,0:0:0:0:
192,192,34195,1,0,0:0:0:0:
320,192,34195,1,0,0:0:0:0:
192,192,34324,1,0,0:0:0:0:
64,192,34324,1,0,0:0:0:0:
192,192,34452,1,0,0:0:0:0:
320,192,34452,1,0,0:0:0:0:
192,192,34581,1,0,0:0:0:0:
64,192,34581,1,0,0:0:0:0:
192,192,34709,1,0,0:0:0:0:
320,192,34709,1,0,0:0:0:0:
448,192,34709,1,0,0:0:0:0:
192,192,34838,1,0,0:0:0:0:
64,192,34838,1,0,0:0:0:0:
192,192,34966,1,0,0:0:0:0:
320,192,34966,1,0,0:0:0:0:
192,192,35094,1,0,0:0:0:0:
448,192,35094,1,0,0:0:0:0:
192,192,35223,1,0,0:0:0:0:
320,192,35223,1,0,0:0:0:0:
192,192,35351,1,0,0:0:0:0:
448,192,35351,1,0,0:0:0:0:
64,192,35351,1,0,0:0:0:0:
192,192,35480,1,0,0:0:0:0:
320,192,35480,1,0,0:0:0:0:
192,192,35608,1,0,0:0:0:0:
448,192,35608,1,0,0:0:0:0:
192,192,35737,1,0,0:0:0:0:
320,192,35737,1,0,0:0:0:0:
64,192,35737,1,0,0:0:0:0:
192,192,35865,1,0,0:0:0:0:
192,192,35993,1,0,0:0:0:0:
64,192,35993,1,0,0:0:0:0:
448,192,35993,1,0,0:0:0:0:
192,192,36122,1,0,0:0:0:0:
64,192,36122,1,0,0:0:0:0:
448,192,36122,1,0,0:0:0:0:
192,192,36250,1,0,0:0:0:0:
64,192,36250,1,0,0:0:0:0:
448,192,36250,1,0,0:0:0:0:
448,192,36379,1,0,0:0:0:0:
448,192,36507,1,0,0:0:0:0:
448,192,36635,1,0,0:0:0:0:
448,192,36764,1,0,0:0:0:0:
448,192,36892,1,0,0:0:0:0:
448,192,37021,1,0,0:0:0:0:
448,192,37149,1,0,0:0:0:0:
448,192,37278,1,0,0:0:0:0:
448,192,37406,1,0,0:0:0:0:
448,192,37534,1,0,0:0:0:0:
64,192,37534,1,0,0:0:0:0:
448,192,37663,1,0,0:0:0:0:
448,192,37791,1,0,0:0:0:0:
448,192,37920,1,0,0:0:0:0:
448,192,38048,1,0,0:0:0:0:
192,192,38048,1,0,0:0:0:0:
448,192,38177,1,0,0:0:0:0:
320,192,38305,1,0,0:0:0:0:
448,192,38305,1,0,0:0:0:0:
64,192,38305,1,0,0:0:0:0:
448,192,38433,1,0,0:0:0:0:
448,192,38562,1,0,0:0:0:0:
448,192,38690,1,0,0:0:0:0:
448,192,38819,1,0,0:0:0:0:
448,192,38947,1,0,0:0:0:0:
448,192,39076,1,0,0:0:0:0:
448,192,39204,1,0,0:0:0:0:
448,192,39332,1,0,0:0:0:0:
448,192,39461,1,0,0:0:0:0:
448,192,39589,1,0,0:0:0:0:
192,192,39589,1,0,0:0:0:0:
448,192,39718,1,0,0:0:0:0:
448,192,39846,1,0,0:0:0:0:
448,192,39975,1,0,0:0:0:0:
448,192,40103,1,0,0:0:0:0:
320,192,40103,1,0,0:0:0:0:
448,192,40231,1,0,0:0:0:0:
448,192,40360,1,0,0:0:0:0:
192,192,40360,1,0,0:0:0:0:
64,192,40360,1,0,0:0:0:0:
448,192,40488,1,0,0:0:0:0:
448,192,40617,1,0,0:0:0:0:
448,192,40745,1,0,0:0:0:0:
448,192,40873,1,0,0:0:0:0:
448,192,41002,1,0,0:0:0:0:
448,192,41130,1,0,0:0:0:0:
448,192,41259,1,0,0:0:0:0:
448,192,41387,1,0,0:0:0:0:
448,192,41516,1,0,0:0:0:0:
448,192,41644,1,0,0:0:0:0:
320,192,41644,1,0,0:0:0:0:
448,192,41772,1,0,0:0:0:0:
448,192,41901,1,0,0:0:0:0:
448,192,42029,1,0,0:0:0:0:
448,192,42158,1,0,0:0:0:0:
64,192,42158,1,0,0:0:0:0:
448,192,42286,1,0,0:0:0:0:
448,192,42415,1,0,0:0:0:0:
192,192,42415,1,0,0:0:0:0:
320,192,42415,1,0,0:0:0:0:
448,192,42543,1,0,0:0:0:0:
448,192,42671,1,0,0:0:0:0:
448,192,42800,1,0,0:0:0:0:
448,192,42928,1,0,0:0:0:0:
320,192,42928,1,0,0:0:0:0:
448,192,43057,1,0,0:0:0:0:
448,192,43185,1,0,0:0:0:0:
448,192,43314,1,0,0:0:0:0:
448,192,43442,1,0,0:0:0:0:
192,192,43442,1,0,0:0:0:0:
448,192,43570,1,0,0:0:0:0:
64,192,43699,1,0,0:0:0:0:
448,192,43699,1,0,0:0:0:0:
448,192,43827,1,0,0:0:0:0:
320,192,43956,1,0,0:0:0:0:
448,192,43956,1,0,0:0:0:0:
448,192,44084,1,0,0:0:0:0:
448,192,44213,1,0,0:0:0:0:
448,192,44341,1,0,0:0:0:0:
448,192,44469,1,0,0:0:0:0:
320,192,44469,1,0,0:0:0:0:
64,192,44469,1,0,0:0:0:0:
448,192,44598,1,0,0:0:0:0:
448,192,44726,1,0,0:0:0:0:
448,192,44855,1,0,0:0:0:0:
448,192,44983,1,0,0:0:0:0:
448,192,45112,1,0,0:0:0:0:
448,192,45240,1,0,0:0:0:0:
448,192,45368,1,0,0:0:0:0:
448,192,45497,1,0,0:0:0:0:
448,192,45625,1,0,0:0:0:0:
448,192,45754,1,0,0:0:0:0:
192,192,45754,1,0,0:0:0:0:
448,192,45882,1,0,0:0:0:0:
448,192,46010,1,0,0:0:0:0:
448,192,46139,1,0,0:0:0:0:
448,192,46267,1,0,0:0:0:0:
192,192,46267,1,0,0:0:0:0:
448,192,46396,1,0,0:0:0:0:
448,192,46524,1,0,0:0:0:0:
64,192,46524,1,0,0:0:0:0:
320,192,46524,1,0,0:0:0:0:
448,192,46653,1,0,0:0:0:0:
448,192,46781,1,0,0:0:0:0:
448,192,46909,1,0,0:0:0:0:
448,192,47038,1,0,0:0:0:0:
448,192,47166,1,0,0:0:0:0:
448,192,47295,1,0,0:0:0:0:
448,192,47423,1,0,0:0:0:0:
448,192,47552,1,0,0:0:0:0:
448,192,47680,1,0,0:0:0:0:
448,192,47808,1,0,0:0:0:0:
320,192,47808,1,0,0:0:0:0:
448,192,47937,1,0,0:0:0:0:
448,192,48065,1,0,0:0:0:0:
448,192,48194,1,0,0:0:0:0:
192,192,48322,1,0,0:0:0:0:
448,192,48322,1,0,0:0:0:0:
448,192,48451,1,0,0:0:0:0:
64,192,48579,1,0,0:0:0:0:
192,192,48579,1,0,0:0:0:0:
448,192,48579,1,0,0:0:0:0:
448,192,48707,1,0,0:0:0:0:
448,192,48836,1,0,0:0:0:0:
448,192,48964,1,0,0:0:0:0:
448,192,49093,1,0,0:0:0:0:
448,192,49221,1,0,0:0:0:0:
448,192,49350,1,0,0:0:0:0:
448,192,49478,1,0,0:0:0:0:
448,192,49606,1,0,0:0:0:0:
320,192,49606,1,0,0:0:0:0:
192,192,49606,1,0,0:0:0:0:
448,192,49735,1,0,0:0:0:0:
448,192,49863,1,0,0:0:0:0:
448,192,49992,1,0,0:0:0:0:
448,192,50120,1,0,0:0:0:0:
448,192,50248,1,0,0:0:0:0:
448,192,50377,1,0,0:0:0:0:
320,192,50377,1,0,0:0:0:0:
448,192,50505,1,0,0:0:0:0:
192,192,50505,1,0,0:0:0:0:
448,192,50634,1,0,0:0:0:0:
64,192,50634,1,0,0:0:0:0:
448,192,50762,1,0,0:0:0:0:
192,192,50762,1,0,0:0:0:0:
448,192,50891,1,0,0:0:0:0:
320,192,50891,1,0,0:0:0:0:
448,192,51019,1,0,0:0:0:0:
192,192,51019,1,0,0:0:0:0:
448,192,51147,1,0,0:0:0:0:
64,192,51147,1,0,0:0:0:0:
448,192,51276,1,0,0:0:0:0:
192,192,51276,1,0,0:0:0:0:
448,192,51404,1,0,0:0:0:0:
320,192,51404,1,0,0:0:0:0:
448,192,51533,1,0,0:0:0:0:
192,192,51533,1,0,0:0:0:0:
448,192,51661,1,0,0:0:0:0:
64,192,51661,1,0,0:0:0:0:
448,192,51790,1,0,0:0:0:0:
192,192,51790,1,0,0:0:0:0:
448,192,51918,1,0,0:0:0:0:
320,192,51918,1,0,0:0:0:0:
448,192,52046,1,0,0:0:0:0:
192,192,52046,1,0,0:0:0:0:
448,192,52175,1,0,0:0:0:0:
64,192,52175,1,0,0:0:0:0:
448,192,52303,1,0,0:0:0:0:
192,192,52303,1,0,0:0:0:0:
448,192,52432,1,0,0:0:0:0:
320,192,52432,1,0,0:0:0:0:
448,192,52560,1,0,0:0:0:0:
192,192,52560,1,0,0:0:0:0:
448,192,52689,1,0,0:0:0:0:
64,192,52689,1,0,0:0:0:0:
64,192,52817,1,0,0:0:0:0:
64,192,52945,1,0,0:0:0:0:
64,192,53074,1,0,0:0:0:0:
64,192,53202,1,0,0:0:0:0:
64,192,53331,1,0,0:0:0:0:
64,192,53459,1,0,0:0:0:0:
64,192,53588,1,0,0:0:0:0:
64,192,53716,1,0,0:0:0:0:
64,192,53844,1,0,0:0:0:0:
64,192,53973,1,0,0:0:0:0:
192,192,53973,1,0,0:0:0:0:
64,192,54101,1,0,0:0:0:0:
64,192,54230,1,0,0:0:0:0:
64,192,54358,1,0,0:0:0:0:
64,192,54487,1,0,0:0:0:0:
192,192,54487,1,0,0:0:0:0:
64,192,54615,1,0,0:0:0:0:
64,192,54743,1,0,0:0:0:0:
192,192,54743,1,0,0:0:0:0:
320,192,54743,1,0,0:0:0:0:
64,192,54872,1,0,0:0:0:0:
64,192,55000,1,0,0:0:0:0:
64,192,55129,1,0,0:0:0:0:
64,192,55257,1,0,0:0:0:0:
64,192,55385,1,0,0:0:0:0:
64,192,55514,1,0,0:0:0:0:
64,192,55642,1,0,0:0:0:0:
64,192,55771,1,0,0:0:0:0:
64,192,55899,1,0,0:0:0:0:
64,192,56028,1,0,0:0:0:0:
320,192,56028,1,0,0:0:0:0:
64,192,56156,1,0,0:0:0:0:
64,192,56284,1,0,0:0:0:0:
64,192,56413,1,0,0:0:0:0:
64,192,56541,1,0,0:0:0:0:
320,192,56541,1,0,0:0:0:0:
64,192,56670,1,0,0:0:0:0:
64,192,56798,1,0,0:0:0:0:
448,192,56798,1,0,0:0:0:0:
192,192,56798,1,0,0:0:0:0:
64,192,56927,1,0,0:0:0:0:
64,192,57055,1,0,0:0:0:0:
64,192,57183,1,0,0:0:0:0:
64,192,57312,1,0,0:0:0:0:
64,192,57440,1,0,0:0:0:0:
64,192,57569,1,0,0:0:0:0:
64,192,57697,1,0,0:0:0:0:
64,192,57826,1,0,0:0:0:0:
64,192,57954,1,0,0:0:0:0:
64,192,58082,1,0,0:0:0:0:
448,192,58082,1,0,0:0:0:0:
64,192,58211,1,0,0:0:0:0:
64,192,58339,1,0,0:0:0:0:
64,192,58468,1,0,0:0:0:0:
64,192,58596,1,0,0:0:0:0:
448,192,58596,1,0,0:0:0:0:
64,192,58725,1,0,0:0:0:0:
64,192,58853,1,0,0:0:0:0:
448,192,58853,1,0,0:0:0:0:
320,192,58853,1,0,0:0:0:0:
64,192,58981,1,0,0:0:0:0:
64,192,59110,1,0,0:0:0:0:
64,192,59238,1,0,0:0:0:0:
64,192,59367,1,0,0:0:0:0:
448,192,59367,1,0,0:0:0:0:
192,192,59367,1,0,0:0:0:0:
64,192,59495,1,0,0:0:0:0:
64,192,59623,1,0,0:0:0:0:
64,192,59752,1,0,0:0:0:0:
64,192,59880,1,0,0:0:0:0:
320,192,59880,1,0,0:0:0:0:
192,192,59880,1,0,0:0:0:0:
64,192,60009,1,0,0:0:0:0:
64,192,60137,1,0,0:0:0:0:
448,192,60137,1,0,0:0:0:0:
64,192,60266,1,0,0:0:0:0:
64,192,60394,1,0,0:0:0:0:
64,192,60522,1,0,0:0:0:0:
64,192,60651,1,0,0:0:0:0:
64,192,60779,1,0,0:0:0:0:
192,192,60908,1,0,0:0:0:0:
64,192,60908,1,0,0:0:0:0:
192,192,61036,1,0,0:0:0:0:
192,192,61165,1,0,0:0:0:0:
192,192,61293,1,0,0:0:0:0:
192,192,61421,1,0,0:0:0:0:
192,192,61550,1,0,0:0:0:0:
192,192,61678,1,0,0:0:0:0:
192,192,61807,1,0,0:0:0:0:
192,192,61935,1,0,0:0:0:0:
192,192,62064,1,0,0:0:0:0:
192,192,62192,1,0,0:0:0:0:
448,192,62192,1,0,0:0:0:0:
192,192,62320,1,0,0:0:0:0:
192,192,62449,1,0,0:0:0:0:
192,192,62577,1,0,0:0:0:0:
192,192,62706,1,0,0:0:0:0:
448,192,62706,1,0,0:0:0:0:
192,192,62834,1,0,0:0:0:0:
192,192,62963,1,0,0:0:0:0:
448,192,62963,1,0,0:0:0:0:
64,192,62963,1,0,0:0:0:0:
192,192,63091,1,0,0:0:0:0:
192,192,63219,1,0,0:0:0:0:
192,192,63348,1,0,0:0:0:0:
192,192,63476,1,0,0:0:0:0:
192,192,63605,1,0,0:0:0:0:
192,192,63733,1,0,0:0:0:0:
192,192,63862,1,0,0:0:0:0:
192,192,63990,1,0,0:0:0:0:
192,192,64118,1,0,0:0:0:0:
192,192,64247,1,0,0:0:0:0:
448,192,64247,1,0,0:0:0:0:
192,192,64375,1,0,0:0:0:0:
192,192,64504,1,0,0:0:0:0:
192,192,64632,1,0,0:0:0:0:
192,192,64760,1,0,0:0:0:0:
448,192,64760,1,0,0:0:0:0:
192,192,64889,1,0,0:0:0:0:
192,192,65017,1,0,0:0:0:0:
64,192,65017,1,0,0:0:0:0:
448,192,65017,1,0,0:0:0:0:
192,192,65146,1,0,0:0:0:0:
192,192,65274,1,0,0:0:0:0:
192,192,65403,1,0,0:0:0:0:
192,192,65531,1,0,0:0:0:0:
192,192,65659,1,0,0:0:0:0:
192,192,65788,1,0,0:0:0:0:
192,192,65916,1,0,0:0:0:0:
192,192,66045,1,0,0:0:0:0:
448,192,66045,1,0,0:0:0:0:
64,192,66045,1,0,0:0:0:0:
192,192,66173,1,0,0:0:0:0:
192,192,66302,1,0,0:0:0:0:
192,192,66430,1,0,0:0:0:0:
192,192,66558,1,0,0:0:0:0:
192,192,66687,1,0,0:0:0:0:
192,192,66815,1,0,0:0:0:0:
448,192,66815,1,0,0:0:0:0:
192,192,66944,1,0,0:0:0:0:
320,192,66944,1,0,0:0:0:0:
192,192,67072,1,0,0:0:0:0:
64,192,67072,1,0,0:0:0:0:
192,192,67201,1,0,0:0:0:0:
320,192,67201,1,0,0:0:0:0:
192,192,67329,1,0,0:0:0:0:
448,192,67329,1,0,0:0:0:0:
192,192,67457,1,0,0:0:0:0:
320,192,67457,1,0,0:0:0:0:
192,192,67586,1,0,0:0:0:0:
64,192,67586,1,0,0:0:0:0:
192,192,67714,1,0,0:0:0:0:
320,192,67714,1,0,0:0:0:0:
192,192,67843,1,0,0:0:0:0:
448,192,67843,1,0,0:0:0:0:
192,192,67971,1,0,0:0:0:0:
320,192,67971,1,0,0:0:0:0:
192,192,68100,1,0,0:0:0:0:
64,192,68100,1,0,0:0:0:0:
192,192,68228,1,0,0:0:0:0:
320,192,68228,1,0,0:0:0:0:
192,192,68356,1,0,0:0:0:0:
448,192,68356,1,0,0:0:0:0:
192,192,68485,1,0,0:0:0:0:
320,192,68485,1,0,0:0:0:0:
192,192,68613,1,0,0:0:0:0:
64,192,68613,1,0,0:0:0:0:
192,192,68742,1,0,0:0:0:0:
320,192,68742,1,0,0:0:0:0:
192,192,68870,1,0,0:0:0:0:
448,192,68870,1,0,0:0:0:0:
192,192,68998,1,0,0:0:0:0:
320,192,68998,1,0,0:0:0:0:
64,192,69127,1,0,0:0:0:0:
448,192,69127,1,0,0:0:0:0:
192,192,69127,1,0,0:0:0:0:
320,192,69127,1,0,0:0:0:0:
192,192,69384,1,0,0:0:0:0:
192,192,69512,1,0,0:0:0:0:
192,192,69641,1,0,0:0:0:0:
320,192,69641,1,0,0:0:0:0:
448,192,69641,1,0,0:0:0:0:
64,192,69641,1,0,0:0:0:0:
448,192,69769,1,0,0:0:0:0:
448,192,70026,1,0,0:0:0:0:
320,192,70154,1,0,0:0:0:0:
192,192,70154,1,0,0:0:0:0:
64,192,70154,1,0,0:0:0:0:
448,192,70154,1,0,0:0:0:0:
448,192,70283,1,0,0:0:0:0:
448,192,70540,1,0,0:0:0:0:
448,192,70668,1,0,0:0:0:0:
64,192,70668,1,0,0:0:0:0:
320,192,70668,1,0,0:0:0:0:
192,192,70668,1,0,0:0:0:0:
64,192,70796,1,0,0:0:0:0:
448,192,70925,1,0,0:0:0:0:
448,192,71053,1,0,0:0:0:0:
448,192,71182,1,0,0:0:0:0:
320,192,71182,1,0,0:0:0:0:
192,192,71182,1,0,0:0:0:0:
64,192,71182,1,0,0:0:0:0:
192,192,71439,1,0,0:0:0:0:
192,192,71567,1,0,0:0:0:0:
192,192,71695,1,0,0:0:0:0:
64,192,71695,1,0,0:0:0:0:
320,192,71695,1,0,0:0:0:0:
448,192,71695,1,0,0:0:0:0:
64,192,71824,1,0,0:0:0:0:
192,192,72081,1,0,0:0:0:0:
64,192,72209,1,0,0:0:0:0:
192,192,72209,1,0,0:0:0:0:
320,192,72209,1,0,0:0:0:0:
448,192,72209,1,0,0:0:0:0:
320,192,72338,1,0,0:0:0:0:
448,192,72594,1,0,0:0:0:0:
192,192,72723,1,0,0:0:0:0:
320,192,72723,1,0,0:0:0:0:
64,192,72723,1,0,0:0:0:0:
448,192,72723,1,0,0:0:0:0:
192,192,72851,1,0,0:0:0:0:
320,192,72980,1,0,0:0:0:0:
320,192,73108,1,0,0:0:0:0:
320,192,73237,1,0,0:0:0:0:
192,192,73237,1,0,0:0:0:0:
448,192,73237,1,0,0:0:0:0:
64,192,73237,1,0,0:0:0:0:
320,192,73493,1,0,0:0:0:0:
320,192,73622,1,0,0:0:0:0:
320,192,73750,1,0,0:0:0:0:
192,192,73750,1,0,0:0:0:0:
64,192,73750,1,0,0:0:0:0:
448,192,73750,1,0,0:0:0:0:
320,192,73879,1,0,0:0:0:0:
320,192,74135,1,0,0:0:0:0:
320,192,74264,1,0,0:0:0:0:
448,192,74264,1,0,0:0:0:0:
192,192,74264,1,0,0:0:0:0:
64,192,74264,1,0,0:0:0:0:
448,192,74392,1,0,0:0:0:0:
320,192,74521,1,0,0:0:0:0:
320,192,74649,1,0,0:0:0:0:
192,192,74778,1,0,0:0:0:0:
448,192,74778,1,0,0:0:0:0:
64,192,74778,1,0,0:0:0:0:
320,192,74778,1,0,0:0:0:0:
192,192,74906,1,0,0:0:0:0:
64,192,75034,1,0,0:0:0:0:
64,192,75163,1,0,0:0:0:0:
192,192,75291,1,0,0:0:0:0:
448,192,75291,1,0,0:0:0:0:
320,192,75291,1,0,0:0:0:0:
64,192,75291,1,0,0:0:0:0:
192,192,75548,1,0,0:0:0:0:
192,192,75677,1,0,0:0:0:0:
192,192,75805,1,0,0:0:0:0:
64,192,75805,1,0,0:0:0:0:
448,192,75805,1,0,0:0:0:0:
320,192,75805,1,0,0:0:0:0:
192,192,75933,1,0,0:0:0:0:
448,192,76190,1,0,0:0:0:0:
192,192,76319,1,0,0:0:0:0:
64,192,76319,1,0,0:0:0:0:
320,192,76319,1,0,0:0:0:0:
448,192,76319,1,0,0:0:0:0:
320,192,76447,1,0,0:0:0:0:
192,192,76704,1,0,0:0:0:0:
192,192,76832,1,0,0:0:0:0:
64,192,76832,1,0,0:0:0:0:
448,192,76832,1,0,0:0:0:0:
320,192,76832,1,0,0:0:0:0:
64,192,77089,1,0,0:0:0:0:
64,192,77218,1,0,0:0:0:0:
448,192,77346,1,0,0:0:0:0:
64,192,77346,1,0,0:0:0:0:
320,192,77346,1,0,0:0:0:0:
192,192,77346,1,0,0:0:0:0:
320,192,77603,1,0,0:0:0:0:
320,192,77731,1,0,0:0:0:0:
320,192,77860,1,0,0:0:0:0:
192,192,77860,1,0,0:0:0:0:
64,192,77860,1,0,0:0:0:0:
448,192,77860,1,0,0:0:0:0:
64,192,77988,1,0,0:0:0:0:
64,192,78245,1,0,0:0:0:0:
192,192,78373,1,0,0:0:0:0:
320,192,78373,1,0,0:0:0:0:
448,192,78373,1,0,0:0:0:0:
64,192,78373,1,0,0:0:0:0:
64,192,78502,1,0,0:0:0:0:
64,192,78759,1,0,0:0:0:0:
64,192,78887,1,0,0:0:0:0:
448,192,78887,1,0,0:0:0:0:
192,192,78887,1,0,0:0:0:0:
320,192,78887,1,0,0:0:0:0:
448,192,79016,1,0,0:0:0:0:
64,192,79144,1,0,0:0:0:0:
64,192,79272,1,0,0:0:0:0:
64,192,79401,1,0,0:0:0:0:
192,192,79401,1,0,0:0:0:0:
320,192,79401,1,0,0:0:0:0:
448,192,79401,1,0,0:0:0:0:
320,192,79658,1,0,0:0:0:0:
320,192,79786,1,0,0:0:0:0:
320,192,79915,1,0,0:0:0:0:
448,192,79915,1,0,0:0:0:0:
192,192,79915,1,0,0:0:0:0:
64,192,79915,1,0,0:0:0:0:
448,192,80043,1,0,0:0:0:0:
320,192,80300,1,0,0:0:0:0:
448,192,80428,1,0,0:0:0:0:
320,192,80428,1,0,0:0:0:0:
192,192,80428,1,0,0:0:0:0:
64,192,80428,1,0,0:0:0:0:
192,192,80557,1,0,0:0:0:0:
64,192,80814,1,0,0:0:0:0:
320,192,80942,1,0,0:0:0:0:
192,192,80942,1,0,0:0:0:0:
448,192,80942,1,0,0:0:0:0:
64,192,80942,1,0,0:0:0:0:
320,192,81070,1,0,0:0:0:0:
192,192,81199,1,0,0:0:0:0:
192,192,81327,1,0,0:0:0:0:
192,192,81456,1,0,0:0:0:0:
320,192,81456,1,0,0:0:0:0:
64,192,81456,1,0,0:0:0:0:
448,192,81456,1,0,0:0:0:0:
192,192,81713,1,0,0:0:0:0:
192,192,81841,1,0,0:0:0:0:
192,192,81969,1,0,0:0:0:0:
320,192,81969,1,0,0:0:0:0:
448,192,81969,1,0,0:0:0:0:
64,192,81969,1,0,0:0:0:0:
192,192,82098,1,0,0:0:0:0:
192,192,82355,1,0,0:0:0:0:
192,192,82483,1,0,0:0:0:0:
64,192,82483,1,0,0:0:0:0:
320,192,82483,1,0,0:0:0:0:
448,192,82483,1,0,0:0:0:0:
64,192,82612,1,0,0:0:0:0:
192,192,82740,1,0,0:0:0:0:
192,192,82868,1,0,0:0:0:0:
320,192,82997,1,0,0:0:0:0:
64,192,82997,1,0,0:0:0:0:
448,192,82997,1,0,0:0:0:0:
192,192,82997,1,0,0:0:0:0:
320,192,83125,1,0,0:0:0:0:
448,192,83254,1,0,0:0:0:0:
448,192,83382,1,0,0:0:0:0:
320,192,83510,1,0,0:0:0:0:
64,192,83510,1,0,0:0:0:0:
192,192,83510,1,0,0:0:0:0:
448,192,83510,1,0,0:0:0:0:
320,192,83767,1,0,0:0:0:0:
320,192,83896,1,0,0:0:0:0:
320,192,84024,1,0,0:0:0:0:
448,192,84024,1,0,0:0:0:0:
64,192,84024,1,0,0:0:0:0:
192,192,84024,1,0,0:0:0:0:
320,192,84153,1,0,0:0:0:0:
64,192,84409,1,0,0:0:0:0:
320,192,84538,1,0,0:0:0:0:
448,192,84538,1,0,0:0:0:0:
192,192,84538,1,0,0:0:0:0:
64,192,84538,1,0,0:0:0:0:
192,192,84666,1,0,0:0:0:0:
320,192,84923,1,0,0:0:0:0:
320,192,85052,1,0,0:0:0:0:
448,192,85052,1,0,0:0:0:0:
64,192,85052,1,0,0:0:0:0:
192,192,85052,1,0,0:0:0:0:
448,192,85308,1,0,0:0:0:0:
448,192,85437,1,0,0:0:0:0:
192,192,85565,1,0,0:0:0:0:
448,192,85565,1,0,0:0:0:0:
64,192,85565,1,0,0:0:0:0:
320,192,85565,1,0,0:0:0:0:
192,192,85822,1,0,0:0:0:0:
192,192,85951,1,0,0:0:0:0:
448,192,86079,1,0,0:0:0:0:
320,192,86079,1,0,0:0:0:0:
192,192,86079,1,0,0:0:0:0:
64,192,86079,1,0,0:0:0:0:
448,192,86207,1,0,0:0:0:0:
448,192,86464,1,0,0:0:0:0:
64,192,86593,1,0,0:0:0:0:
192,192,86593,1,0,0:0:0:0:
320,192,86593,1,0,0:0:0:0:
448,192,86593,1,0,0:0:0:0:
448,192,86721,1,0,0:0:0:0:
448,192,86978,1,0,0:0:0:0:
320,192,87106,1,0,0:0:0:0:
64,192,87106,1,0,0:0:0:0:
448,192,87106,1,0,0:0:0:0:
192,192,87106,1,0,0:0:0:0:
64,192,87235,1,0,0:0:0:0:
448,192,87363,1,0,0:0:0:0:
448,192,87492,1,0,0:0:0:0:
192,192,87620,1,0,0:0:0:0:
320,192,87620,1,0,0:0:0:0:
448,192,87620,1,0,0:0:0:0:
64,192,87620,1,0,0:0:0:0:
192,192,87877,1,0,0:0:0:0:
192,192,88005,1,0,0:0:0:0:
320,192,88134,1,0,0:0:0:0:
64,192,88134,1,0,0:0:0:0:
192,192,88134,1,0,0:0:0:0:
448,192,88134,1,0,0:0:0:0:
64,192,88262,1,0,0:0:0:0:
192,192,88519,1,0,0:0:0:0:
320,192,88647,1,0,0:0:0:0:
192,192,88647,1,0,0:0:0:0:
64,192,88647,1,0,0:0:0:0:
448,192,88647,1,0,0:0:0:0:
320,192,88776,1,0,0:0:0:0:
448,192,89033,1,0,0:0:0:0:
64,192,89161,1,0,0:0:0:0:
320,192,89161,1,0,0:0:0:0:
192,192,89161,1,0,0:0:0:0:
448,192,89161,1,0,0:0:0:0:
192,192,89290,1,0,0:0:0:0:
320,192,89418,1,0,0:0:0:0:
320,192,89546,1,0,0:0:0:0:
448,192,89675,1,0,0:0:0:0:
192,192,89675,1,0,0:0:0:0:
320,192,89675,1,0,0:0:0:0:
64,192,89675,1,0,0:0:0:0:
320,192,89932,1,0,0:0:0:0:
320,192,90060,1,0,0:0:0:0:
64,192,90189,1,0,0:0:0:0:
192,192,90189,1,0,0:0:0:0:
320,192,90189,1,0,0:0:0:0:
448,192,90189,1,0,0:0:0:0:
320,192,90317,1,0,0:0:0:0:
320,192,90574,1,0,0:0:0:0:
192,192,90702,1,0,0:0:0:0:
448,192,90702,1,0,0:0:0:0:
320,192,90702,1,0,0:0:0:0:
64,192,90702,1,0,0:0:0:0:
448,192,90831,1,0,0:0:0:0:
320,192,90959,1,0,0:0:0:0:
320,192,91088,1,0,0:0:0:0:
64,192,91216,1,0,0:0:0:0:
448,192,91216,1,0,0:0:0:0:
192,192,91216,1,0,0:0:0:0:
320,192,91216,1,0,0:0:0:0:
192,192,91344,1,0,0:0:0:0:
64,192,91473,1,0,0:0:0:0:
64,192,91601,1,0,0:0:0:0:
320,192,91730,1,0,0:0:0:0:
448,192,91730,1,0,0:0:0:0:
192,192,91730,1,0,0:0:0:0:
64,192,91730,1,0,0:0:0:0:
192,192,91987,1,0,0:0:0:0:
192,192,92115,1,0,0:0:0:0:
448,192,92243,1,0,0:0:0:0:
64,192,92243,1,0,0:0:0:0:
192,192,92243,1,0,0:0:0:0:
320,192,92243,1,0,0:0:0:0:
192,192,92372,1,0,0:0:0:0:
448,192,92629,1,0,0:0:0:0:
320,192,92757,1,0,0:0:0:0:
64,192,92757,1,0,0:0:0:0:
192,192,92757,1,0,0:0:0:0:
448,192,92757,1,0,0:0:0:0:
320,192,92885,1,0,0:0:0:0:
192,192,93142,1,0,0:0:0:0:
448,192,93271,1,0,0:0:0:0:
64,192,93271,1,0,0:0:0:0:
192,192,93271,1,0,0:0:0:0:
320,192,93271,1,0,0:0:0:0:
64,192,93528,1,0,0:0:0:0:
64,192,93656,1,0,0:0:0:0:
448,192,93784,1,0,0:0:0:0:
64,192,93784,1,0,0:0:0:0:
320,192,93784,1,0,0:0:0:0:
192,192,93784,1,0,0:0:0:0:
320,192,94041,1,0,0:0:0:0:
320,192,94170,1,0,0:0:0:0:
320,192,94298,1,0,0:0:0:0:
192,192,94298,1,0,0:0:0:0:
64,192,94298,1,0,0:0:0:0:
448,192,94298,1,0,0:0:0:0:
64,192,94427,1,0,0:0:0:0:
64,192,94683,1,0,0:0:0:0:
192,192,94812,1,0,0:0:0:0:
320,192,94812,1,0,0:0:0:0:
448,192,94812,1,0,0:0:0:0:
64,192,94812,1,0,0:0:0:0:
64,192,94940,1,0,0:0:0:0:
64,192,95197,1,0,0:0:0:0:
64,192,95326,1,0,0:0:0:0:
448,192,95326,1,0,0:0:0:0:
192,192,95326,1,0,0:0:0:0:
320,192,95326,1,0,0:0:0:0:
448,192,95454,1,0,0:0:0:0:
64,192,95582,1,0,0:0:0:0:
64,192,95711,1,0,0:0:0:0:
64,192,95839,1,0,0:0:0:0:
192,192,95839,1,0,0:0:0:0:
320,192,95839,1,0,0:0:0:0:
448,192,95839,1,0,0:0:0:0:
320,192,96096,1,0,0:0:0:0:
320,192,96225,1,0,0:0:0:0:
320,192,96353,1,0,0:0:0:0:
448,192,96353,1,0,0:0:0:0:
192,192,96353,1,0,0:0:0:0:
64,192,96353,1,0,0:0:0:0:
448,192,96481,1,0,0:0:0:0:
320,192,96738,1,0,0:0:0:0:
448,192,96867,1,0,0:0:0:0:
320,192,96867,1,0,0:0:0:0:
192,192,96867,1,0,0:0:0:0:
64,192,96867,1,0,0:0:0:0:
192,192,96995,1,0,0:0:0:0:
64,192,97252,1,0,0:0:0:0:
320,192,97380,1,0,0:0:0:0:
192,192,97380,1,0,0:0:0:0:
448,192,97380,1,0,0:0:0:0:
64,192,97380,1,0,0:0:0:0:
320,192,97509,1,0,0:0:0:0:
192,192,97637,1,0,0:0:0:0:
192,192,97766,1,0,0:0:0:0:
192,192,97894,1,0,0:0:0:0:
320,192,97894,1,0,0:0:0:0:
64,192,97894,1,0,0:0:0:0:
448,192,97894,1,0,0:0:0:0:
192,192,98151,1,0,0:0:0:0:
192,192,98279,1,0,0:0:0:0:
192,192,98408,1,0,0:0:0:0:
320,192,98408,1,0,0:0:0:0:
448,192,98408,1,0,0:0:0:0:
64,192,98408,1,0,0:0:0:0:
192,192,98536,1,0,0:0:0:0:
192,192,98793,1,0,0:0:0:0:
192,192,98921,1,0,0:0:0:0:
64,192,98921,1,0,0:0:0:0:
320,192,98921,1,0,0:0:0:0:
448,192,98921,1,0,0:0:0:0:
64,192,99050,1,0,0:0:0:0:
192,192,99178,1,0,0:0:0:0:
192,192,99307,1,0,0:0:0:0:
320,192,99435,1,0,0:0:0:0:
64,192,99435,1,0,0:0:0:0:
448,192,99435,1,0,0:0:0:0:
192,192,99435,1,0,0:0:0:0:
320,192,99564,1,0,0:0:0:0:
448,192,99692,1,0,0:0:0:0:
448,192,99820,1,0,0:0:0:0:
320,192,99949,1,0,0:0:0:0:
64,192,99949,1,0,0:0:0:0:
192,192,99949,1,0,0:0:0:0:
448,192,99949,1,0,0:0:0:0:
320,192,100206,1,0,0:0:0:0:
320,192,100334,1,0,0:0:0:0:
320,192,100463,1,0,0:0:0:0:
448,192,100463,1,0,0:0:0:0:
64,192,100463,1,0,0:0:0:0:
192,192,100463,1,0,0:0:0:0:
320,192,100591,1,0,0:0:0:0:
64,192,100848,1,0,0:0:0:0:
320,192,100976,1,0,0:0:0:0:
448,192,100976,1,0,0:0:0:0:
192,192,100976,1,0,0:0:0:0:
64,192,100976,1,0,0:0:0:0:
192,192,101105,1,0,0:0:0:0:
320,192,101362,1,0,0:0:0:0:
320,192,101490,1,0,0:0:0:0:
448,192,101490,1,0,0:0:0:0:
64,192,101490,1,0,0:0:0:0:
192,192,101490,1,0,0:0:0:0:
448,192,101747,1,0,0:0:0:0:
448,192,101875,1,0,0:0:0:0:
448,192,102004,1,0,0:0:0:0:
64,192,102004,1,0,0:0:0:0:
320,192,102004,1,0,0:0:0:0:
192,192,102004,1,0,0:0:0:0:
64,192,102132,1,0,0:0:0:0:
64,192,102260,1,0,0:0:0:0:
64,192,102389,1,0,0:0:0:0:
64,192,102517,1,0,0:0:0:0:
320,192,102517,1,0,0:0:0:0:
64,192,102646,1,0,0:0:0:0:
64,192,102774,1,0,0:0:0:0:
64,192,102903,1,0,0:0:0:0:
64,192,103031,1,0,0:0:0:0:
448,192,103031,1,0,0:0:0:0:
64,192,103159,1,0,0:0:0:0:
64,192,103288,1,0,0:0:0:0:
64,192,103416,1,0,0:0:0:0:
64,192,103545,1,0,0:0:0:0:
448,192,103545,1,0,0:0:0:0:
64,192,103673,1,0,0:0:0:0:
64,192,103802,1,0,0:0:0:0:
192,192,103802,1,0,0:0:0:0:
64,192,103930,1,0,0:0:0:0:
64,192,104058,1,0,0:0:0:0:
64,192,104187,1,0,0:0:0:0:
64,192,104315,1,0,0:0:0:0:
192,192,104315,1,0,0:0:0:0:
64,192,104444,1,0,0:0:0:0:
64,192,104572,1,0,0:0:0:0:
64,192,104701,1,0,0:0:0:0:
64,192,104829,1,0,0:0:0:0:
192,192,104829,1,0,0:0:0:0:
64,192,104957,1,0,0:0:0:0:
64,192,105086,1,0,0:0:0:0:
320,192,105086,1,0,0:0:0:0:
64,192,105214,1,0,0:0:0:0:
64,192,105343,1,0,0:0:0:0:
448,192,105343,1,0,0:0:0:0:
64,192,105471,1,0,0:0:0:0:
64,192,105600,1,0,0:0:0:0:
320,192,105600,1,0,0:0:0:0:
64,192,105728,1,0,0:0:0:0:
64,192,105856,1,0,0:0:0:0:
64,192,105985,1,0,0:0:0:0:
64,192,106113,1,0,0:0:0:0:
320,192,106113,1,0,0:0:0:0:
192,192,106113,1,0,0:0:0:0:
320,192,106242,1,0,0:0:0:0:
320,192,106370,1,0,0:0:0:0:
320,192,106498,1,0,0:0:0:0:
320,192,106627,1,0,0:0:0:0:
64,192,106627,1,0,0:0:0:0:
320,192,106755,1,0,0:0:0:0:
320,192,106884,1,0,0:0:0:0:
320,192,107012,1,0,0:0:0:0:
320,192,107141,1,0,0:0:0:0:
448,192,107141,1,0,0:0:0:0:
320,192,107269,1,0,0:0:0:0:
320,192,107397,1,0,0:0:0:0:
320,192,107526,1,0,0:0:0:0:
320,192,107654,1,0,0:0:0:0:
448,192,107654,1,0,0:0:0:0:
320,192,107783,1,0,0:0:0:0:
320,192,107911,1,0,0:0:0:0:
64,192,107911,1,0,0:0:0:0:
320,192,108040,1,0,0:0:0:0:
320,192,108168,1,0,0:0:0:0:
320,192,108296,1,0,0:0:0:0:
320,192,108425,1,0,0:0:0:0:
64,192,108425,1,0,0:0:0:0:
320,192,108553,1,0,0:0:0:0:
320,192,108682,1,0,0:0:0:0:
320,192,108810,1,0,0:0:0:0:
320,192,108939,1,0,0:0:0:0:
64,192,108939,1,0,0:0:0:0:
320,192,109067,1,0,0:0:0:0:
320,192,109195,1,0,0:0:0:0:
192,192,109195,1,0,0:0:0:0:
320,192,109324,1,0,0:0:0:0:
320,192,109452,1,0,0:0:0:0:
448,192,109452,1,0,0:0:0:0:
320,192,109581,1,0,0:0:0:0:
320,192,109709,1,0,0:0:0:0:
192,192,109709,1,0,0:0:0:0:
320,192,109838,1,0,0:0:0:0:
320,192,109966,1,0,0:0:0:0:
320,192,110094,1,0,0:0:0:0:
320,192,110223,1,0,0:0:0:0:
64,192,110223,1,0,0:0:0:0:
192,192,110223,1,0,0:0:0:0:
64,192,110737,1,0,0:0:0:0:
192,192,111250,1,0,0:0:0:0:
192,192,111764,1,0,0:0:0:0:
320,192,112021,1,0,0:0:0:0:
320,192,112534,5,0,0:0:0:0:
320,192,113048,1,0,0:0:0:0:
448,192,113305,1,0,0:0:0:0:
64,192,113562,1,0,0:0:0:0:
192,192,113819,1,0,0:0:0:0:
448,192,114332,1,0,0:0:0:0:
192,192,114846,1,0,0:0:0:0:
320,192,115360,1,0,0:0:0:0:
64,192,115873,1,0,0:0:0:0:
192,192,116130,1,0,0:0:0:0:
320,192,116387,1,0,0:0:0:0:
448,192,116387,1,0,0:0:0:0:
192,192,116644,1,0,0:0:0:0:
64,192,116901,1,0,0:0:0:0:
320,192,117158,1,0,0:0:0:0:
192,192,117415,1,0,0:0:0:0:
448,192,117671,1,0,0:0:0:0:
320,192,117928,1,0,0:0:0:0:
64,192,118185,1,0,0:0:0:0:
448,192,118185,1,0,0:0:0:0:
64,192,118314,1,0,0:0:0:0:
448,192,118314,1,0,0:0:0:0:
64,192,118442,1,0,0:0:0:0:
320,192,118442,1,0,0:0:0:0:
448,192,118442,1,0,0:0:0:0:
320,192,118570,1,0,0:0:0:0:
320,192,118699,1,0,0:0:0:0:
192,192,118699,1,0,0:0:0:0:
448,192,118956,1,0,0:0:0:0:
448,192,119084,1,0,0:0:0:0:
448,192,119213,1,0,0:0:0:0:
320,192,119213,1,0,0:0:0:0:
320,192,119469,1,0,0:0:0:0:
320,192,119598,1,0,0:0:0:0:
320,192,119726,1,0,0:0:0:0:
192,192,119726,1,0,0:0:0:0:
64,192,119983,1,0,0:0:0:0:
64,192,120112,1,0,0:0:0:0:
64,192,120240,1,0,0:0:0:0:
192,192,120240,1,0,0:0:0:0:
192,192,120497,1,0,0:0:0:0:
192,192,120625,1,0,0:0:0:0:
192,192,120754,1,0,0:0:0:0:
320,192,120754,1,0,0:0:0:0:
320,192,121010,1,0,0:0:0:0:
320,192,121139,1,0,0:0:0:0:
320,192,121267,1,0,0:0:0:0:
448,192,121267,1,0,0:0:0:0:
448,192,121524,1,0,0:0:0:0:
448,192,121653,1,0,0:0:0:0:
448,192,121781,1,0,0:0:0:0:
320,192,121781,1,0,0:0:0:0:
192,192,122038,1,0,0:0:0:0:
192,192,122166,1,0,0:0:0:0:
192,192,122295,1,0,0:0:0:0:
320,192,122295,1,0,0:0:0:0:
320,192,122552,1,0,0:0:0:0:
320,192,122680,1,0,0:0:0:0:
320,192,122808,1,0,0:0:0:0:
192,192,122808,1,0,0:0:0:0:
64,192,123065,1,0,0:0:0:0:
64,192,123194,1,0,0:0:0:0:
64,192,123322,1,0,0:0:0:0:
192,192,123322,1,0,0:0:0:0:
320,192,123579,1,0,0:0:0:0:
320,192,123707,1,0,0:0:0:0:
320,192,123836,1,0,0:0:0:0:
448,192,123836,1,0,0:0:0:0:
192,192,124093,1,0,0:0:0:0:
192,192,124221,1,0,0:0:0:0:
192,192,124350,1,0,0:0:0:0:
320,192,124350,1,0,0:0:0:0:
448,192,124606,1,0,0:0:0:0:
448,192,124735,1,0,0:0:0:0:
448,192,124863,1,0,0:0:0:0:
320,192,124863,1,0,0:0:0:0:
320,192,125120,1,0,0:0:0:0:
320,192,125248,1,0,0:0:0:0:
320,192,125377,1,0,0:0:0:0:
192,192,125377,1,0,0:0:0:0:
192,192,125634,1,0,0:0:0:0:
192,192,125762,1,0,0:0:0:0:
192,192,125891,1,0,0:0:0:0:
64,192,125891,1,0,0:0:0:0:
320,192,126147,1,0,0:0:0:0:
320,192,126276,1,0,0:0:0:0:
320,192,126404,1,0,0:0:0:0:
448,192,126404,1,0,0:0:0:0:
64,192,126661,1,0,0:0:0:0:
64,192,126790,1,0,0:0:0:0:
64,192,126918,1,0,0:0:0:0:
192,192,126918,1,0,0:0:0:0:
192,192,127175,1,0,0:0:0:0:
192,192,127303,1,0,0:0:0:0:
192,192,127432,1,0,0:0:0:0:
320,192,127432,1,0,0:0:0:0:
320,192,127689,1,0,0:0:0:0:
320,192,127817,1,0,0:0:0:0:
320,192,127945,1,0,0:0:0:0:
448,192,127945,1,0,0:0:0:0:
192,192,128202,1,0,0:0:0:0:
192,192,128331,1,0,0:0:0:0:
192,192,128459,1,0,0:0:0:0:
320,192,128459,1,0,0:0:0:0:
64,192,128716,1,0,0:0:0:0:
64,192,128844,1,0,0:0:0:0:
64,192,128973,1,0,0:0:0:0:
192,192,128973,1,0,0:0:0:0:
192,192,129230,1,0,0:0:0:0:
192,192,129358,1,0,0:0:0:0:
192,192,129487,1,0,0:0:0:0:
320,192,129487,1,0,0:0:0:0:
64,192,129743,1,0,0:0:0:0:
64,192,129872,1,0,0:0:0:0:
64,192,130000,1,0,0:0:0:0:
192,192,130000,1,0,0:0:0:0:
320,192,130257,1,0,0:0:0:0:
320,192,130385,1,0,0:0:0:0:
320,192,130514,1,0,0:0:0:0:
192,192,130514,1,0,0:0:0:0:
320,192,130771,1,0,0:0:0:0:
320,192,130899,1,0,0:0:0:0:
320,192,131028,1,0,0:0:0:0:
448,192,131028,1,0,0:0:0:0:
192,192,131284,1,0,0:0:0:0:
192,192,131413,1,0,0:0:0:0:
192,192,131541,1,0,0:0:0:0:
320,192,131541,1,0,0:0:0:0:
448,192,131798,1,0,0:0:0:0:
448,192,131927,1,0,0:0:0:0:
448,192,132055,1,0,0:0:0:0:
320,192,132055,1,0,0:0:0:0:
192,192,132312,1,0,0:0:0:0:
192,192,132440,1,0,0:0:0:0:
192,192,132569,1,0,0:0:0:0:
64,192,132569,1,0,0:0:0:0:
320,192,132826,1,0,0:0:0:0:
320,192,132954,1,0,0:0:0:0:
320,192,133082,1,0,0:0:0:0:
320,192,133211,1,0,0:0:0:0:
192,192,133339,1,0,0:0:0:0:
320,192,133339,1,0,0:0:0:0:
192,192,133468,1,0,0:0:0:0:
192,192,133596,1,0,0:0:0:0:
192,192,133725,1,0,0:0:0:0:
192,192,133853,1,0,0:0:0:0:
448,192,133853,1,0,0:0:0:0:
448,192,133981,1,0,0:0:0:0:
448,192,134110,1,0,0:0:0:0:
448,192,134238,1,0,0:0:0:0:
448,192,134367,1,0,0:0:0:0:
64,192,134367,1,0,0:0:0:0:
64,192,134495,1,0,0:0:0:0:
64,192,134623,1,0,0:0:0:0:
64,192,134752,1,0,0:0:0:0:
64,192,134880,1,0,0:0:0:0:
192,192,134880,1,0,0:0:0:0:
448,192,134880,1,0,0:0:0:0:
192,192,142329,5,0,0:0:0:0:
320,192,142329,1,0,0:0:0:0:
320,192,142457,1,0,0:0:0:0:
192,192,142457,1,0,0:0:0:0:
192,192,142586,1,0,0:0:0:0:
320,192,142586,1,0,0:0:0:0:
320,192,142714,1,0,0:0:0:0:
192,192,142714,1,0,0:0:0:0:
192,192,142843,1,0,0:0:0:0:
320,192,142843,1,0,0:0:0:0:
64,192,143100,1,0,0:0:0:0:
192,192,143100,1,0,0:0:0:0:
320,192,143100,1,0,0:0:0:0:
448,192,143100,1,0,0:0:0:0:
448,192,143228,1,0,0:0:0:0:
192,192,143228,1,0,0:0:0:0:
448,192,143356,1,0,0:0:0:0:
64,192,143356,1,0,0:0:0:0:
448,192,143485,1,0,0:0:0:0:
320,192,143485,1,0,0:0:0:0:
448,192,143613,1,0,0:0:0:0:
192,192,143613,1,0,0:0:0:0:
64,192,143613,1,0,0:0:0:0:
448,192,143742,1,0,0:0:0:0:
320,192,143742,1,0,0:0:0:0:
448,192,143870,1,0,0:0:0:0:
64,192,143870,1,0,0:0:0:0:
448,192,143998,1,0,0:0:0:0:
192,192,143998,1,0,0:0:0:0:
448,192,144127,1,0,0:0:0:0:
64,192,144127,1,0,0:0:0:0:
320,192,144127,1,0,0:0:0:0:
448,192,144255,1,0,0:0:0:0:
192,192,144255,1,0,0:0:0:0:
448,192,144384,1,0,0:0:0:0:
320,192,144384,1,0,0:0:0:0:
192,192,144384,1,0,0:0:0:0:
64,192,144384,1,0,0:0:0:0:
448,192,144512,1,0,0:0:0:0:
64,192,144512,1,0,0:0:0:0:
448,192,144641,1,0,0:0:0:0:
320,192,144641,1,0,0:0:0:0:
64,192,144641,1,0,0:0:0:0:
448,192,144769,1,0,0:0:0:0:
64,192,144769,1,0,0:0:0:0:
448,192,144897,1,0,0:0:0:0:
320,192,144897,1,0,0:0:0:0:
192,192,144897,1,0,0:0:0:0:
64,192,144897,1,0,0:0:0:0:
448,192,145026,1,0,0:0:0:0:
192,192,145026,1,0,0:0:0:0:
320,192,145154,1,0,0:0:0:0:
448,192,145154,1,0,0:0:0:0:
64,192,145154,1,0,0:0:0:0:
192,192,145154,1,0,0:0:0:0:
320,192,145283,1,0,0:0:0:0:
192,192,145283,1,0,0:0:0:0:
320,192,145411,1,0,0:0:0:0:
64,192,145411,1,0,0:0:0:0:
320,192,145540,1,0,0:0:0:0:
448,192,145540,1,0,0:0:0:0:
320,192,145668,1,0,0:0:0:0:
192,192,145668,1,0,0:0:0:0:
64,192,145668,1,0,0:0:0:0:
320,192,145796,1,0,0:0:0:0:
448,192,145796,1,0,0:0:0:0:
320,192,145925,1,0,0:0:0:0:
192,192,145925,1,0,0:0:0:0:
320,192,146053,1,0,0:0:0:0:
448,192,146053,1,0,0:0:0:0:
320,192,146182,1,0,0:0:0:0:
64,192,146182,1,0,0:0:0:0:
448,192,146182,1,0,0:0:0:0:
320,192,146310,1,0,0:0:0:0:
192,192,146310,1,0,0:0:0:0:
320,192,146439,1,0,0:0:0:0:
448,192,146439,1,0,0:0:0:0:
192,192,146439,1,0,0:0:0:0:
64,192,146439,1,0,0:0:0:0:
320,192,146567,1,0,0:0:0:0:
64,192,146567,1,0,0:0:0:0:
320,192,146695,1,0,0:0:0:0:
192,192,146695,1,0,0:0:0:0:
448,192,146695,1,0,0:0:0:0:
320,192,146824,1,0,0:0:0:0:
64,192,146824,1,0,0:0:0:0:
320,192,146952,1,0,0:0:0:0:
448,192,146952,1,0,0:0:0:0:
192,192,146952,1,0,0:0:0:0:
64,192,146952,1,0,0:0:0:0:
320,192,147081,1,0,0:0:0:0:
192,192,147081,1,0,0:0:0:0:
320,192,147209,1,0,0:0:0:0:
192,192,147209,1,0,0:0:0:0:
64,192,147209,1,0,0:0:0:0:
448,192,147209,1,0,0:0:0:0:
192,192,147338,1,0,0:0:0:0:
320,192,147338,1,0,0:0:0:0:
192,192,147466,1,0,0:0:0:0:
448,192,147466,1,0,0:0:0:0:
192,192,147594,1,0,0:0:0:0:
320,192,147594,1,0,0:0:0:0:
192,192,147723,1,0,0:0:0:0:
64,192,147723,1,0,0:0:0:0:
448,192,147723,1,0,0:0:0:0:
192,192,147851,1,0,0:0:0:0:
448,192,147851,1,0,0:0:0:0:
192,192,147980,1,0,0:0:0:0:
320,192,147980,1,0,0:0:0:0:
192,192,148108,1,0,0:0:0:0:
64,192,148108,1,0,0:0:0:0:
192,192,148237,1,0,0:0:0:0:
448,192,148237,1,0,0:0:0:0:
320,192,148237,1,0,0:0:0:0:
192,192,148365,1,0,0:0:0:0:
64,192,148365,1,0,0:0:0:0:
192,192,148493,1,0,0:0:0:0:
320,192,148493,1,0,0:0:0:0:
448,192,148493,1,0,0:0:0:0:
64,192,148493,1,0,0:0:0:0:
192,192,148622,1,0,0:0:0:0:
448,192,148622,1,0,0:0:0:0:
192,192,148750,1,0,0:0:0:0:
64,192,148750,1,0,0:0:0:0:
320,192,148750,1,0,0:0:0:0:
192,192,148879,1,0,0:0:0:0:
448,192,148879,1,0,0:0:0:0:
192,192,149007,1,0,0:0:0:0:
64,192,149007,1,0,0:0:0:0:
320,192,149007,1,0,0:0:0:0:
448,192,149007,1,0,0:0:0:0:
192,192,149135,1,0,0:0:0:0:
448,192,149135,1,0,0:0:0:0:
64,192,149264,1,0,0:0:0:0:
192,192,149264,1,0,0:0:0:0:
320,192,149264,1,0,0:0:0:0:
448,192,149264,1,0,0:0:0:0:
64,192,149392,1,0,0:0:0:0:
192,192,149392,1,0,0:0:0:0:
64,192,149521,1,0,0:0:0:0:
320,192,149521,1,0,0:0:0:0:
64,192,149649,1,0,0:0:0:0:
448,192,149649,1,0,0:0:0:0:
64,192,149778,1,0,0:0:0:0:
192,192,149778,1,0,0:0:0:0:
320,192,149778,1,0,0:0:0:0:
448,192,149778,1,0,0:0:0:0:
64,192,149906,1,0,0:0:0:0:
192,192,149906,1,0,0:0:0:0:
64,192,150034,1,0,0:0:0:0:
320,192,150034,1,0,0:0:0:0:
64,192,150163,1,0,0:0:0:0:
448,192,150163,1,0,0:0:0:0:
64,192,150291,1,0,0:0:0:0:
192,192,150291,1,0,0:0:0:0:
320,192,150291,1,0,0:0:0:0:
448,192,150291,1,0,0:0:0:0:
64,192,150420,1,0,0:0:0:0:
320,192,150420,1,0,0:0:0:0:
64,192,150548,1,0,0:0:0:0:
448,192,150548,1,0,0:0:0:0:
320,192,150548,1,0,0:0:0:0:
192,192,150548,1,0,0:0:0:0:
64,192,150677,1,0,0:0:0:0:
448,192,150677,1,0,0:0:0:0:
64,192,150805,1,0,0:0:0:0:
320,192,150805,1,0,0:0:0:0:
192,192,150805,1,0,0:0:0:0:
64,192,150933,1,0,0:0:0:0:
192,192,150933,1,0,0:0:0:0:
64,192,151062,1,0,0:0:0:0:
320,192,151062,1,0,0:0:0:0:
64,192,151190,1,0,0:0:0:0:
192,192,151190,1,0,0:0:0:0:
64,192,151319,1,0,0:0:0:0:
448,192,151319,1,0,0:0:0:0:
320,192,151319,1,0,0:0:0:0:
192,192,151319,1,0,0:0:0:0:
448,192,151447,1,0,0:0:0:0:
192,192,151447,1,0,0:0:0:0:
448,192,151576,1,0,0:0:0:0:
64,192,151576,1,0,0:0:0:0:
448,192,151704,1,0,0:0:0:0:
320,192,151704,1,0,0:0:0:0:
448,192,151832,1,0,0:0:0:0:
192,192,151832,1,0,0:0:0:0:
64,192,151832,1,0,0:0:0:0:
448,192,151961,1,0,0:0:0:0:
320,192,151961,1,0,0:0:0:0:
448,192,152089,1,0,0:0:0:0:
64,192,152089,1,0,0:0:0:0:
448,192,152218,1,0,0:0:0:0:
192,192,152218,1,0,0:0:0:0:
448,192,152346,1,0,0:0:0:0:
64,192,152346,1,0,0:0:0:0:
320,192,152346,1,0,0:0:0:0:
448,192,152475,1,0,0:0:0:0:
448,192,152603,1,0,0:0:0:0:
320,192,152603,1,0,0:0:0:0:
192,192,152603,1,0,0:0:0:0:
64,192,152603,1,0,0:0:0:0:
448,192,152731,1,0,0:0:0:0:
192,192,152731,1,0,0:0:0:0:
448,192,152860,1,0,0:0:0:0:
320,192,152860,1,0,0:0:0:0:
64,192,152860,1,0,0:0:0:0:
448,192,152988,1,0,0:0:0:0:
192,192,152988,1,0,0:0:0:0:
448,192,153117,1,0,0:0:0:0:
64,192,153117,1,0,0:0:0:0:
320,192,153117,1,0,0:0:0:0:
192,192,153117,1,0,0:0:0:0:
448,192,153245,1,0,0:0:0:0:
192,192,153245,1,0,0:0:0:0:
192,192,153373,1,0,0:0:0:0:
64,192,153373,1,0,0:0:0:0:
320,192,153373,1,0,0:0:0:0:
448,192,153373,1,0,0:0:0:0:
320,192,153502,1,0,0:0:0:0:
448,192,153502,1,0,0:0:0:0:
320,192,153630,1,0,0:0:0:0:
192,192,153630,1,0,0:0:0:0:
320,192,153759,1,0,0:0:0:0:
448,192,153759,1,0,0:0:0:0:
320,192,153887,1,0,0:0:0:0:
64,192,153887,1,0,0:0:0:0:
192,192,153887,1,0,0:0:0:0:
320,192,154016,1,0,0:0:0:0:
448,192,154016,1,0,0:0:0:0:
320,192,154144,1,0,0:0:0:0:
192,192,154144,1,0,0:0:0:0:
320,192,154272,1,0,0:0:0:0:
64,192,154272,1,0,0:0:0:0:
320,192,154401,1,0,0:0:0:0:
448,192,154401,1,0,0:0:0:0:
192,192,154401,1,0,0:0:0:0:
320,192,154529,1,0,0:0:0:0:
64,192,154529,1,0,0:0:0:0:
320,192,154658,1,0,0:0:0:0:
192,192,154658,1,0,0:0:0:0:
448,192,154658,1,0,0:0:0:0:
64,192,154658,1,0,0:0:0:0:
320,192,154786,1,0,0:0:0:0:
192,192,154786,1,0,0:0:0:0:
320,192,154915,1,0,0:0:0:0:
64,192,154915,1,0,0:0:0:0:
448,192,154915,1,0,0:0:0:0:
320,192,155043,1,0,0:0:0:0:
448,192,155043,1,0,0:0:0:0:
320,192,155171,1,0,0:0:0:0:
448,192,155171,1,0,0:0:0:0:
192,192,155171,1,0,0:0:0:0:
64,192,155171,1,0,0:0:0:0:
320,192,155300,1,0,0:0:0:0:
192,192,155300,1,0,0:0:0:0:
192,192,155428,1,0,0:0:0:0:
64,192,155428,1,0,0:0:0:0:
320,192,155428,1,0,0:0:0:0:
448,192,155428,1,0,0:0:0:0:
192,192,155557,1,0,0:0:0:0:
320,192,155557,1,0,0:0:0:0:
192,192,155685,1,0,0:0:0:0:
448,192,155685,1,0,0:0:0:0:
192,192,155814,1,0,0:0:0:0:
320,192,155814,1,0,0:0:0:0:
192,192,155942,1,0,0:0:0:0:
64,192,155942,1,0,0:0:0:0:
448,192,155942,1,0,0:0:0:0:
192,192,156070,1,0,0:0:0:0:
320,192,156070,1,0,0:0:0:0:
192,192,156199,1,0,0:0:0:0:
448,192,156199,1,0,0:0:0:0:
192,192,156327,1,0,0:0:0:0:
320,192,156327,1,0,0:0:0:0:
192,192,156456,1,0,0:0:0:0:
320,192,156456,1,0,0:0:0:0:
448,192,156456,1,0,0:0:0:0:
64,192,156456,1,0,0:0:0:0:
192,192,156584,1,0,0:0:0:0:
64,192,156584,1,0,0:0:0:0:
192,192,156713,1,0,0:0:0:0:
320,192,156713,1,0,0:0:0:0:
192,192,156841,1,0,0:0:0:0:
64,192,156841,1,0,0:0:0:0:
192,192,156969,1,0,0:0:0:0:
320,192,156969,1,0,0:0:0:0:
448,192,156969,1,0,0:0:0:0:
192,192,157098,1,0,0:0:0:0:
320,192,157098,1,0,0:0:0:0:
64,192,157226,1,0,0:0:0:0:
192,192,157226,1,0,0:0:0:0:
448,192,157355,1,0,0:0:0:0:
320,192,157355,1,0,0:0:0:0:
64,192,157483,1,0,0:0:0:0:
192,192,157483,1,0,0:0:0:0:
320,192,157483,1,0,0:0:0:0:
448,192,157483,1,0,0:0:0:0:
64,192,157612,1,0,0:0:0:0:
192,192,157612,1,0,0:0:0:0:
320,192,157612,1,0,0:0:0:0:
448,192,157612,1,0,0:0:0:0:
64,192,157740,1,0,0:0:0:0:
192,192,157740,1,0,0:0:0:0:
320,192,157740,1,0,0:0:0:0:
448,192,157740,1,0,0:0:0:0:
64,192,157868,1,0,0:0:0:0:
320,192,157868,1,0,0:0:0:0:
448,192,157868,1,0,0:0:0:0:
192,192,157868,1,0,0:0:0:0:
64,192,157997,1,0,0:0:0:0:
192,192,157997,1,0,0:0:0:0:
320,192,157997,1,0,0:0:0:0:
448,192,157997,1,0,0:0:0:0:
64,192,158125,1,0,0:0:0:0:
448,192,158125,1,0,0:0:0:0:
320,192,158125,1,0,0:0:0:0:
192,192,158125,1,0,0:0:0:0:
64,192,158254,1,0,0:0:0:0:
192,192,158254,1,0,0:0:0:0:
448,192,158254,1,0,0:0:0:0:
320,192,158254,1,0,0:0:0:0:
320,192,158382,1,0,0:0:0:0:
192,192,158382,1,0,0:0:0:0:
64,192,158382,1,0,0:0:0:0:
448,192,158382,1,0,0:0:0:0:
448,192,158510,1,0,0:0:0:0:
320,192,158510,1,0,0:0:0:0:
192,192,158510,1,0,0:0:0:0:
64,192,158510,1,0,0:0:0:0:
64,192,158639,1,0,0:0:0:0:
192,192,158639,1,0,0:0:0:0:
320,192,158639,1,0,0:0:0:0:
448,192,158639,1,0,0:0:0:0:
448,192,158767,1,0,0:0:0:0:
320,192,158767,1,0,0:0:0:0:
192,192,158767,1,0,0:0:0:0:
64,192,158767,1,0,0:0:0:0:
64,192,158896,1,0,0:0:0:0:
192,192,158896,1,0,0:0:0:0:
320,192,158896,1,0,0:0:0:0:
448,192,158896,1,0,0:0:0:0:
448,192,159024,1,0,0:0:0:0:
320,192,159024,1,0,0:0:0:0:
192,192,159024,1,0,0:0:0:0:
64,192,159024,1,0,0:0:0:0:
64,192,159153,1,0,0:0:0:0:
192,192,159153,1,0,0:0:0:0:
448,192,159153,1,0,0:0:0:0:
320,192,159153,1,0,0:0:0:0:
64,192,159281,1,0,0:0:0:0:
192,192,159281,1,0,0:0:0:0:
320,192,159281,1,0,0:0:0:0:
448,192,159281,1,0,0:0:0:0:
64,192,159409,1,0,0:0:0:0:
320,192,159409,1,0,0:0:0:0:
448,192,159409,1,0,0:0:0:0:
192,192,159409,1,0,0:0:0:0:
64,192,159538,1,0,0:0:0:0:
192,192,159538,1,0,0:0:0:0:
320,192,159538,1,0,0:0:0:0:
448,192,159538,1,0,0:0:0:0:
448,192,159666,1,0,0:0:0:0:
192,192,159666,1,0,0:0:0:0:
448,192,159795,1,0,0:0:0:0:
64,192,159795,1,0,0:0:0:0:
448,192,159923,1,0,0:0:0:0:
320,192,159923,1,0,0:0:0:0:
448,192,160052,1,0,0:0:0:0:
192,192,160052,1,0,0:0:0:0:
64,192,160052,1,0,0:0:0:0:
448,192,160180,1,0,0:0:0:0:
320,192,160180,1,0,0:0:0:0:
448,192,160308,1,0,0:0:0:0:
64,192,160308,1,0,0:0:0:0:
448,192,160437,1,0,0:0:0:0:
192,192,160437,1,0,0:0:0:0:
448,192,160565,1,0,0:0:0:0:
64,192,160565,1,0,0:0:0:0:
320,192,160565,1,0,0:0:0:0:
448,192,160694,1,0,0:0:0:0:
192,192,160694,1,0,0:0:0:0:
448,192,160822,1,0,0:0:0:0:
320,192,160822,1,0,0:0:0:0:
192,192,160822,1,0,0:0:0:0:
64,192,160822,1,0,0:0:0:0:
448,192,160951,1,0,0:0:0:0:
64,192,160951,1,0,0:0:0:0:
448,192,161079,1,0,0:0:0:0:
320,192,161079,1,0,0:0:0:0:
64,192,161079,1,0,0:0:0:0:
448,192,161207,1,0,0:0:0:0:
64,192,161207,1,0,0:0:0:0:
448,192,161336,1,0,0:0:0:0:
320,192,161336,1,0,0:0:0:0:
192,192,161336,1,0,0:0:0:0:
64,192,161336,1,0,0:0:0:0:
448,192,161464,1,0,0:0:0:0:
192,192,161464,1,0,0:0:0:0:
320,192,161593,1,0,0:0:0:0:
448,192,161593,1,0,0:0:0:0:
64,192,161593,1,0,0:0:0:0:
192,192,161593,1,0,0:0:0:0:
320,192,161721,1,0,0:0:0:0:
192,192,161721,1,0,0:0:0:0:
320,192,161850,1,0,0:0:0:0:
64,192,161850,1,0,0:0:0:0:
320,192,161978,1,0,0:0:0:0:
448,192,161978,1,0,0:0:0:0:
320,192,162106,1,0,0:0:0:0:
192,192,162106,1,0,0:0:0:0:
64,192,162106,1,0,0:0:0:0:
320,192,162235,1,0,0:0:0:0:
448,192,162235,1,0,0:0:0:0:
320,192,162363,1,0,0:0:0:0:
192,192,162363,1,0,0:0:0:0:
320,192,162492,1,0,0:0:0:0:
448,192,162492,1,0,0:0:0:0:
320,192,162620,1,0,0:0:0:0:
64,192,162620,1,0,0:0:0:0:
448,192,162620,1,0,0:0:0:0:
320,192,162748,1,0,0:0:0:0:
192,192,162748,1,0,0:0:0:0:
320,192,162877,1,0,0:0:0:0:
448,192,162877,1,0,0:0:0:0:
192,192,162877,1,0,0:0:0:0:
64,192,162877,1,0,0:0:0:0:
320,192,163005,1,0,0:0:0:0:
64,192,163005,1,0,0:0:0:0:
320,192,163134,1,0,0:0:0:0:
192,192,163134,1,0,0:0:0:0:
448,192,163134,1,0,0:0:0:0:
320,192,163262,1,0,0:0:0:0:
64,192,163262,1,0,0:0:0:0:
320,192,163391,1,0,0:0:0:0:
448,192,163391,1,0,0:0:0:0:
192,192,163391,1,0,0:0:0:0:
64,192,163391,1,0,0:0:0:0:
320,192,163519,1,0,0:0:0:0:
192,192,163519,1,0,0:0:0:0:
320,192,163647,1,0,0:0:0:0:
192,192,163647,1,0,0:0:0:0:
64,192,163647,1,0,0:0:0:0:
448,192,163647,1,0,0:0:0:0:
192,192,163776,1,0,0:0:0:0:
320,192,163776,1,0,0:0:0:0:
192,192,163904,1,0,0:0:0:0:
448,192,163904,1,0,0:0:0:0:
192,192,164033,1,0,0:0:0:0:
320,192,164033,1,0,0:0:0:0:
192,192,164161,1,0,0:0:0:0:
64,192,164161,1,0,0:0:0:0:
448,192,164161,1,0,0:0:0:0:
192,192,164290,1,0,0:0:0:0:
448,192,164290,1,0,0:0:0:0:
192,192,164418,1,0,0:0:0:0:
320,192,164418,1,0,0:0:0:0:
192,192,164546,1,0,0:0:0:0:
64,192,164546,1,0,0:0:0:0:
192,192,164675,1,0,0:0:0:0:
448,192,164675,1,0,0:0:0:0:
320,192,164675,1,0,0:0:0:0:
192,192,164803,1,0,0:0:0:0:
64,192,164803,1,0,0:0:0:0:
192,192,164932,1,0,0:0:0:0:
320,192,164932,1,0,0:0:0:0:
448,192,164932,1,0,0:0:0:0:
64,192,164932,1,0,0:0:0:0:
192,192,165060,1,0,0:0:0:0:
448,192,165060,1,0,0:0:0:0:
192,192,165189,1,0,0:0:0:0:
64,192,165189,1,0,0:0:0:0:
320,192,165189,1,0,0:0:0:0:
192,192,165317,1,0,0:0:0:0:
448,192,165317,1,0,0:0:0:0:
192,192,165445,1,0,0:0:0:0:
64,192,165445,1,0,0:0:0:0:
320,192,165445,1,0,0:0:0:0:
448,192,165445,1,0,0:0:0:0:
192,192,165574,1,0,0:0:0:0:
448,192,165574,1,0,0:0:0:0:
64,192,165702,1,0,0:0:0:0:
192,192,165702,1,0,0:0:0:0:
320,192,165702,1,0,0:0:0:0:
448,192,165702,1,0,0:0:0:0:
64,192,165831,1,0,0:0:0:0:
192,192,165831,1,0,0:0:0:0:
64,192,165959,1,0,0:0:0:0:
320,192,165959,1,0,0:0:0:0:
64,192,166088,1,0,0:0:0:0:
448,192,166088,1,0,0:0:0:0:
64,192,166216,1,0,0:0:0:0:
192,192,166216,1,0,0:0:0:0:
320,192,166216,1,0,0:0:0:0:
448,192,166216,1,0,0:0:0:0:
64,192,166344,1,0,0:0:0:0:
192,192,166344,1,0,0:0:0:0:
64,192,166473,1,0,0:0:0:0:
320,192,166473,1,0,0:0:0:0:
64,192,166601,1,0,0:0:0:0:
448,192,166601,1,0,0:0:0:0:
64,192,166730,1,0,0:0:0:0:
192,192,166730,1,0,0:0:0:0:
320,192,166730,1,0,0:0:0:0:
448,192,166730,1,0,0:0:0:0:
64,192,166858,1,0,0:0:0:0:
320,192,166858,1,0,0:0:0:0:
64,192,166987,1,0,0:0:0:0:
448,192,166987,1,0,0:0:0:0:
320,192,166987,1,0,0:0:0:0:
192,192,166987,1,0,0:0:0:0:
64,192,167115,1,0,0:0:0:0:
448,192,167115,1,0,0:0:0:0:
64,192,167243,1,0,0:0:0:0:
320,192,167243,1,0,0:0:0:0:
192,192,167243,1,0,0:0:0:0:
64,192,167372,1,0,0:0:0:0:
192,192,167372,1,0,0:0:0:0:
64,192,167500,1,0,0:0:0:0:
320,192,167500,1,0,0:0:0:0:
64,192,167629,1,0,0:0:0:0:
192,192,167629,1,0,0:0:0:0:
64,192,167757,1,0,0:0:0:0:
448,192,167757,1,0,0:0:0:0:
320,192,167757,1,0,0:0:0:0:
192,192,167757,1,0,0:0:0:0:
448,192,167885,1,0,0:0:0:0:
192,192,167885,1,0,0:0:0:0:
448,192,168014,1,0,0:0:0:0:
64,192,168014,1,0,0:0:0:0:
448,192,168142,1,0,0:0:0:0:
320,192,168142,1,0,0:0:0:0:
448,192,168271,1,0,0:0:0:0:
192,192,168271,1,0,0:0:0:0:
64,192,168271,1,0,0:0:0:0:
448,192,168399,1,0,0:0:0:0:
320,192,168399,1,0,0:0:0:0:
448,192,168528,1,0,0:0:0:0:
64,192,168528,1,0,0:0:0:0:
448,192,168656,1,0,0:0:0:0:
192,192,168656,1,0,0:0:0:0:
448,192,168784,1,0,0:0:0:0:
64,192,168784,1,0,0:0:0:0:
320,192,168784,1,0,0:0:0:0:
448,192,168913,1,0,0:0:0:0:
448,192,169041,1,0,0:0:0:0:
320,192,169041,1,0,0:0:0:0:
192,192,169041,1,0,0:0:0:0:
64,192,169041,1,0,0:0:0:0:
448,192,169170,1,0,0:0:0:0:
192,192,169170,1,0,0:0:0:0:
448,192,169298,1,0,0:0:0:0:
320,192,169298,1,0,0:0:0:0:
64,192,169298,1,0,0:0:0:0:
448,192,169427,1,0,0:0:0:0:
192,192,169427,1,0,0:0:0:0:
448,192,169555,1,0,0:0:0:0:
64,192,169555,1,0,0:0:0:0:
320,192,169555,1,0,0:0:0:0:
192,192,169555,1,0,0:0:0:0:
448,192,169683,1,0,0:0:0:0:
192,192,169683,1,0,0:0:0:0:
192,192,169812,1,0,0:0:0:0:
64,192,169812,1,0,0:0:0:0:
320,192,169812,1,0,0:0:0:0:
448,192,169812,1,0,0:0:0:0:
320,192,169940,1,0,0:0:0:0:
448,192,169940,1,0,0:0:0:0:
320,192,170069,1,0,0:0:0:0:
192,192,170069,1,0,0:0:0:0:
320,192,170197,1,0,0:0:0:0:
448,192,170197,1,0,0:0:0:0:
320,192,170326,1,0,0:0:0:0:
64,192,170326,1,0,0:0:0:0:
192,192,170326,1,0,0:0:0:0:
320,192,170454,1,0,0:0:0:0:
448,192,170454,1,0,0:0:0:0:
320,192,170582,1,0,0:0:0:0:
192,192,170582,1,0,0:0:0:0:
320,192,170711,1,0,0:0:0:0:
64,192,170711,1,0,0:0:0:0:
320,192,170839,1,0,0:0:0:0:
448,192,170839,1,0,0:0:0:0:
192,192,170839,1,0,0:0:0:0:
320,192,170968,1,0,0:0:0:0:
64,192,170968,1,0,0:0:0:0:
320,192,171096,1,0,0:0:0:0:
192,192,171096,1,0,0:0:0:0:
448,192,171096,1,0,0:0:0:0:
64,192,171096,1,0,0:0:0:0:
320,192,171225,1,0,0:0:0:0:
192,192,171225,1,0,0:0:0:0:
320,192,171353,1,0,0:0:0:0:
64,192,171353,1,0,0:0:0:0:
448,192,171353,1,0,0:0:0:0:
320,192,171481,1,0,0:0:0:0:
448,192,171481,1,0,0:0:0:0:
320,192,171610,1,0,0:0:0:0:
448,192,171610,1,0,0:0:0:0:
192,192,171610,1,0,0:0:0:0:
64,192,171610,1,0,0:0:0:0:
320,192,171738,1,0,0:0:0:0:
192,192,171738,1,0,0:0:0:0:
192,192,171867,1,0,0:0:0:0:
64,192,171867,1,0,0:0:0:0:
320,192,171867,1,0,0:0:0:0:
448,192,171867,1,0,0:0:0:0:
192,192,171995,1,0,0:0:0:0:
320,192,171995,1,0,0:0:0:0:
192,192,172123,1,0,0:0:0:0:
448,192,172123,1,0,0:0:0:0:
192,192,172252,1,0,0:0:0:0:
320,192,172252,1,0,0:0:0:0:
192,192,172380,1,0,0:0:0:0:
64,192,172380,1,0,0:0:0:0:
448,192,172380,1,0,0:0:0:0:
192,192,172509,1,0,0:0:0:0:
320,192,172509,1,0,0:0:0:0:
192,192,172637,1,0,0:0:0:0:
448,192,172637,1,0,0:0:0:0:
192,192,172766,1,0,0:0:0:0:
320,192,172766,1,0,0:0:0:0:
192,192,172894,1,0,0:0:0:0:
320,192,172894,1,0,0:0:0:0:
448,192,172894,1,0,0:0:0:0:
64,192,172894,1,0,0:0:0:0:
192,192,173022,1,0,0:0:0:0:
64,192,173022,1,0,0:0:0:0:
192,192,173151,1,0,0:0:0:0:
320,192,173151,1,0,0:0:0:0:
192,192,173279,1,0,0:0:0:0:
64,192,173279,1,0,0:0:0:0:
192,192,173408,1,0,0:0:0:0:
320,192,173408,1,0,0:0:0:0:
448,192,173408,1,0,0:0:0:0:
192,192,173536,1,0,0:0:0:0:
320,192,173536,1,0,0:0:0:0:
320,192,173665,1,0,0:0:0:0:
448,192,173665,1,0,0:0:0:0:
192,192,173793,1,0,0:0:0:0:
64,192,173793,1,0,0:0:0:0:
64,192,173921,1,0,0:0:0:0:
192,192,173921,1,0,0:0:0:0:
320,192,173921,1,0,0:0:0:0:
448,192,173921,1,0,0:0:0:0:
64,192,174050,1,0,0:0:0:0:
192,192,174050,1,0,0:0:0:0:
320,192,174050,1,0,0:0:0:0:
448,192,174050,1,0,0:0:0:0:
64,192,174178,1,0,0:0:0:0:
192,192,174178,1,0,0:0:0:0:
320,192,174178,1,0,0:0:0:0:
448,192,174178,1,0,0:0:0:0:
64,192,174307,1,0,0:0:0:0:
320,192,174307,1,0,0:0:0:0:
448,192,174307,1,0,0:0:0:0:
192,192,174307,1,0,0:0:0:0:
64,192,174435,1,0,0:0:0:0:
192,192,174435,1,0,0:0:0:0:
320,192,174435,1,0,0:0:0:0:
448,192,174435,1,0,0:0:0:0:
64,192,174564,1,0,0:0:0:0:
448,192,174564,1,0,0:0:0:0:
320,192,174564,1,0,0:0:0:0:
192,192,174564,1,0,0:0:0:0:
64,192,174692,1,0,0:0:0:0:
192,192,174692,1,0,0:0:0:0:
320,192,174692,1,0,0:0:0:0:
448,192,174692,1,0,0:0:0:0:
64,192,174820,1,0,0:0:0:0:
448,192,174820,1,0,0:0:0:0:
320,192,174820,1,0,0:0:0:0:
192,192,174820,1,0,0:0:0:0:
64,192,174949,1,0,0:0:0:0:
192,192,174949,1,0,0:0:0:0:
320,192,174949,1,0,0:0:0:0:
448,192,174949,1,0,0:0:0:0:
64,192,175077,1,0,0:0:0:0:
448,192,175077,1,0,0:0:0:0:
320,192,175077,1,0,0:0:0:0:
192,192,175077,1,0,0:0:0:0:
64,192,175206,1,0,0:0:0:0:
192,192,175206,1,0,0:0:0:0:
320,192,175206,1,0,0:0:0:0:
448,192,175206,1,0,0:0:0:0:
64,192,175334,1,0,0:0:0:0:
448,192,175334,1,0,0:0:0:0:
320,192,175334,1,0,0:0:0:0:
192,192,175334,1,0,0:0:0:0:
64,192,175463,1,0,0:0:0:0:
192,192,175463,1,0,0:0:0:0:
320,192,175463,1,0,0:0:0:0:
448,192,175463,1,0,0:0:0:0:
64,192,175591,1,0,0:0:0:0:
320,192,175591,1,0,0:0:0:0:
192,192,175591,1,0,0:0:0:0:
448,192,175591,1,0,0:0:0:0:
64,192,175719,1,0,0:0:0:0:
448,192,175719,1,0,0:0:0:0:
320,192,175719,1,0,0:0:0:0:
192,192,175719,1,0,0:0:0:0:
64,192,175848,1,0,0:0:0:0:
192,192,175848,1,0,0:0:0:0:
320,192,175848,1,0,0:0:0:0:
448,192,175848,1,0,0:0:0:0:
320,192,175976,1,0,0:0:0:0:
192,192,175976,1,0,0:0:0:0:
64,192,175976,1,0,0:0:0:0:
320,192,176105,1,0,0:0:0:0:
320,192,176233,1,0,0:0:0:0:
448,192,176233,1,0,0:0:0:0:
320,192,176362,1,0,0:0:0:0:
320,192,176490,1,0,0:0:0:0:
64,192,176490,1,0,0:0:0:0:
192,192,176490,1,0,0:0:0:0:
320,192,176618,1,0,0:0:0:0:
320,192,176747,1,0,0:0:0:0:
64,192,176747,1,0,0:0:0:0:
320,192,176875,1,0,0:0:0:0:
320,192,177004,1,0,0:0:0:0:
448,192,177004,1,0,0:0:0:0:
192,192,177004,1,0,0:0:0:0:
320,192,177132,1,0,0:0:0:0:
320,192,177260,1,0,0:0:0:0:
64,192,177260,1,0,0:0:0:0:
320,192,177389,1,0,0:0:0:0:
320,192,177517,1,0,0:0:0:0:
192,192,177517,1,0,0:0:0:0:
448,192,177517,1,0,0:0:0:0:
320,192,177646,1,0,0:0:0:0:
320,192,177774,1,0,0:0:0:0:
192,192,177774,1,0,0:0:0:0:
320,192,177903,1,0,0:0:0:0:
320,192,178031,1,0,0:0:0:0:
192,192,178031,1,0,0:0:0:0:
448,192,178031,1,0,0:0:0:0:
192,192,178159,1,0,0:0:0:0:
192,192,178288,1,0,0:0:0:0:
64,192,178288,1,0,0:0:0:0:
192,192,178416,1,0,0:0:0:0:
192,192,178545,1,0,0:0:0:0:
320,192,178545,1,0,0:0:0:0:
448,192,178545,1,0,0:0:0:0:
192,192,178673,1,0,0:0:0:0:
192,192,178802,1,0,0:0:0:0:
320,192,178802,1,0,0:0:0:0:
192,192,178930,1,0,0:0:0:0:
192,192,179058,1,0,0:0:0:0:
64,192,179058,1,0,0:0:0:0:
320,192,179058,1,0,0:0:0:0:
192,192,179187,1,0,0:0:0:0:
192,192,179315,1,0,0:0:0:0:
448,192,179315,1,0,0:0:0:0:
192,192,179444,1,0,0:0:0:0:
192,192,179572,1,0,0:0:0:0:
320,192,179572,1,0,0:0:0:0:
64,192,179572,1,0,0:0:0:0:
192,192,179701,1,0,0:0:0:0:
192,192,179829,1,0,0:0:0:0:
64,192,179829,1,0,0:0:0:0:
192,192,179957,1,0,0:0:0:0:
192,192,180086,1,0,0:0:0:0:
320,192,180086,1,0,0:0:0:0:
448,192,180086,1,0,0:0:0:0:
320,192,180214,1,0,0:0:0:0:
320,192,180343,1,0,0:0:0:0:
192,192,180343,1,0,0:0:0:0:
320,192,180471,1,0,0:0:0:0:
320,192,180600,1,0,0:0:0:0:
192,192,180600,1,0,0:0:0:0:
448,192,180600,1,0,0:0:0:0:
320,192,180728,1,0,0:0:0:0:
320,192,180856,1,0,0:0:0:0:
448,192,180856,1,0,0:0:0:0:
320,192,180985,1,0,0:0:0:0:
320,192,181113,1,0,0:0:0:0:
448,192,181113,1,0,0:0:0:0:
192,192,181113,1,0,0:0:0:0:
320,192,181242,1,0,0:0:0:0:
320,192,181370,1,0,0:0:0:0:
64,192,181370,1,0,0:0:0:0:
320,192,181498,1,0,0:0:0:0:
320,192,181627,1,0,0:0:0:0:
448,192,181627,1,0,0:0:0:0:
192,192,181627,1,0,0:0:0:0:
320,192,181755,1,0,0:0:0:0:
320,192,181884,1,0,0:0:0:0:
64,192,181884,1,0,0:0:0:0:
320,192,182012,1,0,0:0:0:0:
320,192,182141,1,0,0:0:0:0:
192,192,182141,1,0,0:0:0:0:
64,192,182141,1,0,0:0:0:0:
192,192,182269,1,0,0:0:0:0:
192,192,182397,1,0,0:0:0:0:
448,192,182397,1,0,0:0:0:0:
192,192,182526,1,0,0:0:0:0:
192,192,182654,1,0,0:0:0:0:
64,192,182654,1,0,0:0:0:0:
448,192,182654,1,0,0:0:0:0:
192,192,182783,1,0,0:0:0:0:
192,192,182911,1,0,0:0:0:0:
320,192,182911,1,0,0:0:0:0:
192,192,183040,1,0,0:0:0:0:
192,192,183168,1,0,0:0:0:0:
64,192,183168,1,0,0:0:0:0:
448,192,183168,1,0,0:0:0:0:
192,192,183296,1,0,0:0:0:0:
192,192,183425,1,0,0:0:0:0:
64,192,183425,1,0,0:0:0:0:
192,192,183553,1,0,0:0:0:0:
192,192,183682,1,0,0:0:0:0:
320,192,183682,1,0,0:0:0:0:
448,192,183682,1,0,0:0:0:0:
192,192,183810,1,0,0:0:0:0:
192,192,183939,1,0,0:0:0:0:
64,192,183939,1,0,0:0:0:0:
192,192,184067,1,0,0:0:0:0:
192,192,184195,1,0,0:0:0:0:
448,192,184195,1,0,0:0:0:0:
320,192,184195,1,0,0:0:0:0:
64,192,184195,1,0,0:0:0:0:
192,192,184324,1,0,0:0:0:0:
320,192,184452,1,0,0:0:0:0:
448,192,184581,1,0,0:0:0:0:
64,192,184709,1,0,0:0:0:0:
192,192,184709,1,0,0:0:0:0:
192,192,184838,1,0,0:0:0:0:
320,192,184966,1,0,0:0:0:0:
448,192,185094,1,0,0:0:0:0:
448,192,185223,1,0,0:0:0:0:
320,192,185351,1,0,0:0:0:0:
192,192,185480,1,0,0:0:0:0:
64,192,185608,1,0,0:0:0:0:
448,192,185737,1,0,0:0:0:0:
320,192,185737,1,0,0:0:0:0:
320,192,185865,1,0,0:0:0:0:
192,192,185993,1,0,0:0:0:0:
64,192,186122,1,0,0:0:0:0:
64,192,186250,1,0,0:0:0:0:
192,192,186379,1,0,0:0:0:0:
320,192,186507,1,0,0:0:0:0:
448,192,186635,1,0,0:0:0:0:
64,192,186764,1,0,0:0:0:0:
192,192,186764,1,0,0:0:0:0:
192,192,186892,1,0,0:0:0:0:
320,192,187021,1,0,0:0:0:0:
448,192,187149,1,0,0:0:0:0:
448,192,187278,1,0,0:0:0:0:
320,192,187406,1,0,0:0:0:0:
192,192,187534,1,0,0:0:0:0:
320,192,187534,1,0,0:0:0:0:
64,192,187663,1,0,0:0:0:0:
448,192,187791,1,0,0:0:0:0:
320,192,187791,1,0,0:0:0:0:
320,192,187920,1,0,0:0:0:0:
192,192,188048,1,0,0:0:0:0:
64,192,188177,1,0,0:0:0:0:
64,192,188305,1,0,0:0:0:0:
192,192,188433,1,0,0:0:0:0:
320,192,188562,1,0,0:0:0:0:
448,192,188690,1,0,0:0:0:0:
64,192,188819,1,0,0:0:0:0:
192,192,188819,1,0,0:0:0:0:
192,192,188947,1,0,0:0:0:0:
320,192,189076,1,0,0:0:0:0:
448,192,189204,1,0,0:0:0:0:
448,192,189332,1,0,0:0:0:0:
320,192,189461,1,0,0:0:0:0:
192,192,189589,1,0,0:0:0:0:
64,192,189718,1,0,0:0:0:0:
448,192,189846,1,0,0:0:0:0:
320,192,189846,1,0,0:0:0:0:
320,192,189975,1,0,0:0:0:0:
192,192,190103,1,0,0:0:0:0:
64,192,190231,1,0,0:0:0:0:
64,192,190360,1,0,0:0:0:0:
320,192,190360,1,0,0:0:0:0:
192,192,190488,1,0,0:0:0:0:
320,192,190617,1,0,0:0:0:0:
448,192,190745,1,0,0:0:0:0:
64,192,190873,1,0,0:0:0:0:
320,192,190873,1,0,0:0:0:0:
192,192,191002,1,0,0:0:0:0:
320,192,191130,1,0,0:0:0:0:
448,192,191259,1,0,0:0:0:0:
64,192,191387,1,0,0:0:0:0:
320,192,191387,1,0,0:0:0:0:
192,192,191516,1,0,0:0:0:0:
448,192,191644,1,0,0:0:0:0:
320,192,191772,1,0,0:0:0:0:
64,192,191901,1,0,0:0:0:0:
448,192,191901,1,0,0:0:0:0:
192,192,192029,1,0,0:0:0:0:
448,192,192158,1,0,0:0:0:0:
320,192,192286,1,0,0:0:0:0:
192,192,192415,1,0,0:0:0:0:
