osu file format v14

[General]
AudioFilename: audio.mp3
AudioLeadIn: 0
PreviewTime: 47982
Countdown: 1
SampleSet: Normal
StackLeniency: 0.7
Mode: 1
LetterboxInBreaks: 0
WidescreenStoryboard: 1

[Editor]
DistanceSpacing: 0.8
BeatDivisor: 4
GridSize: 32
TimelineZoom: 3.899998

[Metadata]
Title:Lachesis to Towa no Kitousha
TitleUnicode:ラケシスと永遠の祈祷者
Artist:Shike
ArtistUnicode:しーけー
Creator:Lamery
Version:Oni
Source:BMS
Tags:bofu 2016
BeatmapID:1331559
BeatmapSetID:630785

[Difficulty]
HPDrainRate:6
CircleSize:5
OverallDifficulty:6
ApproachRate:6
SliderMultiplier:1.4
SliderTickRate:1

[Events]
//Background and Video events
0,0,"ラケシスと永遠の祈祷者.jpg",0,0
//Break Periods
2,84179,89190
//Storyboard Layer 0 (Background)
//Storyboard Layer 1 (Fail)
//Storyboard Layer 2 (Pass)
//Storyboard Layer 3 (Foreground)
//Storyboard Sound Samples

[TimingPoints]
9116,260.869565217391,5,1,0,100,1,0
20855,260.869565217391,3,1,0,100,1,0
33376,260.869565217391,5,1,0,100,1,0
35984,260.869565217391,3,1,0,100,1,0
39114,260.869565217391,5,1,0,100,1,0
41722,260.869565217391,3,1,0,100,1,0
44852,260.869565217391,3,1,0,100,1,0
47982,-100,3,1,0,100,0,1
54243,260.869565217391,5,1,0,100,1,0
56851,260.869565217391,3,1,0,100,1,0
59981,-100,3,1,0,100,0,1
66242,260.869565217391,5,1,0,100,1,0
68850,-100,3,1,0,100,0,0
71458,260.869565217391,3,1,0,100,1,0
90240,260.869565217391,5,1,0,100,1,0
92848,260.869565217391,3,1,0,100,1,0
99108,-100,3,1,0,100,0,1
103804,260.869565217391,5,1,0,100,1,0
109020,260.869565217391,3,1,0,100,1,0
115280,260.869565217391,5,1,0,100,1,0
117888,-100,3,1,0,100,0,0
119193,260.869565217391,3,1,0,100,1,0

[HitObjects]
256,192,9115,12,0,10289,0:0:0:0:
256,192,10420,5,8,0:0:0:0:
256,192,10550,1,0,0:0:0:0:
256,192,10681,1,0,0:0:0:0:
256,192,10811,1,8,0:0:0:0:
256,192,10942,1,0,0:0:0:0:
256,192,11072,1,0,0:0:0:0:
256,192,11202,1,8,0:0:0:0:
256,192,11333,1,0,0:0:0:0:
256,192,11463,1,8,0:0:0:0:
256,192,11724,1,8,0:0:0:0:
256,192,11855,1,0,0:0:0:0:
256,192,11985,1,0,0:0:0:0:
256,192,12115,1,8,0:0:0:0:
256,192,12246,1,0,0:0:0:0:
256,192,12376,1,0,0:0:0:0:
256,192,12507,1,8,0:0:0:0:
256,192,12637,1,0,0:0:0:0:
256,192,12702,1,0,0:0:0:0:
256,192,12768,1,8,0:0:0:0:
256,192,13029,1,8,0:0:0:0:
256,192,13094,1,8,0:0:0:0:
256,192,13159,1,0,0:0:0:0:
256,192,13289,1,0,0:0:0:0:
256,192,13420,1,8,0:0:0:0:
256,192,13550,1,0,0:0:0:0:
256,192,13681,1,0,0:0:0:0:
256,192,13811,1,8,0:0:0:0:
256,192,13942,1,0,0:0:0:0:
256,192,14072,1,8,0:0:0:0:
256,192,14333,1,8,0:0:0:0:
256,192,14463,1,0,0:0:0:0:
256,192,14594,1,0,0:0:0:0:
256,192,14724,1,8,0:0:0:0:
256,192,14855,1,0,0:0:0:0:
256,192,14985,1,0,0:0:0:0:
256,192,15115,1,8,0:0:0:0:
256,192,15376,1,8,0:0:0:0:
256,192,15507,1,0,0:0:0:0:
256,192,15572,1,0,0:0:0:0:
256,192,15637,1,8,0:0:0:0:
256,192,15768,1,8,0:0:0:0:
256,192,15898,1,0,0:0:0:0:
256,192,16029,1,8,0:0:0:0:
256,192,16159,1,8,0:0:0:0:
256,192,16289,1,0,0:0:0:0:
256,192,16420,1,8,0:0:0:0:
256,192,16550,1,8,0:0:0:0:
256,192,16615,1,0,0:0:0:0:
256,192,16681,1,8,0:0:0:0:
256,192,16942,1,8,0:0:0:0:
256,192,17072,1,8,0:0:0:0:
256,192,17202,1,0,0:0:0:0:
256,192,17333,1,8,0:0:0:0:
256,192,17463,1,8,0:0:0:0:
256,192,17594,1,8,0:0:0:0:
256,192,17659,1,0,0:0:0:0:
256,192,17724,1,8,0:0:0:0:
256,192,17855,1,0,0:0:0:0:
256,192,17920,1,0,0:0:0:0:
256,192,17985,1,8,0:0:0:0:
256,192,18246,1,8,0:0:0:0:
256,192,18311,1,8,0:0:0:0:
256,192,18376,1,8,0:0:0:0:
256,192,18507,1,0,0:0:0:0:
256,192,18637,1,8,0:0:0:0:
256,192,18768,1,0,0:0:0:0:
256,192,18898,1,0,0:0:0:0:
256,192,19029,1,8,0:0:0:0:
256,192,19159,1,0,0:0:0:0:
256,192,19289,1,8,0:0:0:0:
256,192,19550,1,8,0:0:0:0:
256,192,19681,1,8,0:0:0:0:
256,192,19811,1,0,0:0:0:0:
256,192,19942,1,8,0:0:0:0:
256,192,20072,1,8,0:0:0:0:
256,192,20202,1,0,0:0:0:0:
256,192,20333,1,8,0:0:0:0:
256,192,20463,1,0,0:0:0:0:
256,192,20594,1,0,0:0:0:0:
256,192,20724,1,0,0:0:0:0:
256,192,20855,1,8,0:0:0:0:
256,192,21115,1,0,0:0:0:0:
256,192,21376,1,8,0:0:0:0:
256,192,21637,1,8,0:0:0:0:
256,192,21898,1,0,0:0:0:0:
256,192,22159,1,8,0:0:0:0:
256,192,22420,1,8,0:0:0:0:
256,192,22681,1,0,0:0:0:0:
256,192,22811,1,0,0:0:0:0:
256,192,22941,1,8,0:0:0:0:
256,192,23202,1,8,0:0:0:0:
256,192,23463,1,8,0:0:0:0:
256,192,23594,1,0,0:0:0:0:
256,192,23724,1,0,0:0:0:0:
256,192,23854,1,8,0:0:0:0:
256,192,23985,1,8,0:0:0:0:
256,192,24246,1,0,0:0:0:0:
256,192,24376,1,0,0:0:0:0:
256,192,24507,1,8,0:0:0:0:
256,192,24768,1,0,0:0:0:0:
256,192,25028,1,0,0:0:0:0:
256,192,25159,1,0,0:0:0:0:
256,192,25289,1,8,0:0:0:0:
256,192,25420,1,0,0:0:0:0:
256,192,25550,1,8,0:0:0:0:
256,192,25811,1,0,0:0:0:0:
256,192,26072,1,8,0:0:0:0:
256,192,26333,1,8,0:0:0:0:
256,192,26594,1,0,0:0:0:0:
256,192,26724,1,0,0:0:0:0:
256,192,26789,1,0,0:0:0:0:
256,192,26854,1,8,0:0:0:0:
256,192,27115,1,8,0:0:0:0:
256,192,27376,1,0,0:0:0:0:
256,192,27507,1,0,0:0:0:0:
256,192,27637,1,8,0:0:0:0:
256,192,27898,1,8,0:0:0:0:
256,192,28159,1,0,0:0:0:0:
256,192,28289,1,0,0:0:0:0:
256,192,28420,1,8,0:0:0:0:
256,192,28681,1,8,0:0:0:0:
256,192,28941,1,0,0:0:0:0:
256,192,29072,1,0,0:0:0:0:
256,192,29202,1,8,0:0:0:0:
256,192,29333,1,0,0:0:0:0:
256,192,29398,1,0,0:0:0:0:
256,192,29463,1,8,0:0:0:0:
256,192,29724,1,0,0:0:0:0:
256,192,29854,1,0,0:0:0:0:
256,192,29920,1,0,0:0:0:0:
256,192,29985,1,8,0:0:0:0:
256,192,30115,1,8,0:0:0:0:
256,192,30246,1,8,0:0:0:0:
256,192,30507,1,0,0:0:0:0:
256,192,30637,1,0,0:0:0:0:
256,192,30768,1,0,0:0:0:0:
256,192,30898,1,8,0:0:0:0:
256,192,31028,1,0,0:0:0:0:
256,192,31289,1,0,0:0:0:0:
256,192,31485,1,0,0:0:0:0:
256,192,31550,1,8,0:0:0:0:
256,192,31811,1,8,0:0:0:0:
256,192,32072,1,0,0:0:0:0:
256,192,32202,1,0,0:0:0:0:
256,192,32333,1,8,0:0:0:0:
256,192,32463,1,0,0:0:0:0:
256,192,32594,1,8,0:0:0:0:
256,192,32724,1,8,0:0:0:0:
256,192,32789,1,0,0:0:0:0:
256,192,32854,1,0,0:0:0:0:
256,192,32985,1,0,0:0:0:0:
256,192,33115,1,8,0:0:0:0:
256,192,33246,1,0,0:0:0:0:
256,192,33311,1,0,0:0:0:0:
256,192,33376,1,8,0:0:0:0:
256,192,33767,1,8,0:0:0:0:
256,192,34028,1,0,0:0:0:0:
256,192,34158,1,8,0:0:0:0:
256,192,34354,1,0,0:0:0:0:
256,192,34419,1,8,0:0:0:0:
256,192,34680,1,8,0:0:0:0:
256,192,34810,1,0,0:0:0:0:
256,192,34941,1,8,0:0:0:0:
256,192,35071,1,8,0:0:0:0:
256,192,35136,1,0,0:0:0:0:
256,192,35202,1,0,0:0:0:0:
256,192,35462,1,8,0:0:0:0:
256,192,35593,1,8,0:0:0:0:
256,192,35658,1,0,0:0:0:0:
256,192,35723,1,0,0:0:0:0:
256,192,35854,1,8,0:0:0:0:
256,192,35984,1,0,0:0:0:0:
256,192,36505,1,8,0:0:0:0:
256,192,36766,1,0,0:0:0:0:
256,192,37027,1,0,0:0:0:0:
256,192,37223,1,0,0:0:0:0:
256,192,37288,1,8,0:0:0:0:
256,192,37418,1,0,0:0:0:0:
256,192,37549,1,0,0:0:0:0:
256,192,37810,1,0,0:0:0:0:
256,192,37940,1,0,0:0:0:0:
256,192,38005,1,0,0:0:0:0:
256,192,38070,1,0,0:0:0:0:
256,192,38201,1,0,0:0:0:0:
256,192,38331,1,8,0:0:0:0:
256,192,38592,1,0,0:0:0:0:
256,192,38853,1,0,0:0:0:0:
256,192,38984,1,0,0:0:0:0:
256,192,39114,1,8,0:0:0:0:
256,192,39244,1,0,0:0:0:0:
256,192,39309,1,0,0:0:0:0:
256,192,39374,1,0,0:0:0:0:
256,192,39505,1,8,0:0:0:0:
256,192,39635,1,0,0:0:0:0:
256,192,39766,1,0,0:0:0:0:
256,192,39896,1,8,0:0:0:0:
256,192,40157,1,8,0:0:0:0:
256,192,40418,1,8,0:0:0:0:
256,192,40679,1,0,0:0:0:0:
256,192,40940,1,8,0:0:0:0:
256,192,41070,1,0,0:0:0:0:
256,192,41135,1,0,0:0:0:0:
256,192,41200,1,8,0:0:0:0:
256,192,41461,1,0,0:0:0:0:
256,192,41722,1,8,0:0:0:0:
256,192,41852,1,0,0:0:0:0:
256,192,41982,1,8,0:0:0:0:
256,192,42113,1,8,0:0:0:0:
256,192,42243,1,0,0:0:0:0:
256,192,42374,1,0,0:0:0:0:
256,192,42504,1,8,0:0:0:0:
256,192,42635,1,0,0:0:0:0:
256,192,42765,1,8,0:0:0:0:
256,192,42895,1,8,0:0:0:0:
256,192,43026,1,8,0:0:0:0:
256,192,43156,1,0,0:0:0:0:
256,192,43287,1,8,0:0:0:0:
256,192,43417,1,8,0:0:0:0:
256,192,43548,1,0,0:0:0:0:
256,192,43678,1,8,0:0:0:0:
256,192,43808,1,8,0:0:0:0:
256,192,43939,1,0,0:0:0:0:
256,192,44069,1,8,0:0:0:0:
256,192,44200,1,0,0:0:0:0:
256,192,44330,1,0,0:0:0:0:
256,192,44395,1,0,0:0:0:0:
256,192,44461,1,0,0:0:0:0:
256,192,44591,1,8,0:0:0:0:
256,192,44722,1,0,0:0:0:0:
256,192,44852,1,8,0:0:0:0:
256,192,45112,1,0,0:0:0:0:
256,192,45373,1,8,0:0:0:0:
256,192,45634,1,8,0:0:0:0:
256,192,45895,1,8,0:0:0:0:
256,192,46417,1,0,0:0:0:0:
256,192,46547,1,0,0:0:0:0:
256,192,46808,1,0,0:0:0:0:
256,192,47199,1,8,0:0:0:0:
256,192,47330,1,0,0:0:0:0:
256,192,47395,1,0,0:0:0:0:
256,192,47460,1,0,0:0:0:0:
256,192,47591,1,0,0:0:0:0:
256,192,47656,1,0,0:0:0:0:
256,192,47721,1,8,0:0:0:0:
256,192,47852,1,0,0:0:0:0:
256,192,47982,1,8,0:0:0:0:
256,192,48243,1,0,0:0:0:0:
256,192,48373,1,0,0:0:0:0:
256,192,48438,1,0,0:0:0:0:
256,192,48504,1,8,0:0:0:0:
256,192,48634,1,0,0:0:0:0:
256,192,48765,1,8,0:0:0:0:
256,192,49025,1,0,0:0:0:0:
256,192,49156,1,0,0:0:0:0:
256,192,49286,1,8,0:0:0:0:
256,192,49417,1,0,0:0:0:0:
256,192,49547,1,8,0:0:0:0:
256,192,49808,1,0,0:0:0:0:
256,192,49938,1,8,0:0:0:0:
256,192,50004,1,8,0:0:0:0:
256,192,50069,1,0,0:0:0:0:
256,192,50199,1,0,0:0:0:0:
256,192,50330,1,8,0:0:0:0:
256,192,50591,1,0,0:0:0:0:
256,192,50721,1,0,0:0:0:0:
256,192,50786,1,0,0:0:0:0:
256,192,50851,1,8,0:0:0:0:
256,192,50982,1,0,0:0:0:0:
256,192,51112,1,8,0:0:0:0:
256,192,51243,1,0,0:0:0:0:
256,192,51308,1,0,0:0:0:0:
256,192,51373,1,0,0:0:0:0:
256,192,51504,1,0,0:0:0:0:
256,192,51569,1,0,0:0:0:0:
256,192,51634,1,8,0:0:0:0:
256,192,51895,1,8,0:0:0:0:
256,192,52025,1,0,0:0:0:0:
256,192,52091,1,0,0:0:0:0:
256,192,52156,1,8,0:0:0:0:
256,192,52286,1,0,0:0:0:0:
256,192,52351,1,8,0:0:0:0:
256,192,52417,1,8,0:0:0:0:
256,192,52547,1,0,0:0:0:0:
256,192,52678,1,8,0:0:0:0:
256,192,52938,1,8,0:0:0:0:
256,192,53069,1,0,0:0:0:0:
256,192,53199,1,0,0:0:0:0:
256,192,53330,1,0,0:0:0:0:
256,192,53460,1,8,0:0:0:0:
256,192,53591,1,0,0:0:0:0:
256,192,53721,1,0,0:0:0:0:
256,192,53851,1,8,0:0:0:0:
256,192,53917,1,0,0:0:0:0:
256,192,53982,1,8,0:0:0:0:
256,192,54112,1,0,0:0:0:0:
256,192,54178,1,0,0:0:0:0:
256,192,54243,1,8,0:0:0:0:
256,192,54503,1,8,0:0:0:0:
256,192,54590,1,0,0:0:0:0:
256,192,54677,1,0,0:0:0:0:
256,192,54764,1,8,0:0:0:0:
256,192,55025,1,0,0:0:0:0:
256,192,55286,1,0,0:0:0:0:
256,192,55547,1,8,0:0:0:0:
256,192,55808,1,8,0:0:0:0:
256,192,55895,1,8,0:0:0:0:
256,192,55982,1,0,0:0:0:0:
256,192,56069,1,0,0:0:0:0:
256,192,56329,1,8,0:0:0:0:
256,192,56590,1,0,0:0:0:0:
256,192,56851,1,8,0:0:0:0:
256,192,57111,1,8,0:0:0:0:
256,192,57242,1,0,0:0:0:0:
256,192,57372,1,8,0:0:0:0:
256,192,57503,1,0,0:0:0:0:
256,192,57633,1,8,0:0:0:0:
256,192,57698,1,8,0:0:0:0:
256,192,57764,1,0,0:0:0:0:
256,192,57894,1,0,0:0:0:0:
256,192,58024,1,0,0:0:0:0:
256,192,58155,1,8,0:0:0:0:
256,192,58285,1,0,0:0:0:0:
256,192,58416,1,8,0:0:0:0:
256,192,58807,1,0,0:0:0:0:
256,192,58872,1,0,0:0:0:0:
256,192,58937,1,0,0:0:0:0:
256,192,59198,1,8,0:0:0:0:
256,192,59459,1,8,0:0:0:0:
256,192,59720,1,8,0:0:0:0:
256,192,59981,1,8,0:0:0:0:
256,192,60242,1,0,0:0:0:0:
256,192,60372,1,0,0:0:0:0:
256,192,60437,1,0,0:0:0:0:
256,192,60503,1,8,0:0:0:0:
256,192,60633,1,0,0:0:0:0:
256,192,60764,1,8,0:0:0:0:
256,192,61024,1,0,0:0:0:0:
256,192,61155,1,0,0:0:0:0:
256,192,61220,1,0,0:0:0:0:
256,192,61285,1,8,0:0:0:0:
256,192,61416,1,0,0:0:0:0:
256,192,61546,1,8,0:0:0:0:
256,192,61807,1,0,0:0:0:0:
256,192,61937,1,8,0:0:0:0:
256,192,62003,1,8,0:0:0:0:
256,192,62068,1,0,0:0:0:0:
256,192,62198,1,0,0:0:0:0:
256,192,62329,1,8,0:0:0:0:
256,192,62394,1,8,0:0:0:0:
256,192,62459,1,0,0:0:0:0:
256,192,62590,1,0,0:0:0:0:
256,192,62720,1,0,0:0:0:0:
256,192,62785,1,0,0:0:0:0:
256,192,62850,1,8,0:0:0:0:
256,192,63111,1,8,0:0:0:0:
256,192,63242,1,0,0:0:0:0:
256,192,63307,1,0,0:0:0:0:
256,192,63372,1,8,0:0:0:0:
256,192,63503,1,8,0:0:0:0:
256,192,63568,1,0,0:0:0:0:
256,192,63633,1,8,0:0:0:0:
256,192,63764,1,0,0:0:0:0:
256,192,63894,1,8,0:0:0:0:
256,192,64024,1,8,0:0:0:0:
256,192,64090,1,0,0:0:0:0:
256,192,64155,1,8,0:0:0:0:
256,192,64285,1,0,0:0:0:0:
256,192,64350,1,0,0:0:0:0:
256,192,64416,1,8,0:0:0:0:
256,192,64546,1,0,0:0:0:0:
256,192,64677,1,8,0:0:0:0:
256,192,64937,1,0,0:0:0:0:
256,192,65068,1,8,0:0:0:0:
256,192,65133,1,0,0:0:0:0:
256,192,65198,1,0,0:0:0:0:
256,192,65329,1,0,0:0:0:0:
256,192,65459,1,8,0:0:0:0:
256,192,65590,1,0,0:0:0:0:
256,192,65720,1,0,0:0:0:0:
256,192,65850,1,0,0:0:0:0:
256,192,65916,1,0,0:0:0:0:
256,192,65981,1,8,0:0:0:0:
256,192,66111,1,8,0:0:0:0:
256,192,66242,1,8,0:0:0:0:
256,192,66328,1,0,0:0:0:0:
256,192,66415,1,0,0:0:0:0:
256,192,66502,1,8,0:0:0:0:
256,192,66633,1,0,0:0:0:0:
256,192,66763,1,8,0:0:0:0:
256,192,67024,1,8,0:0:0:0:
256,192,67155,1,8,0:0:0:0:
256,192,67220,1,0,0:0:0:0:
256,192,67285,1,0,0:0:0:0:
256,192,67415,1,0,0:0:0:0:
256,192,67546,1,8,0:0:0:0:
256,192,67676,1,0,0:0:0:0:
256,192,67807,1,8,0:0:0:0:
256,192,67937,1,0,0:0:0:0:
256,192,68002,1,0,0:0:0:0:
256,192,68068,1,8,0:0:0:0:
256,192,68198,1,0,0:0:0:0:
256,192,68328,1,8,0:0:0:0:
256,192,68459,1,0,0:0:0:0:
256,192,68524,1,0,0:0:0:0:
256,192,68589,1,8,0:0:0:0:
256,192,68720,1,8,0:0:0:0:
256,192,68785,1,0,0:0:0:0:
256,192,68850,1,8,0:0:0:0:
256,192,69111,1,8,0:0:0:0:
256,192,69285,1,0,0:0:0:0:
256,192,69372,1,8,0:0:0:0:
256,192,69633,1,8,0:0:0:0:
256,192,69894,1,8,0:0:0:0:
256,192,70155,1,0,0:0:0:0:
256,192,70415,1,8,0:0:0:0:
256,192,70502,1,0,0:0:0:0:
256,192,70589,1,0,0:0:0:0:
256,192,70676,1,0,0:0:0:0:
256,192,70937,1,8,0:0:0:0:
256,192,71198,1,0,0:0:0:0:
256,192,71458,1,8,0:0:0:0:
256,192,71544,1,8,0:0:0:0:
256,192,71631,1,0,0:0:0:0:
256,192,71718,1,8,0:0:0:0:
256,192,71805,1,8,0:0:0:0:
256,192,71892,1,0,0:0:0:0:
256,192,71979,1,8,0:0:0:0:
256,192,72110,1,0,0:0:0:0:
256,192,72371,1,8,0:0:0:0:
256,192,72501,1,8,0:0:0:0:
256,192,72631,1,0,0:0:0:0:
256,192,72697,1,0,0:0:0:0:
256,192,72762,1,8,0:0:0:0:
256,192,72892,1,8,0:0:0:0:
256,192,73023,1,8,0:0:0:0:
256,192,73110,1,0,0:0:0:0:
256,192,73197,1,0,0:0:0:0:
256,192,73284,1,8,0:0:0:0:
256,192,73371,1,8,0:0:0:0:
256,192,73458,1,0,0:0:0:0:
256,192,73544,1,8,0:0:0:0:
256,192,73675,1,0,0:0:0:0:
256,192,73936,1,0,0:0:0:0:
256,192,74001,1,8,0:0:0:0:
256,192,74066,1,8,0:0:0:0:
256,192,74131,1,0,0:0:0:0:
256,192,74197,1,0,0:0:0:0:
256,192,74327,1,8,0:0:0:0:
256,192,74458,1,0,0:0:0:0:
256,192,74588,1,8,0:0:0:0:
256,192,74718,1,8,0:0:0:0:
256,192,74979,1,0,0:0:0:0:
256,192,75044,1,0,0:0:0:0:
256,192,75110,1,8,0:0:0:0:
256,192,75175,1,8,0:0:0:0:
256,192,75371,1,0,0:0:0:0:
256,192,75631,1,8,0:0:0:0:
256,192,75827,1,0,0:0:0:0:
256,192,75892,1,8,0:0:0:0:
256,192,76023,1,8,0:0:0:0:
256,192,76153,1,0,0:0:0:0:
256,192,76240,1,8,0:0:0:0:
256,192,76327,1,0,0:0:0:0:
256,192,76414,1,8,0:0:0:0:
256,192,76501,1,0,0:0:0:0:
256,192,76588,1,0,0:0:0:0:
256,192,76675,1,8,0:0:0:0:
256,192,76805,1,0,0:0:0:0:
256,192,76936,1,8,0:0:0:0:
256,192,77197,1,0,0:0:0:0:
256,192,77371,1,0,0:0:0:0:
256,192,77458,1,0,0:0:0:0:
256,192,77718,1,0,0:0:0:0:
256,192,77849,1,0,0:0:0:0:
256,192,77979,1,8,0:0:0:0:
256,192,78110,1,0,0:0:0:0:
256,192,78175,1,0,0:0:0:0:
256,192,78240,1,0,0:0:0:0:
256,192,78371,1,8,0:0:0:0:
256,192,78501,1,8,0:0:0:0:
256,192,78631,1,0,0:0:0:0:
256,192,78762,1,0,0:0:0:0:
256,192,78892,1,8,0:0:0:0:
256,192,78957,1,8,0:0:0:0:
256,192,79023,1,8,0:0:0:0:
256,192,79153,1,0,0:0:0:0:
256,192,79284,1,8,0:0:0:0:
256,192,79414,1,8,0:0:0:0:
256,192,79544,1,8,0:0:0:0:
256,192,79675,1,0,0:0:0:0:
256,192,79740,1,0,0:0:0:0:
256,192,79805,1,0,0:0:0:0:
256,192,79936,1,8,0:0:0:0:
256,192,80066,1,8,0:0:0:0:
256,192,80197,1,0,0:0:0:0:
256,192,80262,1,0,0:0:0:0:
256,192,80327,1,0,0:0:0:0:
256,192,80457,1,8,0:0:0:0:
256,192,80523,1,0,0:0:0:0:
256,192,80588,1,8,0:0:0:0:
256,192,80718,1,8,0:0:0:0:
256,192,80784,1,0,0:0:0:0:
256,192,80849,1,0,0:0:0:0:
256,192,82414,1,8,0:0:0:0:
256,192,82544,1,8,0:0:0:0:
256,192,82805,1,8,0:0:0:0:
256,192,83197,1,0,0:0:0:0:
256,192,83457,1,0,0:0:0:0:
256,192,83718,1,8,0:0:0:0:
256,192,83979,1,8,0:0:0:0:
256,192,90240,5,8,0:0:0:0:
256,192,90500,1,0,0:0:0:0:
256,192,90761,1,8,0:0:0:0:
256,192,91022,1,8,0:0:0:0:
256,192,91283,1,0,0:0:0:0:
256,192,91544,1,8,0:0:0:0:
256,192,91805,1,0,0:0:0:0:
256,192,92066,1,0,0:0:0:0:
256,192,92326,1,8,0:0:0:0:
256,192,92587,1,0,0:0:0:0:
256,192,92848,1,8,0:0:0:0:
256,192,93108,1,8,0:0:0:0:
256,192,93239,1,0,0:0:0:0:
256,192,93369,1,8,0:0:0:0:
256,192,93500,1,0,0:0:0:0:
256,192,93630,1,8,0:0:0:0:
256,192,93695,1,8,0:0:0:0:
256,192,93761,1,0,0:0:0:0:
256,192,93891,1,0,0:0:0:0:
256,192,94021,1,0,0:0:0:0:
256,192,94152,1,8,0:0:0:0:
256,192,94282,1,0,0:0:0:0:
256,192,94413,1,8,0:0:0:0:
256,192,94804,1,0,0:0:0:0:
256,192,94869,1,0,0:0:0:0:
256,192,94934,1,0,0:0:0:0:
256,192,95195,1,8,0:0:0:0:
256,192,95456,1,8,0:0:0:0:
256,192,95717,1,8,0:0:0:0:
256,192,95978,1,8,0:0:0:0:
256,192,96065,1,8,0:0:0:0:
256,192,96152,1,8,0:0:0:0:
256,192,96239,1,0,0:0:0:0:
256,192,96369,1,0,0:0:0:0:
256,192,96500,1,8,0:0:0:0:
256,192,96630,1,0,0:0:0:0:
256,192,96761,1,8,0:0:0:0:
256,192,96826,1,0,0:0:0:0:
256,192,96891,1,8,0:0:0:0:
256,192,96956,1,8,0:0:0:0:
256,192,97021,1,0,0:0:0:0:
256,192,97087,1,0,0:0:0:0:
256,192,97152,1,8,0:0:0:0:
256,192,97282,1,8,0:0:0:0:
256,192,97543,1,8,0:0:0:0:
256,192,97804,1,0,0:0:0:0:
256,192,97934,1,0,0:0:0:0:
256,192,98065,1,8,0:0:0:0:
256,192,98326,1,8,0:0:0:0:
256,192,98456,1,8,0:0:0:0:
256,192,98587,1,0,0:0:0:0:
256,192,98848,1,8,0:0:0:0:
256,192,99108,1,8,0:0:0:0:
256,192,99369,1,0,0:0:0:0:
256,192,99500,1,0,0:0:0:0:
256,192,99565,1,0,0:0:0:0:
256,192,99630,1,8,0:0:0:0:
256,192,99761,1,0,0:0:0:0:
256,192,99891,1,8,0:0:0:0:
256,192,100021,1,8,0:0:0:0:
256,192,100152,1,0,0:0:0:0:
256,192,100282,1,0,0:0:0:0:
256,192,100347,1,0,0:0:0:0:
256,192,100413,1,8,0:0:0:0:
256,192,100674,1,8,0:0:0:0:
256,192,100804,1,0,0:0:0:0:
256,192,100869,1,0,0:0:0:0:
256,192,100934,1,8,0:0:0:0:
256,192,101065,1,8,0:0:0:0:
256,192,101130,1,0,0:0:0:0:
256,192,101195,1,8,0:0:0:0:
256,192,101456,1,8,0:0:0:0:
256,192,101587,1,0,0:0:0:0:
256,192,101652,1,0,0:0:0:0:
256,192,101717,1,8,0:0:0:0:
256,192,101847,1,8,0:0:0:0:
256,192,101913,1,0,0:0:0:0:
256,192,101978,1,8,0:0:0:0:
256,192,102108,1,0,0:0:0:0:
256,192,102239,1,8,0:0:0:0:
256,192,102500,1,0,0:0:0:0:
256,192,102630,1,0,0:0:0:0:
256,192,102695,1,0,0:0:0:0:
256,192,102761,1,8,0:0:0:0:
256,192,102891,1,0,0:0:0:0:
256,192,103021,1,0,0:0:0:0:
256,192,103152,1,0,0:0:0:0:
256,192,103282,1,8,0:0:0:0:
256,192,103413,1,0,0:0:0:0:
256,192,103478,1,0,0:0:0:0:
256,192,103543,1,8,0:0:0:0:
256,192,103674,1,8,0:0:0:0:
256,192,103739,1,8,0:0:0:0:
256,192,103804,1,8,0:0:0:0:
256,192,103934,1,0,0:0:0:0:
256,192,104064,1,0,0:0:0:0:
256,192,104195,1,0,0:0:0:0:
256,192,104260,1,0,0:0:0:0:
256,192,104325,1,8,0:0:0:0:
256,192,104586,1,8,0:0:0:0:
256,192,104717,1,0,0:0:0:0:
256,192,104782,1,0,0:0:0:0:
256,192,104847,1,8,0:0:0:0:
256,192,104977,1,0,0:0:0:0:
256,192,105108,1,8,0:0:0:0:
256,192,105173,1,8,0:0:0:0:
256,192,105238,1,0,0:0:0:0:
256,192,105304,1,0,0:0:0:0:
256,192,105369,1,8,0:0:0:0:
256,192,105499,1,8,0:0:0:0:
256,192,105564,1,0,0:0:0:0:
256,192,105630,1,0,0:0:0:0:
256,192,105890,1,8,0:0:0:0:
256,192,106021,1,0,0:0:0:0:
256,192,106086,1,0,0:0:0:0:
256,192,106151,1,8,0:0:0:0:
256,192,106282,1,8,0:0:0:0:
256,192,106347,1,8,0:0:0:0:
256,192,106412,1,0,0:0:0:0:
256,192,106673,1,0,0:0:0:0:
256,192,106934,1,8,0:0:0:0:
256,192,107195,1,0,0:0:0:0:
256,192,107456,1,0,0:0:0:0:
256,192,107717,1,8,0:0:0:0:
256,192,107847,1,0,0:0:0:0:
256,192,107912,1,0,0:0:0:0:
256,192,107977,1,8,0:0:0:0:
256,192,108108,1,8,0:0:0:0:
256,192,108173,1,0,0:0:0:0:
256,192,108238,1,0,0:0:0:0:
256,192,108369,1,0,0:0:0:0:
256,192,108434,1,0,0:0:0:0:
256,192,108499,1,8,0:0:0:0:
256,192,108630,1,0,0:0:0:0:
256,192,108760,1,8,0:0:0:0:
256,192,108890,1,0,0:0:0:0:
256,192,108956,1,0,0:0:0:0:
256,192,109020,1,8,0:0:0:0:
256,192,109150,1,0,0:0:0:0:
256,192,109280,1,8,0:0:0:0:
256,192,109411,1,0,0:0:0:0:
256,192,109541,1,8,0:0:0:0:
256,192,109802,1,8,0:0:0:0:
256,192,109933,1,0,0:0:0:0:
256,192,110063,1,8,0:0:0:0:
256,192,110193,1,8,0:0:0:0:
256,192,110324,1,8,0:0:0:0:
256,192,110454,1,8,0:0:0:0:
256,192,110585,1,0,0:0:0:0:
256,192,110846,1,8,0:0:0:0:
256,192,111106,1,8,0:0:0:0:
256,192,111237,1,0,0:0:0:0:
256,192,111367,1,8,0:0:0:0:
256,192,111498,1,0,0:0:0:0:
256,192,111628,1,8,0:0:0:0:
256,192,111759,1,8,0:0:0:0:
256,192,111889,1,0,0:0:0:0:
256,192,112150,1,0,0:0:0:0:
256,192,112237,1,0,0:0:0:0:
256,192,112324,1,0,0:0:0:0:
256,192,112411,1,8,0:0:0:0:
256,192,112541,1,0,0:0:0:0:
256,192,112672,1,8,0:0:0:0:
256,192,112802,1,0,0:0:0:0:
256,192,112933,1,8,0:0:0:0:
256,192,113020,1,8,0:0:0:0:
256,192,113106,1,8,0:0:0:0:
256,192,113193,1,8,0:0:0:0:
256,192,113324,1,0,0:0:0:0:
256,192,113454,1,8,0:0:0:0:
256,192,113585,1,0,0:0:0:0:
256,192,113715,1,8,0:0:0:0:
256,192,113976,1,0,0:0:0:0:
256,192,114106,1,0,0:0:0:0:
256,192,114237,1,8,0:0:0:0:
256,192,114367,1,0,0:0:0:0:
256,192,114498,1,0,0:0:0:0:
256,192,114628,1,0,0:0:0:0:
256,192,114759,1,8,0:0:0:0:
256,192,114889,1,0,0:0:0:0:
256,192,115020,1,8,0:0:0:0:
256,192,115106,1,8,0:0:0:0:
256,192,115193,1,8,0:0:0:0:
256,192,115280,1,8,0:0:0:0:
256,192,115801,1,8,0:0:0:0:
256,192,115932,1,0,0:0:0:0:
256,192,116062,1,8,0:0:0:0:
256,192,116193,1,0,0:0:0:0:
256,192,116323,1,8,0:0:0:0:
256,192,116453,1,0,0:0:0:0:
256,192,116584,1,8,0:0:0:0:
256,192,116649,1,8,0:0:0:0:
256,192,116714,1,8,0:0:0:0:
256,192,116845,1,8,0:0:0:0:
256,192,116975,1,8,0:0:0:0:
256,192,117106,1,0,0:0:0:0:
256,192,117236,1,0,0:0:0:0:
256,192,117366,1,8,0:0:0:0:
256,192,117432,1,8,0:0:0:0:
256,192,117497,1,0,0:0:0:0:
256,192,117627,1,8,0:0:0:0:
256,192,117758,1,0,0:0:0:0:
256,192,117888,1,0,0:0:0:0:
256,192,118149,1,0,0:0:0:0:
256,192,118280,1,0,0:0:0:0:
256,192,118345,1,0,0:0:0:0:
256,192,118410,1,8,0:0:0:0:
256,192,118540,1,0,0:0:0:0:
256,192,118671,1,8,0:0:0:0:
256,192,118801,1,0,0:0:0:0:
256,192,118932,1,8,0:0:0:0:
256,192,119062,1,0,0:0:0:0:
256,192,119193,1,8,0:0:0:0:
256,192,119453,1,8,0:0:0:0:
256,192,119540,1,0,0:0:0:0:
256,192,119627,1,0,0:0:0:0:
256,192,119714,1,0,0:0:0:0:
256,192,119845,1,0,0:0:0:0:
256,192,119975,1,8,0:0:0:0:
256,192,120106,1,0,0:0:0:0:
256,192,120171,1,0,0:0:0:0:
256,192,120236,1,0,0:0:0:0:
256,192,120366,1,8,0:0:0:0:
256,192,120432,1,0,0:0:0:0:
256,192,120497,1,0,0:0:0:0:
256,192,120758,1,0,0:0:0:0:
