osu file format v14

[General]
AudioFilename: audio.mp3
AudioLeadIn: 0
PreviewTime: 307065
Countdown: 0
SampleSet: Soft
StackLeniency: 0.7
Mode: 0
LetterboxInBreaks: 0
WidescreenStoryboard: 1

[Editor]
Bookmarks: 58815,77638,96462,103227,105874,108227,115285,124697,134109,143521,152932,171751,171756,178815,190579,209403,228227,228374,248422,268433,278433,288389,307212,326036,344859,363683,364418,382506,396771
DistanceSpacing: 1.7
BeatDivisor: 4
GridSize: 4
TimelineZoom: 2.44

[Metadata]
Title:Phantasmagoria
TitleUnicode:ファンタスマゴリア
Artist:Shikata Akiko, Shimotsuki Haruka, Mitose Noriko
ArtistUnicode:志方あきこ、霜月はるか、みとせのりこ
Creator:Shurelia
Version:Sol Ciel
Source:アルトネリコ~世界の終わりで詩い続ける少女~
Tags:Gust NIS America Ar Tonelico Sekai no Owari de Utai Tsuzukeru Shoujo The Girl Who Continues to Sing at the End of the World Melody of Elemia Aurica Nestmile オリカ ネストミール Misha Arsellec Lune 彌紗 アルトセルク・リューン シュレリア Visual Novel Best ending JRPG ps2 Mir Teiwaz
BeatmapID:1167368
BeatmapSetID:537383

[Difficulty]
HPDrainRate:5.9
CircleSize:4
OverallDifficulty:7.2
ApproachRate:8.5
SliderMultiplier:1.4
SliderTickRate:1

[Events]
//Background and Video events
0,0,"atbgbg.jpg",0,0
//Break Periods
2,228569,247763
//Storyboard Layer 0 (Background)
//Storyboard Layer 1 (Fail)
//Storyboard Layer 2 (Pass)
//Storyboard Layer 3 (Foreground)
//Storyboard Sound Samples

[TimingPoints]
492,634.920634920635,4,2,99,10,1,0
11808,736.196319018405,4,2,98,15,1,0
14384,-100,4,2,99,15,0,0
16847,833.333333333333,4,2,0,13,1,0
17267,731.707317073171,4,2,0,13,1,0
17638,659.340659340659,4,2,0,13,1,0
17969,759.493670886076,4,2,0,12,1,0
18309,759.493670886076,4,2,0,11,1,0
18670,1020.94915254237,4,2,99,15,1,0
19182,545.454545454546,4,2,0,15,1,0
19454,521.739130434783,4,2,0,15,1,0
19718,566.037735849057,4,2,0,15,1,0
20004,631.578947368421,4,2,0,15,1,0
20201,470.588235294118,4,2,0,15,1,0
20319,615.384615384615,4,2,0,5,1,0
20397,468.75,4,2,0,5,1,0
20515,615.384615384615,4,2,0,5,1,0
20593,1165.04854368932,4,2,98,25,1,0
21181,1000,4,2,0,18,1,0
21694,558.139534883721,4,2,0,20,1,0
21976,869.565217391304,4,2,0,20,1,0
22418,705.882352941176,4,2,0,18,1,0
22783,666.666666666667,4,2,0,20,1,0
23122,590.235294117647,4,2,99,24,1,0
23710,740.740740740741,4,2,0,20,1,0
24450,545.454545454546,4,2,0,20,1,0
24995,769.230769230769,4,2,0,15,1,0
25379,468.75,4,2,0,15,1,0
25847,750,4,2,0,17,1,0
26222,444.444444444444,4,2,0,17,1,0
26666,833.333333333333,4,2,0,16,1,0
27082,937.5,4,2,0,18,1,0
27550,697.882352941176,4,2,99,20,1,0
27550,-153.846153846153,4,2,99,20,0,0
27726,612.244897959184,4,2,0,20,1,0
29409,779.220779220779,4,2,0,20,1,0
30577,588.235294117647,4,2,97,15,1,0
30577,-100,4,2,97,15,0,0
38223,588.235294117647,3,2,97,5,1,0
38223,-133.333333333333,3,2,97,5,0,0
39693,-133.333333333333,3,2,99,5,0,0
39987,588.235294117647,4,2,99,10,1,0
39987,-133.333333333333,4,2,99,10,0,0
58222,-133.333333333333,4,2,0,12,0,0
58516,-133.333333333333,4,2,0,14,0,0
58810,-100,4,2,96,16,0,0
68222,-100,4,2,98,20,0,0
68810,-100,4,2,96,20,0,0
77045,-100,4,2,96,22,0,0
77339,-100,4,2,96,24,0,0
77634,-100,4,2,98,24,0,0
78075,-100,4,2,96,24,0,0
78222,-100,4,2,96,24,0,0
96457,-100,4,2,98,24,0,0
96751,-100,4,2,96,24,0,0
108222,-100,4,2,98,24,0,0
108516,-100,4,2,96,24,0,0
115281,-100,4,2,95,28,0,0
134104,-100,4,2,96,35,0,0
152781,-100,4,2,96,39,0,0
152928,-83.3333333333333,4,2,98,39,0,1
153075,-83.3333333333333,4,2,98,39,0,0
153516,-83.3333333333333,4,2,96,39,0,0
171457,-83.3333333333333,4,2,0,39,0,0
171751,-83.3333333333333,4,2,98,39,0,1
171898,-83.3333333333333,4,2,96,39,0,0
190575,-100,4,2,94,13,0,0
208516,-100,4,2,94,20,0,0
209104,-100,4,2,96,23,0,0
209202,-100,4,2,96,26,0,0
209300,-100,4,2,96,29,0,0
209398,-100,4,2,98,33,0,0
209839,-100,4,2,96,33,0,0
218810,-100,4,2,98,33,0,0
219398,-100,4,2,96,33,0,0
225575,-100,4,2,99,33,0,0
228369,-100,4,2,1,5,0,0
248437,-100,4,2,97,5,0,0
248438,625,4,2,97,5,1,0
253437,-100,4,2,97,10,0,0
267187,-100,4,2,96,14,0,0
267499,-100,4,2,96,18,0,0
267812,-100,4,2,96,23,0,0
268124,-100,4,2,96,27,0,0
268424,625,4,2,98,27,1,0
269049,625,4,2,98,33,1,0
270924,625,4,2,98,33,1,0
277174,-100,4,2,96,18,0,0
277486,-100,4,2,96,23,0,0
277799,-100,4,2,96,27,0,0
278111,-100,4,2,96,33,0,0
278424,-100,4,2,98,33,0,0
279049,-100,4,2,96,33,0,0
283424,-100,4,2,98,33,0,0
284049,-100,4,2,96,33,0,0
286470,-100,4,2,1,5,0,0
286549,-100,4,2,96,33,0,0
287174,-100,4,2,96,33,0,0
288390,588.235294117647,4,2,98,35,1,1
288537,-100,4,2,98,35,0,0
288978,-100,4,2,96,35,0,0
293094,-100,4,2,98,35,0,0
293683,-100,4,2,96,35,0,0
297800,-90.9090909090909,4,2,98,35,0,0
298389,-90.9090909090909,4,2,96,35,0,0
302506,-90.9090909090909,4,2,98,35,0,0
303094,-90.9090909090909,4,2,96,35,0,0
307066,-100,4,2,1,35,0,0
307213,-76.9230769230769,4,2,98,40,0,1
307800,-76.9230769230769,4,2,96,40,0,1
325890,-100,4,2,1,40,0,0
326037,-76.9230769230769,4,2,98,40,0,1
326624,-76.9230769230769,4,2,96,40,0,1
344713,-100,4,2,96,40,0,0
344860,-76.9230769230769,4,2,98,40,0,1
345447,-76.9230769230769,4,2,96,40,0,1
363537,-100,4,2,96,40,0,0
363684,-76.9230769230769,4,2,98,40,0,1
364271,-76.9230769230769,4,2,96,40,0,1
382507,-76.9230769230769,4,2,96,40,0,0
401330,-83.3333333333333,4,2,96,30,0,0
406036,-90.9090909090909,4,2,96,25,0,0
410741,-100,4,2,96,20,0,0
413095,-100,4,2,96,15,0,0
414271,-100,4,2,96,10,0,0
420153,-100,4,2,98,5,0,0
434419,674.157303370787,4,2,1,20,1,0
435767,674.157303370787,4,2,1,20,1,0

[Colours]
Combo1 : 58,177,58
Combo2 : 101,158,205
Combo3 : 222,170,118
Combo4 : 191,191,191

[HitObjects]
228,20,492,5,2,0:0:0:0:
180,89,809,1,0,0:0:0:0:
264,94,1126,1,0,0:0:0:0:
302,257,1761,5,0,0:0:0:0:
220,255,2079,1,0,0:0:0:0:
258,329,2396,1,0,0:0:0:0:
411,206,3031,5,0,0:0:0:0:
454,135,3349,1,0,0:0:0:0:
371,131,3666,1,0,0:0:0:0:
74,118,4301,5,0,0:0:0:0:
157,120,4618,1,0,0:0:0:0:
119,46,4936,1,0,0:0:0:0:
178,306,5571,5,2,0:0:0:0:
98,330,5888,1,0,0:0:0:0:
116,249,6206,1,0,0:0:0:0:
389,184,6841,5,0,0:0:0:0:
312,151,7158,1,0,0:0:0:0:
378,101,7476,1,0,0:0:0:0:
289,342,8111,5,0,0:0:0:0:
293,259,8428,1,0,0:0:0:0:
363,304,8745,1,0,0:0:0:0:
223,42,9380,5,0,0:0:0:0:
219,125,9698,1,0,0:0:0:0:
149,80,10015,1,0,0:0:0:0:
145,219,11497,6,0,L|125:179,2,23.3333333333333
145,219,11808,6,0,B|191:205|232:158|232:158|287:166|339:147,1,210,4|0,0:0|0:0,0:0:0:0:
408,94,13280,1,0,0:0:0:0:
404,211,13648,2,0,P|381:238|355:261,1,70
366,342,14384,6,0,B|431:337|468:357|468:357|524:293|467:267|503:183,1,280,2|0,0:0|0:0,0:0:0:0:
501,108,16225,2,0,P|440:129|425:160,1,70
404,60,16847,6,0,P|377:81|362:112,1,70
316,190,17638,1,0,0:0:0:0:
246,162,17969,1,0,0:0:0:0:
175,135,18309,1,0,0:0:0:0:
128,192,18670,6,0,P|231:184|227:82,1,210,2|0,0:0|0:0,0:0:0:0:
172,136,20593,5,4,0:0:0:0:
249,174,21181,6,0,P|258:117|253:103,1,70
285,19,21976,2,0,P|331:52|339:67,1,70
361,181,22783,1,0,0:0:0:0:
421,136,23122,6,0,P|432:204|295:145,1,315,2|0,0:0|0:0,0:0:0:0:
320,73,24995,6,0,P|242:88|237:94,1,70
179,218,25847,2,0,P|185:180|211:153,1,70
301,155,26666,2,0,P|295:193|269:220,1,70
229,161,27550,6,0,P|343:98|320:224,1,318.499985420228,2|0,0:0|0:0,0:0:0:0:
301,156,30577,6,0,P|250:85|262:36,1,140,4|0,0:0|0:0,0:0:0:0:
331,82,31459,1,0,0:0:0:0:
390,24,31753,1,0,0:0:0:0:
409,105,32047,1,0,0:0:0:0:
477,56,32341,2,0,P|491:93|475:152,1,70,0|0,0:0|0:0,0:0:0:0:
431,184,32929,5,0,0:0:0:0:
409,105,33224,1,0,0:0:0:0:
336,146,33518,1,0,0:0:0:0:
359,228,33812,1,0,0:0:0:0:
336,146,34106,2,0,P|289:177|281:194,1,70,2|0,0:0|0:0,0:0:0:0:
431,184,34694,2,0,P|445:228|426:275,1,70,2|0,0:0|0:0,0:0:0:0:
255,98,35282,6,0,P|279:42|375:28,1,140
416,71,36165,1,0,0:0:0:0:
354,135,36459,2,0,P|346:170|306:209,1,70
269,260,37047,2,0,P|248:287|240:321,1,70
325,196,37635,6,0,P|358:151|359:82,1,105
363,103,38224,2,0,B|324:116|324:116|296:108|296:108|264:116|264:116|216:92|192:120|160:104|160:104,1,210.000008010865,2|0,0:0|0:0,0:0:0:0:
237,201,39693,1,0,0:0:0:0:
237,201,39987,6,0,L|172:192,1,52.5000020027161,2|0,0:0|0:0,0:0:0:0:
104,164,40575,2,0,L|51:171,1,52.5000020027161,2|0,0:0|0:0,0:0:0:0:
156,258,41163,1,0,0:0:0:0:
68,248,41457,1,0,0:0:0:0:
180,348,41751,1,0,0:0:0:0:
96,328,42045,1,0,0:0:0:0:
265,335,42339,6,0,P|296:332|327:308,1,52.5000020027161,2|0,0:0|0:0,0:0:0:0:
268,250,42928,1,0,0:0:0:0:
216,183,43222,1,0,0:0:0:0:
341,95,43516,1,0,0:0:0:0:
303,174,43810,1,0,0:0:0:0:
246,104,44104,1,0,0:0:0:0:
216,183,44398,1,0,0:0:0:0:
353,181,44692,6,0,P|328:173|302:173,1,52.5000020027161,2|0,0:0|0:0,0:0:0:0:
318,258,45281,2,0,P|292:257|267:249,1,52.5000020027161
221,95,45869,1,0,0:0:0:0:
173,174,46163,1,0,0:0:0:0:
173,21,46457,1,0,0:0:0:0:
126,95,46751,1,0,0:0:0:0:
317,57,47045,6,0,L|382:80,1,52.5000020027161,2|0,0:0|0:0,0:0:0:0:
385,167,47634,2,0,L|320:144,1,52.5000020027161
331,301,48222,1,0,0:0:0:0:
298,225,48516,1,0,0:0:0:0:
415,277,48810,2,0,P|418:303|414:329,1,52.5000020027161
354,146,49398,6,0,P|343:83|368:36,1,105.000004005432,2|0,0:0|0:0,0:0:0:0:
428,0,50281,1,0,0:0:0:0:
416,102,50575,2,0,L|462:76,1,52.5000020027161
464,171,51163,1,0,0:0:0:0:
391,213,51457,1,0,0:0:0:0:
302,208,51751,6,0,P|304:234|316:258,1,52.5000020027161,2|0,0:0|0:0,0:0:0:0:
391,213,52339,1,0,0:0:0:0:
348,127,52634,1,0,0:0:0:0:
253,128,52928,1,0,0:0:0:0:
302,208,53222,1,0,0:0:0:0:
201,208,53516,1,0,0:0:0:0:
253,128,53810,1,0,0:0:0:0:
104,126,54104,6,0,B|122:69|122:69|166:41,1,105.000004005432,2|0,0:0|0:0,0:0:0:0:
253,128,54987,1,0,0:0:0:0:
200,207,55281,2,0,L|170:250,1,52.5000020027161
302,208,55869,1,0,0:0:0:0:
256,289,56163,1,0,0:0:0:0:
397,300,56457,6,0,P|433:268|444:247,1,52.5000020027161,2|0,0:0|0:0,0:0:0:0:
467,183,57045,1,0,0:0:0:0:
471,99,57339,1,0,0:0:0:0:
425,28,57634,1,0,0:0:0:0:
265,79,58222,6,0,L|222:94,1,26.2500010013581
267,173,58516,2,0,L|219:168,1,26.2500010013581
136,168,58810,6,0,P|146:215|234:275,1,140,4|2,0:0|0:0,0:0:0:0:
296,276,59692,1,0,0:0:0:0:
363,331,59987,2,0,P|381:264|348:205,1,140,8|2,0:0|0:0,0:0:0:0:
272,168,60869,1,0,0:0:0:0:
234,52,61163,6,0,P|250:21|278:0,1,70,4|0,0:0|0:0,0:0:0:0:
321,76,61751,1,2,0:0:0:0:
385,125,62045,1,0,0:0:0:0:
464,85,62339,2,0,P|434:51|381:42,1,70,8|0,0:0|0:0,0:0:0:0:
321,76,62928,1,2,0:0:0:0:
297,156,63222,1,0,0:0:0:0:
193,45,63516,6,0,L|52:12,1,140,4|2,0:0|0:0,0:0:0:0:
63,105,64398,1,0,0:0:0:0:
155,129,64692,2,0,L|223:144,1,70,8|0,0:0|0:0,0:0:0:0:
215,237,65281,2,0,L|146:221,1,70,2|0,0:0|0:0,0:0:0:0:
4,267,65869,6,0,P|-5:301|7:343,1,70,4|0,0:0|0:0,0:0:0:0:
78,302,66457,2,0,P|87:268|75:225,1,70,2|0,0:0|0:0,0:0:0:0:
101,150,67045,2,0,P|66:148|15:177,1,70,8|0,0:0|0:0,0:0:0:0:
80,234,67634,2,0,P|115:234|147:220,1,70,2|0,0:0|0:0,0:0:0:0:
327,80,68222,6,0,P|400:50|469:95,1,140,4|2,0:0|0:0,0:0:0:0:
393,134,69104,1,0,0:0:0:0:
209,80,69398,2,0,P|136:50|67:95,1,140,8|2,0:0|0:0,0:0:0:0:
112,239,70575,6,0,P|146:213|201:207,1,70,4|0,0:0|0:0,0:0:0:0:
255,211,71163,1,2,0:0:0:0:
305,278,71457,1,0,0:0:0:0:
311,143,71751,2,0,P|333:169|343:203,1,70,8|0,0:0|0:0,0:0:0:0:
226,132,72339,2,0,P|203:105|194:72,1,70,2|0,0:0|0:0,0:0:0:0:
92,301,72928,6,0,P|158:286|192:226,1,140,4|2,0:0|0:0,0:0:0:0:
220,132,73810,1,0,0:0:0:0:
128,26,74104,2,0,P|62:41|28:101,1,140,4|2,0:0|0:0,0:0:0:0:
28,200,74987,1,0,0:0:0:0:
166,304,75281,6,0,B|209:277|224:237|224:237|264:251|300:235|300:235|326:283|385:300|442:281|464:252,1,350,4|0,0:0|0:0,0:0:0:0:
388,184,77045,2,0,L|388:140,1,35,8|8,0:0|0:0,0:0:0:0:
389,24,77339,2,0,L|389:59,1,35,8|8,0:0|0:0,0:0:0:0:
276,31,77634,6,0,L|160:84,1,105,4|8,0:0|0:0,0:0:0:0:
142,146,78222,2,0,P|109:112|101:79,1,70,2|0,0:0|0:0,0:0:0:0:
180,74,78810,2,0,P|214:112|220:163,1,105,8|8,0:0|0:0,0:0:0:0:
237,249,79398,2,0,P|209:251|155:219,1,70,2|0,0:0|0:0,0:0:0:0:
317,285,79987,6,0,P|375:303|435:272,1,105,4|8,0:0|0:0,0:0:0:0:
472,223,80575,2,0,P|420:202|381:208,1,70,2|0,0:0|0:0,0:0:0:0:
512,44,81163,2,0,P|525:91|503:152,1,105,8|8,0:0|0:0,0:0:0:0:
437,91,81751,2,0,P|424:58|424:23,1,70,2|0,0:0|0:0,0:0:0:0:
293,63,82339,5,4,0:0:0:0:
337,147,82634,2,0,B|313:220|371:220|325:300,1,140,0|8,0:0|0:0,0:0:0:0:
264,344,83369,1,0,0:0:0:0:
253,349,83516,2,0,P|214:351|172:322,1,70,8|8,0:0|0:0,0:0:0:0:
185,188,83957,2,0,P|223:224|231:275,1,105,2|8,0:0|0:0,0:0:0:0:
186,337,84545,1,8,0:0:0:0:
85,288,84692,6,0,P|38:279|0:228,1,105,4|8,0:0|0:0,0:0:0:0:
76,209,85281,2,0,L|131:142,1,70,2|8,0:0|0:0,0:0:0:0:
176,87,85722,1,0,0:0:0:0:
176,87,85869,2,0,P|201:117|209:160,1,70,8|0,0:0|0:0,0:0:0:0:
232,239,86310,2,0,P|226:270|229:289,1,35,8|2,0:0|0:0,0:0:0:0:
297,334,86604,2,0,P|307:301|305:267,1,70,8|0,0:0|0:0,0:0:0:0:
135,321,87045,5,4,0:0:0:0:
135,321,87339,2,0,L|83:254,1,70,8|2,0:0|0:0,0:0:0:0:
28,172,87928,1,8,0:0:0:0:
52,64,88222,1,8,0:0:0:0:
163,218,88516,2,0,L|215:285,1,70,8|2,0:0|0:0,0:0:0:0:
284,352,89104,1,8,0:0:0:0:
228,158,89398,6,0,P|164:130|110:146,1,105,4|8,0:0|0:0,0:0:0:0:
54,160,89987,2,0,P|58:99|81:70,1,70,2|8,0:0|0:0,0:0:0:0:
112,220,90575,1,8,0:0:0:0:
92,360,90869,2,0,P|156:353|214:295,1,140,10|8,0:0|0:0,0:0:0:0:
344,296,91604,1,0,0:0:0:0:
344,296,91751,6,0,P|386:325|438:327,1,105,4|8,0:0|0:0,0:0:0:0:
414,241,92339,2,0,P|371:211|346:207,1,70,2|8,0:0|0:0,0:0:0:0:
272,216,92781,1,0,0:0:0:0:
252,220,92928,1,0,0:0:0:0:
455,172,93222,2,0,P|412:142|303:132,1,140,8|8,0:0|0:0,0:0:0:0:
214,203,93957,1,8,0:0:0:0:
214,203,94104,6,0,P|141:205|95:172,1,105,4|8,0:0|0:0,0:0:0:0:
54,135,94692,2,0,P|72:122|106:113,1,35,2|8,0:0|0:0,0:0:0:0:
144,61,94987,2,0,P|131:48|115:40,1,35,8|8,0:0|0:0,0:0:0:0:
16,209,95281,6,0,P|68:214|114:190,1,105,8|0,0:0|0:0,0:0:0:0:
191,135,95869,1,2,0:0:0:0:
191,135,96016,2,0,P|232:121|271:130,1,70,8|0,0:0|0:0,0:0:0:0:
338,303,96457,6,0,P|347:337|339:373,1,70,4|0,0:0|0:0,0:0:0:0:
252,340,96898,1,0,0:0:0:0:
252,340,97045,2,0,L|217:346,1,35,2|8,0:0|0:0,0:0:0:0:
128,256,97339,2,0,L|160:268,1,35,8|0,0:0|0:0,0:0:0:0:
264,220,97634,1,8,0:0:0:0:
264,220,97928,6,0,L|280:180,1,35,8|0,0:0|0:0,0:0:0:0:
304,52,98222,2,0,L|316:85,1,35,2|8,0:0|0:0,0:0:0:0:
416,216,98516,2,0,L|403:183,1,35,8|0,0:0|0:0,0:0:0:0:
212,120,98810,1,4,0:0:0:0:
212,120,99104,6,0,L|181:103,1,35,0|8,0:0|0:0,0:0:0:0:
52,124,99398,2,0,L|82:142,1,35,2|8,0:0|0:0,0:0:0:0:
138,256,99692,2,0,L|108:240,1,35,8|0,0:0|0:0,0:0:0:0:
272,240,99987,1,8,0:0:0:0:
272,240,100281,6,0,L|307:240,2,35,0|8|2,0:0|0:0|0:0,0:0:0:0:
388,132,100869,2,0,L|370:132,2,17.5,0|0|8,0:0|0:0|0:0,0:0:0:0:
440,200,101163,6,0,L|475:200,1,35,4|8,0:0|0:0,0:0:0:0:
358,268,101457,2,0,L|393:268,1,35,0|8,0:0|0:0,0:0:0:0:
308,336,101751,1,2,0:0:0:0:
308,336,102045,2,0,L|308:353,2,17.5,8|0|0,0:0|0:0|0:0,0:0:0:0:
232,261,102339,6,0,L|232:296,1,35,4|8,0:0|0:0,0:0:0:0:
164,177,102634,2,0,L|164:212,1,35,0|8,0:0|0:0,0:0:0:0:
104,120,102928,1,2,0:0:0:0:
104,120,103222,2,0,L|86:120,2,17.5,8|0|0,0:0|0:0|0:0,0:0:0:0:
203,56,103516,6,0,L|168:56,1,35,4|8,0:0|0:0,0:0:0:0:
295,116,103810,2,0,L|260:116,1,35,0|8,0:0|0:0,0:0:0:0:
364,164,104104,1,2,0:0:0:0:
224,316,104398,5,8,0:0:0:0:
236,272,104545,1,0,0:0:0:0:
248,228,104692,1,0,0:0:0:0:
108,344,104986,1,8,0:0:0:0:
124,300,105134,1,0,0:0:0:0:
140,256,105281,1,2,0:0:0:0:
96,100,105575,2,0,L|96:72,2,17.5,0|0|8,0:0|0:0|0:0,0:0:0:0:
96,100,105869,6,0,P|69:122|49:151,1,70,4|8,0:0|0:0,0:0:0:0:
164,262,106457,2,0,P|190:239|210:210,1,70,2|8,0:0|0:0,0:0:0:0:
284,100,107045,2,0,P|318:105|349:120,1,70,4|8,0:0|0:0,0:0:0:0:
380,256,107634,2,0,P|348:271|314:276,1,70,2|8,0:0|0:0,0:0:0:0:
160,300,108222,6,0,P|125:306|94:322,1,70,4|8,0:0|0:0,0:0:0:0:
56,216,108810,1,2,0:0:0:0:
72,132,109104,1,8,0:0:0:0:
132,71,109398,2,0,P|165:64|200:66,1,70,4|8,0:0|0:0,0:0:0:0:
228,96,109839,2,0,P|262:98|296:90,1,70,0|0,0:0|0:0,0:0:0:0:
336,74,110281,1,2,0:0:0:0:
376,220,110575,6,0,P|383:253|380:288,1,70,4|8,0:0|0:0,0:0:0:0:
320,348,111163,1,2,0:0:0:0:
320,348,111457,1,0,0:0:0:0:
320,348,111751,2,0,P|286:355|251:352,1,70,4|8,0:0|0:0,0:0:0:0:
180,312,112339,1,2,0:0:0:0:
180,312,112634,1,0,0:0:0:0:
180,312,112928,6,0,L|120:275,1,70,4|8,0:0|0:0,0:0:0:0:
72,156,113516,2,0,L|131:192,1,70,2|8,0:0|0:0,0:0:0:0:
268,192,114104,2,0,L|208:155,1,70,4|8,0:0|0:0,0:0:0:0:
240,20,114692,1,2,0:0:0:0:
372,64,114986,1,8,0:0:0:0:
376,240,115281,6,0,L|424:260,2,46.6666666666667,14|8|0,0:0|0:0|0:0,0:0:0:0:
284,132,115869,2,0,L|240:114,2,46.6666666666667,0|0|8,0:0|0:0|0:0,0:0:0:0:
424,100,116457,2,0,L|472:120,2,46.6666666666667,8|8|0,0:0|0:0|0:0,0:0:0:0:
372,77,117045,1,0,0:0:0:0:
319,56,117241,1,0,0:0:0:0:
266,35,117437,1,0,0:0:0:0:
160,79,117634,6,0,L|117:97,2,46.6666666666667,10|0|8,0:0|0:0|0:0,0:0:0:0:
297,168,118222,2,0,L|343:187,2,46.6666666666667,8|0|0,0:0|0:0|0:0,0:0:0:0:
179,256,118810,2,0,L|129:278,2,46.6666666666667,8|8|8,0:0|0:0|0:0,0:0:0:0:
229,231,119398,1,0,0:0:0:0:
280,251,119594,1,0,0:0:0:0:
333,234,119790,1,0,0:0:0:0:
431,316,119986,6,0,L|468:351,2,46.6666666666667,10|8|0,0:0|0:0|0:0,0:0:0:0:
376,208,120575,2,0,L|342:176,2,46.6666666666667,0|0|8,0:0|0:0|0:0,0:0:0:0:
478,119,121163,2,0,L|514:151,1,46.6666666666667,8|8,0:0|0:0,0:0:0:0:
404,40,121555,1,0,0:0:0:0:
336,128,121751,2,0,L|301:159,1,46.6666666666667
196,196,122143,1,0,0:0:0:0:
96,308,122339,6,0,L|49:308,2,46.6666666666667,10|8|8,0:0|0:0|0:0,0:0:0:0:
240,240,122928,2,0,L|286:240,2,46.6666666666667,8|0|0,0:0|0:0|0:0,0:0:0:0:
120,148,123516,2,0,L|120:195,1,46.6666666666667,8|8,0:0|0:0,0:0:0:0:
180,292,123908,1,0,0:0:0:0:
288,344,124104,2,0,L|288:297,1,46.6666666666667
336,196,124496,1,0,0:0:0:0:
419,332,124692,6,0,L|419:238,1,93.3333333333333,14|0,0:0|0:0,0:0:0:0:
420,128,125281,2,0,P|422:104|418:81,2,46.6666666666667,0|8|8,0:0|0:0|0:0,0:0:0:0:
324,176,125869,2,0,P|301:182|278:183,1,46.6666666666667,8|0,0:0|0:0,0:0:0:0:
188,240,126261,1,0,0:0:0:0:
134,145,126457,2,0,P|123:101|133:55,1,93.3333333333333
264,184,127045,6,0,P|281:228|277:274,1,93.3333333333333,10|8,0:0|0:0,0:0:0:0:
204,332,127634,2,0,P|220:348|240:360,2,46.6666666666667,0|8|8,0:0|0:0|0:0,0:0:0:0:
136,252,128222,1,8,0:0:0:0:
168,148,128418,1,0,0:0:0:0:
68,184,128614,1,0,0:0:0:0:
264,184,128810,1,0,0:0:0:0:
264,184,129104,5,0,0:0:0:0:
356,236,129398,2,0,P|360:259|360:282,2,46.6666666666667,8|8|8,0:0|0:0|0:0,0:0:0:0:
372,140,129986,2,0,B|416:112|436:73,1,93.3333333333333,8|0,0:0|0:0,0:0:0:0:
332,48,130575,2,0,P|313:33|293:22,2,46.6666666666667,8|8|8,0:0|0:0|0:0,0:0:0:0:
260,107,131163,2,0,P|250:128|231:143,1,46.6666666666667,8|0,0:0|0:0,0:0:0:0:
184,24,131555,1,0,0:0:0:0:
96,144,131751,2,0,P|97:120|107:99,2,46.6666666666667,8|8|8,0:0|0:0|0:0,0:0:0:0:
116,240,132339,5,8,0:0:0:0:
116,240,132437,1,0,0:0:0:0:
116,240,132536,1,0,0:0:0:0:
116,240,132634,2,0,L|125:273,1,35
136,308,132928,1,0,0:0:0:0:
292,292,133222,6,0,L|332:276,1,35,0|8,0:0|0:0,0:0:0:0:
359,278,133516,1,8,0:0:0:0:
393,287,133663,1,0,0:0:0:0:
426,296,133810,1,8,0:0:0:0:
459,287,133957,1,8,0:0:0:0:
426,216,134104,6,0,P|415:147|374:91,1,140,4|2,0:0|0:0,0:0:0:0:
272,63,134987,1,0,0:0:0:0:
176,111,135281,2,0,P|149:156|152:208,1,105,8|0,0:0|0:0,0:0:0:0:
245,235,135869,2,0,P|244:200|225:172,1,70,2|0,0:0|0:0,0:0:0:0:
296,336,136457,6,0,P|328:347|363:344,1,70,4|0,0:0|0:0,0:0:0:0:
447,311,137045,1,2,0:0:0:0:
380,252,137339,1,0,0:0:0:0:
380,160,137634,2,0,P|339:127|288:122,1,105,8|0,0:0|0:0,0:0:0:0:
206,131,138222,2,0,P|216:164|240:188,1,70,2|0,0:0|0:0,0:0:0:0:
232,48,138810,6,0,P|167:23|102:43,1,140,4|2,0:0|0:0,0:0:0:0:
68,128,139692,1,0,0:0:0:0:
60,220,139987,2,0,B|44:292|74:323|74:323|104:330,1,140,8|2,0:0|0:0,0:0:0:0:
188,296,140869,1,0,0:0:0:0:
288,347,141163,6,0,P|299:297|290:245,1,105,4|0,0:0|0:0,0:0:0:0:
280,167,141751,2,0,P|246:178|219:200,1,70,2|0,0:0|0:0,0:0:0:0:
150,330,142339,2,0,B|113:339|80:332,1,70,8|0,0:0|0:0,0:0:0:0:
36,268,142781,2,0,B|27:231|33:198,1,70,2|0,0:0|0:0,0:0:0:0:
80,136,143222,2,0,L|117:114,1,35,0|8,0:0|0:0,0:0:0:0:
224,48,143516,6,0,P|289:28|354:50,1,140,4|2,0:0|0:0,0:0:0:0:
400,152,144398,1,0,0:0:0:0:
344,280,144692,2,0,P|278:299|213:277,1,140,8|2,0:0|0:0,0:0:0:0:
236,188,145575,1,0,0:0:0:0:
456,136,145869,6,0,P|456:188|444:239,1,105,4|8,0:0|0:0,0:0:0:0:
436,284,146457,2,0,L|430:318,1,35,2|8,0:0|0:0,0:0:0:0:
328,272,146751,1,0,0:0:0:0:
320,316,146898,1,0,0:0:0:0:
292,351,147045,2,0,P|257:352|222:348,1,70,8|0,0:0|0:0,0:0:0:0:
125,307,147634,1,2,0:0:0:0:
87,209,147928,1,0,0:0:0:0:
220,72,148222,6,0,P|284:47|346:74,1,140,4|2,0:0|0:0,0:0:0:0:
376,176,149104,1,0,0:0:0:0:
305,296,149398,2,0,P|272:309|238:306,1,70,8|0,0:0|0:0,0:0:0:0:
192,232,149839,2,0,P|226:224|260:231,1,70,2|0,0:0|0:0,0:0:0:0:
336,280,150281,2,0,P|350:271|362:258,1,35,0|8,0:0|0:0,0:0:0:0:
391,132,150575,6,0,P|371:67|307:48,1,140,4|2,0:0|0:0,0:0:0:0:
208,88,151457,1,0,0:0:0:0:
200,120,151604,1,8,0:0:0:0:
188,152,151751,2,0,L|176:185,1,35,8|0,0:0|0:0,0:0:0:0:
92,124,152045,1,8,0:0:0:0:
80,156,152192,1,0,0:0:0:0:
68,188,152339,2,0,L|56:221,1,35,2|0,0:0|0:0,0:0:0:0:
128,348,152634,2,0,L|140:315,1,35,0|8,0:0|0:0,0:0:0:0:
193,168,152928,6,0,B|237:100|237:100|322:65,1,167.999994873047,4|2,0:0|0:0,0:0:0:0:
360,156,153810,1,8,0:0:0:0:
376,188,153957,1,0,0:0:0:0:
396,216,154104,2,0,L|416:252,1,41.9999987182618
428,284,154398,2,0,P|398:313|359:326,1,83.9999974365235,8|2,0:0|0:0,0:0:0:0:
240,288,154987,1,0,0:0:0:0:
244,156,155281,6,0,L|278:132,1,41.9999987182618,4|0,0:0|0:0,0:0:0:0:
168,72,155575,2,0,L|132:94,1,41.9999987182618,0|0,0:0|0:0,0:0:0:0:
84,124,155869,1,2,0:0:0:0:
72,232,156163,2,0,P|90:270|121:298,1,83.9999974365235,8|0,0:0|0:0,0:0:0:0:
237,250,156751,1,8,0:0:0:0:
354,296,157045,2,0,P|385:268|402:230,1,83.9999974365235,2|0,0:0|0:0,0:0:0:0:
408,68,157634,6,0,L|240:68,1,167.999994873047,4|2,0:0|0:0,0:0:0:0:
124,116,158516,2,0,P|115:74|121:33,1,83.9999974365235,8|0,0:0|0:0,0:0:0:0:
200,132,159104,1,8,0:0:0:0:
212,256,159398,1,2,0:0:0:0:
332,292,159692,1,0,0:0:0:0:
184,256,159987,6,0,P|122:249|76:207,1,125.999996154785,4|8,0:0|0:0,0:0:0:0:
55,128,160575,2,0,P|76:126|97:130,1,41.9999987182618,2|0,0:0|0:0,0:0:0:0:
182,162,160869,2,0,P|243:179|303:159,1,125.999996154785,8|0,0:0|0:0,0:0:0:0:
301,161,161457,1,8,0:0:0:0:
244,48,161751,2,0,L|202:48,1,41.9999987182618,2|0,0:0|0:0,0:0:0:0:
97,130,162045,2,0,L|139:130,1,41.9999987182618,0|0,0:0|0:0,0:0:0:0:
244,240,162339,6,0,P|203:248|160:240,1,83.9999974365235,4|0,0:0|0:0,0:0:0:0:
36,232,162928,1,2,0:0:0:0:
120,324,163222,2,0,P|154:347|195:356,1,83.9999974365235,8|0,0:0|0:0,0:0:0:0:
320,340,163810,1,8,0:0:0:0:
412,256,164104,1,2,0:0:0:0:
420,132,164398,1,0,0:0:0:0:
256,40,164692,6,0,L|225:118,1,83.9999974365235,4|0,0:0|0:0,0:0:0:0:
124,192,165281,1,2,0:0:0:0:
220,271,165575,2,0,P|260:263|302:271,1,83.9999974365235,8|0,0:0|0:0,0:0:0:0:
384,176,166163,1,8,0:0:0:0:
468,268,166457,1,2,0:0:0:0:
388,364,166751,1,0,0:0:0:0:
382,158,167045,6,0,P|343:108|288:79,1,125.999996154785,4|0,0:0|0:0,0:0:0:0:
206,114,167634,2,0,P|213:133|227:149,1,41.9999987182618,2|0,0:0|0:0,0:0:0:0:
208,24,167928,2,0,P|146:17|95:51,1,125.999996154785,8|0,0:0|0:0,0:0:0:0:
116,136,168516,2,0,P|110:156|100:174,1,41.9999987182618,8|0,0:0|0:0,0:0:0:0:
36,232,168810,2,0,P|41:252|51:270,1,41.9999987182618,2|0,0:0|0:0,0:0:0:0:
136,288,169104,1,0,0:0:0:0:
256,208,169398,5,4,0:0:0:0:
304,92,169692,1,8,0:0:0:0:
388,204,169986,2,0,P|398:243|389:284,1,83.9999974365235,2|8,0:0|0:0,0:0:0:0:
276,340,170575,1,0,0:0:0:0:
227,207,170869,2,0,P|178:142|96:130,1,167.999994873047,2|0,0:0|0:0,0:0:0:0:
148,312,171751,6,0,P|220:351|300:333,1,167.999994873047,4|2,0:0|0:0,0:0:0:0:
400,256,172634,2,0,L|441:259,1,41.9999987182618,8|0,0:0|0:0,0:0:0:0:
385,174,172928,2,0,L|344:177,1,41.9999987182618
160,264,173369,1,8,0:0:0:0:
160,264,173516,2,0,L|118:264,1,41.9999987182618,2|0,0:0|0:0,0:0:0:0:
32,168,173810,2,0,L|74:168,1,41.9999987182618,8|0,0:0|0:0,0:0:0:0:
168,108,174104,6,0,B|228:80|284:104|284:104|332:100,1,167.999994873047,4|2,0:0|0:0,0:0:0:0:
428,20,174986,2,0,L|430:61,1,41.9999987182618,8|0,0:0|0:0,0:0:0:0:
468,172,175281,2,0,L|466:131,1,41.9999987182618
392,288,175722,1,8,0:0:0:0:
392,288,175869,2,0,L|395:329,1,41.9999987182618,2|0,0:0|0:0,0:0:0:0:
296,228,176163,2,0,L|292:186,1,41.9999987182618,8|0,0:0|0:0,0:0:0:0:
211,320,176457,6,0,P|138:355|62:324,1,167.999994873047,4|2,0:0|0:0,0:0:0:0:
68,200,177339,2,0,L|68:158,1,41.9999987182618,8|0,0:0|0:0,0:0:0:0:
125,36,177634,2,0,L|125:78,1,41.9999987182618
204,212,178075,1,8,0:0:0:0:
204,212,178222,2,0,L|246:212,1,41.9999987182618,2|0,0:0|0:0,0:0:0:0:
348,144,178516,2,0,L|296:144,1,41.9999987182618,8|0,0:0|0:0,0:0:0:0:
204,212,178810,6,0,P|123:232|44:208,1,167.999994873047,4|2,0:0|0:0,0:0:0:0:
124,112,179692,2,0,L|124:280,1,167.999994873047,8|0,0:0|0:0,0:0:0:0:
212,308,180428,1,8,0:0:0:0:
212,308,180575,2,0,L|247:330,1,41.9999987182618,2|0,0:0|0:0,0:0:0:0:
264,208,180869,2,0,L|229:186,1,41.9999987182618,8|0,0:0|0:0,0:0:0:0:
368,251,181163,6,0,P|404:179|367:107,1,167.999994873047,4|2,0:0|0:0,0:0:0:0:
160,181,182045,2,0,P|234:214|310:183,1,167.999994873047,8|0,0:0|0:0,0:0:0:0:
277,95,182781,1,8,0:0:0:0:
277,95,182928,2,0,L|235:95,1,41.9999987182618,2|0,0:0|0:0,0:0:0:0:
84,165,183222,2,0,L|128:165,1,41.9999987182618,8|0,0:0|0:0,0:0:0:0:
232,208,183516,6,0,P|267:281|235:356,1,167.999994873047,4|2,0:0|0:0,0:0:0:0:
72,284,184398,2,0,P|39:209|74:135,1,167.999994873047,8|0,0:0|0:0,0:0:0:0:
132,64,185134,1,8,0:0:0:0:
132,64,185281,2,0,L|174:64,1,41.9999987182618,2|0,0:0|0:0,0:0:0:0:
272,120,185575,2,0,L|230:120,1,41.9999987182618,8|0,0:0|0:0,0:0:0:0:
379,75,185869,6,0,P|387:115|380:164,1,83.9999974365235,4|0,0:0|0:0,0:0:0:0:
344,275,186457,2,0,P|287:300|228:280,1,125.999996154785,2|0,0:0|0:0,0:0:0:0:
256,192,187045,12,2,189398,0:0:0:0:
367,110,190575,6,0,L|353:83,3,17.5
338,45,190869,2,0,L|352:78,1,35
177,89,191310,2,0,L|194:131,1,35
300,178,191604,2,0,L|286:145,1,35
144,215,192045,6,0,L|137:198,3,17.5
120,148,192339,2,0,L|131:182,1,35
39,31,192634,2,0,L|49:64,1,35
27,179,192928,6,0,L|37:207,3,17.5,0|0|0|0,0:0|0:0|0:0|0:0,0:0:0:0:
48,245,193222,2,0,L|37:212,1,35
202,277,193663,2,0,L|219:320,1,35
121,334,193957,2,0,L|138:377,1,35
320,300,194398,6,0,L|331:323,2,17.5
286,239,194692,2,0,L|302:271,1,35
230,117,194986,2,0,L|247:153,1,35
405,167,195281,6,0,L|423:195,3,17.5
443,227,195575,2,0,L|424:198,1,35
281,328,196016,2,0,L|296:360,1,35
244,251,196310,2,0,L|224:208,1,35
187,119,196751,6,0,L|182:104,3,17.5
164,51,197045,2,0,L|175:85,1,35
281,13,197339,2,0,L|299:68,1,35
300,200,197634,6,0,L|306:216,2,17.5
286,166,197928,2,0,L|276:132,1,35
406,77,198369,2,0,L|397:45,1,35
499,110,198663,2,0,L|508:143,1,35
413,240,199104,2,0,L|401:253,2,17.5
429,223,199398,6,0,L|458:186,1,35
370,125,199692,2,0,L|341:162,1,35
205,218,199986,6,0,L|184:202,3,17.5,0|0|0|0,0:0|0:0|0:0|0:0,0:0:0:0:
149,174,200281,2,0,L|176:197,1,35
329,43,200722,2,0,L|296:64,1,35
392,105,201016,2,0,L|359:126,1,35
288,222,201457,6,0,L|264:235,3,17.5
226,255,201751,2,0,L|257:239,1,35
219,124,202045,2,0,L|249:107,1,35
106,212,202339,6,0,L|85:223,3,17.5
42,242,202634,2,0,L|74:227,1,35
152,384,203075,2,0,L|183:368,1,35
258,290,203369,2,0,L|226:305,1,35
256,164,203810,6,0,L|268:175,2,17.5
322,226,204104,2,0,L|296:203,1,35
427,192,204398,2,0,L|400:168,1,35
294,65,204692,6,0,L|317:50,3,17.5,0|0|0|0,0:0|0:0|0:0|0:0,0:0:0:0:
350,27,204986,2,0,L|322:48,1,35
468,168,205428,2,0,L|438:189,1,35
485,277,205722,2,0,L|455:298,1,35
303,244,206163,6,0,L|283:231,3,17.5
244,206,206457,2,0,L|274:226,1,35
187,302,206751,2,0,L|154:280,1,35
97,191,207045,6,0,L|83:182,3,17.5
40,150,207339,2,0,L|68:172,1,35
254,46,207781,2,0,L|281:66,1,35
228,132,208075,2,0,L|255:152,1,35
318,322,208516,6,0,L|332:358,2,23.3333333333333
391,288,208810,2,0,L|412:316,2,23.3333333333333,0|0|0,0:0|0:0|0:0,0:0:0:0:
421,212,209104,5,8,0:0:0:0:
421,188,209202,1,0,0:0:0:0:
413,165,209300,1,0,0:0:0:0:
401,134,209398,6,0,P|366:87|319:78,1,105,4|8,0:0|0:0,0:0:0:0:
235,120,209986,2,0,P|192:126|145:104,1,70,2|8,0:0|0:0,0:0:0:0:
86,77,210428,1,0,0:0:0:0:
86,77,210575,2,0,P|75:125|77:139,1,35,8|0,0:0|0:0,0:0:0:0:
71,186,210869,2,0,L|132:250,1,70,0|2,0:0|0:0,0:0:0:0:
224,305,211457,1,8,0:0:0:0:
255,160,211751,6,0,P|217:190|204:236,1,70,4|8,0:0|0:0,0:0:0:0:
224,305,212339,1,2,0:0:0:0:
318,332,212634,1,0,0:0:0:0:
224,305,212928,2,0,P|186:330|100:327,1,105,8|8,0:0|0:0,0:0:0:0:
47,313,213516,2,0,P|65:280|101:256,1,70,2|0,0:0|0:0,0:0:0:0:
224,305,214104,6,0,P|292:283|315:234,1,105,4|8,0:0|0:0,0:0:0:0:
316,169,214692,1,2,0:0:0:0:
316,169,214839,2,0,P|290:171|261:184,1,35,0|8,0:0|0:0,0:0:0:0:
134,184,215281,2,0,P|143:135|170:93,1,70,8|0,0:0|0:0,0:0:0:0:
231,59,215869,1,2,0:0:0:0:
238,173,216163,1,0,0:0:0:0:
159,28,216457,6,0,P|114:35|75:69,1,70,4|0,0:0|0:0,0:0:0:0:
31,123,217045,1,2,0:0:0:0:
94,198,217339,1,8,0:0:0:0:
127,106,217634,2,0,P|107:60|78:39,1,70,8|8,0:0|0:0,0:0:0:0:
31,123,218222,1,2,0:0:0:0:
147,228,218516,1,8,0:0:0:0:
264,98,218810,6,0,P|315:77|403:136,1,140,4|2,0:0|0:0,0:0:0:0:
441,246,219692,1,0,0:0:0:0:
322,164,219986,2,0,L|233:288,1,140,8|2,0:0|0:0,0:0:0:0:
142,282,220869,1,0,0:0:0:0:
153,183,221163,6,0,P|214:213|240:277,1,140,8|2,0:0|0:0,0:0:0:0:
142,282,222045,2,0,P|79:253|86:113,1,210,8|2,0:0|0:0,0:0:0:0:
193,61,223222,1,0,0:0:0:0:
258,230,223516,6,0,P|303:281|400:284,1,140,4|2,0:0|0:0,0:0:0:0:
353,191,224398,1,0,0:0:0:0:
267,143,224692,2,0,P|196:164|170:235,1,140,8|2,0:0|0:0,0:0:0:0:
354,221,225575,6,0,B|576:57|369:-30|228:90|416:185|431:220|444:263|444:263|464:216|507:211|537:104|513:64,1,665,4|0,0:0|0:0,0:0:0:0:
137,147,248438,6,0,P|158:119|188:101,1,70,6|0,0:0|0:0,0:0:0:0:
216,188,249063,1,0,0:0:0:0:
269,123,249375,1,0,0:0:0:0:
298,202,249688,2,0,P|327:183|349:149,1,70,2|0,0:0|0:0,0:0:0:0:
246,269,250313,2,0,P|225:296|195:315,1,70,2|0,0:0|0:0,0:0:0:0:
402,315,250938,6,0,P|431:296|452:268,1,70,2|0,0:0|0:0,0:0:0:0:
470,186,251563,1,0,0:0:0:0:
447,105,251875,1,0,0:0:0:0:
375,234,252188,2,0,L|392:166,1,70,2|0,0:0|0:0,0:0:0:0:
311,296,252813,1,2,0:0:0:0:
285,207,253125,1,0,0:0:0:0:
237,117,253438,6,0,L|213:188,1,70,2|0,0:0|0:0,0:0:0:0:
160,255,254063,1,0,0:0:0:0:
75,218,254375,1,0,0:0:0:0:
149,165,254688,2,0,P|184:166|218:183,1,70,2|0,0:0|0:0,0:0:0:0:
160,255,255313,2,0,P|129:271|94:272,1,70,2|0,0:0|0:0,0:0:0:0:
250,251,255938,6,0,P|280:267|315:268,1,70,2|0,0:0|0:0,0:0:0:0:
302,184,256563,1,0,0:0:0:0:
257,103,256875,1,0,0:0:0:0:
110,73,257188,1,2,0:0:0:0:
175,132,257500,1,0,0:0:0:0:
98,163,257813,1,2,0:0:0:0:
198,40,258125,1,0,0:0:0:0:
20,28,258438,6,0,P|22:79|49:114,1,70,2|0,0:0|0:0,0:0:0:0:
96,192,259063,2,0,P|74:245|80:318,1,105
39,368,259688,2,0,P|100:370|128:348,1,70,2|0,0:0|0:0,0:0:0:0:
173,329,260156,2,0,P|209:310|291:333,1,105,0|0,0:0|0:0,0:0:0:0:
464,200,260938,6,0,P|422:168|391:161,1,70,2|0,0:0|0:0,0:0:0:0:
257,123,261563,2,0,P|278:74|345:54,1,105,0|0,0:0|0:0,0:0:0:0:
335,130,262188,2,0,P|312:178|253:203,1,105,2|0,0:0|0:0,0:0:0:0:
187,206,262813,2,0,P|141:230|123:263,1,70
267,201,263438,6,0,P|249:154|181:125,1,105,2|0,0:0|0:0,0:0:0:0:
124,130,264063,2,0,P|142:178|186:205,1,105
267,201,264688,2,0,P|311:227|330:275,1,105,2|0,0:0|0:0,0:0:0:0:
251,279,265313,2,0,L|216:305,1,35,0|0,0:0|0:0,0:0:0:0:
131,331,265625,2,0,L|166:357,1,35,0|0,0:0|0:0,0:0:0:0:
291,359,265938,6,0,P|340:270|261:193,1,210,4|0,0:0|0:0,0:0:0:0:
182,196,267188,2,0,L|146:197,5,23.3333333333333,8|8|8|8|8|8,0:0|0:0|0:0|0:0|0:0|0:0,0:0:0:0:
182,122,267813,6,0,L|145:114,2,23.3333333333333,8|8|8,0:0|0:0|0:0,0:0:0:0:
227,50,268125,2,0,L|194:32,2,23.3333333333333,8|8|8,0:0|0:0|0:0,0:0:0:0:
266,121,268424,6,0,P|295:171|361:191,1,105,4|0,0:0|0:0,0:0:0:0:
349,109,269049,2,0,L|320:21,1,70,2|0,0:0|0:0,0:0:0:0:
336,190,269674,2,0,P|321:237|268:271,1,105
249,187,270299,2,0,L|220:99,1,70,2|0,0:0|0:0,0:0:0:0:
44,128,270924,5,0,0:0:0:0:
158,71,271236,1,0,0:0:0:0:
52,235,271549,1,2,0:0:0:0:
146,175,271861,1,0,0:0:0:0:
182,304,272174,2,0,P|153:342|77:358,1,105
20,384,272799,2,0,P|17:349|29:316,1,70,2|0,0:0|0:0,0:0:0:0:
93,171,273424,6,0,P|170:132|192:70,1,140,0|2,0:0|0:0,0:0:0:0:
276,227,274674,2,0,P|309:286|386:312,1,140,0|2,0:0|0:0,0:0:0:0:
460,186,275611,1,0,0:0:0:0:
304,136,275924,6,0,B|268:124|236:132|236:132|200:140|165:126,1,140,0|2,0:0|0:0,0:0:0:0:
76,170,276861,1,0,0:0:0:0:
160,232,277174,2,0,L|159:273,2,23.3333333333333,8|8|8,0:0|0:0|0:0,0:0:0:0:
240,233,277486,2,0,L|239:256,2,23.3333333333333,8|8|8,0:0|0:0|0:0,0:0:0:0:
318,230,277799,2,0,L|317:271,2,23.3333333333333,8|8|8,0:0|0:0|0:0,0:0:0:0:
385,185,278111,5,8,0:0:0:0:
395,151,278215,1,8,0:0:0:0:
389,116,278319,1,8,0:0:0:0:
364,90,278424,6,0,P|310:69|286:73,1,70,4|0,0:0|0:0,0:0:0:0:
202,111,279049,2,0,P|119:130|61:94,1,140,2|0,0:0|0:0,0:0:0:0:
262,16,280299,2,0,P|307:55|306:149,1,140,2|0,0:0|0:0,0:0:0:0:
122,199,281549,6,0,P|88:235|78:275,1,70,2|0,0:0|0:0,0:0:0:0:
166,274,282174,2,0,P|202:227|200:196,1,70
252,96,282799,1,2,0:0:0:0:
115,114,283111,5,8,0:0:0:0:
91,136,283215,1,8,0:0:0:0:
78,166,283319,1,8,0:0:0:0:
80,197,283424,6,0,P|148:200|196:152,1,140,4|2,0:0|0:0,0:0:0:0:
255,68,284361,1,0,0:0:0:0:
352,104,284674,2,0,P|387:135|405:178,2,93.3333333333333
231,314,285924,2,0,P|198:286|174:185,1,140,0|2,0:0|0:0,0:0:0:0:
216,30,287174,5,8,0:0:0:0:
234,44,287278,1,8,0:0:0:0:
252,60,287382,1,8,0:0:0:0:
276,64,287486,2,0,L|313:49,2,23.3333333333333,8|8|8,0:0|0:0|0:0,0:0:0:0:
297,136,287799,5,8,0:0:0:0:
305,162,287903,1,8,0:0:0:0:
305,189,288007,1,8,0:0:0:0:
301,214,288111,2,8,L|285:245,2,23.3333333333333
219,177,288390,6,0,P|169:220|96:208,1,140,4|2,0:0|0:0,0:0:0:0:
44,118,289272,1,0,0:0:0:0:
159,82,289566,2,0,L|253:82,1,70
341,106,290154,2,0,P|342:64|316:27,1,70,2|0,0:0|0:0,0:0:0:0:
210,0,290742,5,0,0:0:0:0:
86,18,291037,1,0,0:0:0:0:
187,114,291331,1,2,0:0:0:0:
17,95,291625,1,0,0:0:0:0:
100,224,291919,2,0,P|71:181|70:145,1,70
90,305,292507,2,0,P|124:304|156:289,1,70,2|8,0:0|0:0,0:0:0:0:
172,267,292899,1,8,0:0:0:0:
199,253,292997,1,8,0:0:0:0:
231,255,293095,6,0,P|283:233|304:145,1,140,4|2,0:0|0:0,0:0:0:0:
276,57,293978,1,0,0:0:0:0:
375,91,294272,2,0,P|392:161|375:256,1,140,0|2,0:0|0:0,0:0:0:0:
336,320,295154,1,0,0:0:0:0:
384,227,295448,6,0,P|338:216|277:226,1,105
211,258,296037,2,0,P|204:224|215:182,1,70,2|0,0:0|0:0,0:0:0:0:
310,139,296625,2,0,L|302:99,5,23.3333333333333,8|8|8|8|8|8,0:0|0:0|0:0|0:0|0:0|0:0,0:0:0:0:
350,127,297213,5,8,0:0:0:0:
372,120,297311,1,8,0:0:0:0:
395,119,297409,1,8,0:0:0:0:
418,125,297507,1,8,0:0:0:0:
438,136,297605,1,8,0:0:0:0:
456,152,297703,1,8,0:0:0:0:
469,192,297801,6,0,P|451:244|365:293,1,154.000004699707,4|2,0:0|0:0,0:0:0:0:
359,182,298684,2,0,L|310:183,1,38.5000011749268
219,183,298978,2,0,P|237:131|323:82,1,154.000004699707,0|2,0:0|0:0,0:0:0:0:
456,77,299860,1,8,0:0:0:0:
318,82,300154,6,0,L|176:63,1,115.50000352478,4|0,0:0|0:0,0:0:0:0:
256,161,300742,2,0,L|188:152,1,38.5000011749268,2|8,0:0|0:0,0:0:0:0:
241,247,301037,1,0,0:0:0:0:
215,243,301184,1,8,0:0:0:0:
188,239,301331,2,0,L|96:229,1,77.0000023498536,8|0,0:0|0:0,0:0:0:0:
5,213,301919,1,2,0:0:0:0:
2,59,302213,1,8,0:0:0:0:
192,156,302507,6,0,P|236:160|319:89,1,154.000004699707,4|2,0:0|0:0,0:0:0:0:
232,8,303390,1,8,0:0:0:0:
105,57,303684,2,0,P|72:134|75:154,1,77.0000023498536,8|0,0:0|0:0,0:0:0:0:
106,197,304125,2,0,P|139:274|136:294,1,77.0000023498536,2|8,0:0|0:0,0:0:0:0:
188,340,304566,2,0,P|200:330|217:308,1,38.5000011749268,0|8,0:0|0:0,0:0:0:0:
250,144,304860,6,0,P|306:78|393:76,1,154.000004699707,4|2,0:0|0:0,0:0:0:0:
355,180,305742,1,0,0:0:0:0:
347,206,305890,1,8,0:0:0:0:
340,232,306037,2,0,L|327:278,1,38.5000011749268,8|0,0:0|0:0,0:0:0:0:
240,208,306331,1,0,0:0:0:0:
232,236,306478,1,8,0:0:0:0:
224,260,306625,2,0,L|211:306,1,38.5000011749268,8|0,0:0|0:0,0:0:0:0:
92,352,306919,2,0,L|102:314,1,38.5000011749268,8|0,0:0|0:0,0:0:0:0:
136,164,307213,6,0,P|167:86|278:47,1,181.999991668702,4|2,0:0|0:0,0:0:0:0:
249,160,308095,1,8,0:0:0:0:
242,200,308242,1,0,0:0:0:0:
237,240,308390,2,0,L|225:302,1,45.4999979171754,8|0,0:0|0:0,0:0:0:0:
219,372,308684,2,0,P|155:337|141:297,1,90.9999958343508,8|2,0:0|0:0,0:0:0:0:
79,196,309272,1,0,0:0:0:0:
312,85,309566,6,0,L|274:111,1,45.4999979171754,4|0,0:0|0:0,0:0:0:0:
190,50,309860,2,0,L|136:12,1,45.4999979171754
56,87,310154,1,2,0:0:0:0:
79,196,310448,2,0,P|101:240|162:271,1,90.9999958343508,8|8,0:0|0:0,0:0:0:0:
246,319,311037,1,8,0:0:0:0:
122,350,311331,2,0,P|129:270|160:237,1,90.9999958343508,2|0,0:0|0:0,0:0:0:0:
314,320,311919,6,0,P|392:285|420:193,1,181.999991668702,4|2,0:0|0:0,0:0:0:0:
322,219,312801,2,0,L|189:238,1,90.9999958343508,8|8,0:0|0:0,0:0:0:0:
80,253,313390,1,8,0:0:0:0:
187,160,313684,1,2,0:0:0:0:
56,87,313978,1,0,0:0:0:0:
198,60,314272,6,0,P|261:93|289:158,1,136.499993751526,4|0,0:0|0:0,0:0:0:0:
302,227,314860,2,0,P|279:228|248:217,1,45.4999979171754,2|0,0:0|0:0,0:0:0:0:
288,149,315154,2,0,P|360:172|380:244,1,136.499993751526,8|0,0:0|0:0,0:0:0:0:
380,306,315742,1,8,0:0:0:0:
229,302,316037,2,0,L|151:306,1,45.4999979171754,2|0,0:0|0:0,0:0:0:0:
91,382,316331,2,0,L|169:386,1,45.4999979171754,0|0,0:0|0:0,0:0:0:0:
310,267,316625,6,0,P|287:238|206:210,1,90.9999958343508,4|0,0:0|0:0,0:0:0:0:
139,208,317213,1,2,0:0:0:0:
288,138,317507,2,0,P|249:125|169:152,1,90.9999958343508,8|8,0:0|0:0,0:0:0:0:
139,208,318095,1,8,0:0:0:0:
0,240,318390,1,2,0:0:0:0:
44,110,318684,1,0,0:0:0:0:
124,297,318978,6,0,P|162:336|211:350,1,90.9999958343508,4|0,0:0|0:0,0:0:0:0:
212,248,319566,1,2,0:0:0:0:
275,168,319860,2,0,P|321:119|367:110,1,90.9999958343508,8|8,0:0|0:0,0:0:0:0:
437,81,320448,1,8,0:0:0:0:
491,239,320742,1,2,0:0:0:0:
329,203,321037,1,0,0:0:0:0:
437,81,321331,6,0,P|404:41|292:32,1,136.499993751526,4|0,0:0|0:0,0:0:0:0:
249,48,321919,2,0,L|190:70,1,45.4999979171754,2|0,0:0|0:0,0:0:0:0:
132,25,322213,2,0,P|127:91|172:140,1,136.499993751526,8|0,0:0|0:0,0:0:0:0:
252,151,322801,2,0,P|226:201|219:207,1,45.4999979171754,8|0,0:0|0:0,0:0:0:0:
150,228,323095,2,0,P|161:247|177:263,1,45.4999979171754,2|0,0:0|0:0,0:0:0:0:
270,275,323390,1,8,0:0:0:0:
92,163,323684,5,4,0:0:0:0:
138,82,323978,2,0,L|19:19,1,90.9999958343508,0|2,0:0|0:0,0:0:0:0:
92,163,324566,1,8,0:0:0:0:
161,235,324860,1,8,0:0:0:0:
39,87,325154,2,0,P|120:76|182:153,1,181.999991668702,8|2,0:0|0:0,0:0:0:0:
264,296,326037,6,0,P|338:340|418:293,1,181.999991668702,4|2,0:0|0:0,0:0:0:0:
452,164,326919,2,0,L|448:113,1,45.4999979171754,8|0,0:0|0:0,0:0:0:0:
356,32,327213,2,0,L|361:85,1,45.4999979171754,8|0,0:0|0:0,0:0:0:0:
233,232,327654,1,8,0:0:0:0:
233,232,327801,2,0,L|232:175,1,45.4999979171754,2|0,0:0|0:0,0:0:0:0:
166,88,328095,2,0,L|165:142,1,45.4999979171754,8|0,0:0|0:0,0:0:0:0:
167,51,328390,6,0,P|254:26|342:56,1,181.999991668702,4|2,0:0|0:0,0:0:0:0:
452,216,329272,2,0,L|406:216,1,45.4999979171754,8|0,0:0|0:0,0:0:0:0:
284,256,329566,2,0,L|329:257,1,45.4999979171754,8|0,0:0|0:0,0:0:0:0:
448,36,330007,1,8,0:0:0:0:
448,36,330154,2,0,L|400:40,1,45.4999979171754,2|0,0:0|0:0,0:0:0:0:
298,100,330448,2,0,L|344:96,1,45.4999979171754,8|0,0:0|0:0,0:0:0:0:
268,104,330742,6,0,B|136:116|136:116|102:152,1,181.999991668702,4|2,0:0|0:0,0:0:0:0:
96,288,331625,2,0,L|104:332,1,45.4999979171754,8|0,0:0|0:0,0:0:0:0:
178,220,331919,2,0,L|207:275,1,45.4999979171754,8|0,0:0|0:0,0:0:0:0:
444,192,332360,1,8,0:0:0:0:
444,192,332507,2,0,L|464:232,1,45.4999979171754,2|0,0:0|0:0,0:0:0:0:
370,302,332801,2,0,L|378:351,1,45.4999979171754,8|0,0:0|0:0,0:0:0:0:
327,191,333095,6,0,P|241:168|155:194,1,181.999991668702,4|2,0:0|0:0,0:0:0:0:
100,320,333978,2,0,L|100:138,1,181.999991668702,8|8,0:0|0:0,0:0:0:0:
168,64,334713,1,0,0:0:0:0:
168,64,334860,2,0,L|208:43,1,45.4999979171754,2|0,0:0|0:0,0:0:0:0:
292,76,335154,2,0,L|332:55,1,45.4999979171754,8|0,0:0|0:0,0:0:0:0:
327,175,335448,6,0,B|328:316|328:316|292:337,1,181.999991668702,4|2,0:0|0:0,0:0:0:0:
160,304,336331,2,0,L|114:304,1,45.4999979171754,8|0,0:0|0:0,0:0:0:0:
56,216,336625,2,0,L|101:216,1,45.4999979171754,8|0,0:0|0:0,0:0:0:0:
228,56,337066,1,8,0:0:0:0:
228,56,337213,2,0,L|180:56,1,45.4999979171754,2|0,0:0|0:0,0:0:0:0:
64,120,337507,2,0,L|116:120,1,45.4999979171754,8|0,0:0|0:0,0:0:0:0:
263,56,337801,6,0,P|351:38|428:83,1,181.999991668702,4|2,0:0|0:0,0:0:0:0:
400,304,338684,2,0,L|400:256,1,45.4999979171754,8|0,0:0|0:0,0:0:0:0:
328,188,338978,2,0,L|328:233,1,45.4999979171754,8|0,0:0|0:0,0:0:0:0:
196,60,339419,1,8,0:0:0:0:
196,60,339566,2,0,L|196:105,1,45.4999979171754,2|0,0:0|0:0,0:0:0:0:
120,184,339860,2,0,L|120:138,1,45.4999979171754,8|0,0:0|0:0,0:0:0:0:
120,227,340154,6,0,P|116:273|125:317,2,90.9999958343508,12|0|2,0:0|0:0|0:0,0:0:0:0:
160,124,341184,6,0,B|219:154|300:129|300:129|323:204|204:220|204:220|193:258|193:258|169:325|92:360|25:294|76:164|193:258|193:258|208:288|208:288|236:292|298:324,1,773.499964591982,2|0,0:0|0:0,0:0:0:0:
409,323,344272,2,0,P|402:268|322:208,1,136.499993751526,8|8,0:0|0:0,0:0:0:0:
291,320,344860,6,0,P|204:338|130:288,1,181.999991668702,4|2,0:0|0:0,0:0:0:0:
212,147,345742,2,0,B|277:136|277:136|331:80,1,136.499993751526,8|8,0:0|0:0,0:0:0:0:
372,24,346331,1,8,0:0:0:0:
353,174,346625,1,2,0:0:0:0:
223,63,346919,1,0,0:0:0:0:
9,15,347213,6,0,P|-8:65|34:144,1,136.499993751526,4|0,0:0|0:0,0:0:0:0:
72,200,347801,2,0,P|107:255|84:316,1,136.499993751526,2|8,0:0|0:0,0:0:0:0:
28,264,348390,2,0,L|1:221,1,45.4999979171754,8|0,0:0|0:0,0:0:0:0:
4,148,348684,1,0,0:0:0:0:
22,111,348831,1,8,0:0:0:0:
42,75,348978,2,0,L|67:32,1,45.4999979171754,2|0,0:0|0:0,0:0:0:0:
144,32,349272,1,8,0:0:0:0:
268,168,349566,6,0,P|318:211|402:199,1,136.499993751526,4|0,0:0|0:0,0:0:0:0:
346,130,350154,2,0,L|306:90,1,45.4999979171754,2|0,0:0|0:0,0:0:0:0:
258,46,350448,1,8,0:0:0:0:
184,155,350742,2,0,P|195:209|241:247,1,90.9999958343508,0|8,0:0|0:0,0:0:0:0:
285,270,351184,1,0,0:0:0:0:
356,301,351331,2,0,P|383:336|389:368,1,45.4999979171754,2|0,0:0|0:0,0:0:0:0:
310,382,351625,2,0,P|282:346|277:315,1,45.4999979171754,8|0,0:0|0:0,0:0:0:0:
300,185,351919,6,0,P|355:208|445:132,1,181.999991668702,4|2,0:0|0:0,0:0:0:0:
392,16,352801,1,8,0:0:0:0:
284,96,353095,2,0,P|217:147|212:208,1,136.499993751526,0|8,0:0|0:0,0:0:0:0:
300,185,353684,2,0,P|353:158|373:63,1,136.499993751526,2|0,0:0|0:0,0:0:0:0:
429,192,354272,6,0,P|364:249|292:268,1,136.499993751526,4|8,0:0|0:0,0:0:0:0:
244,272,354860,1,2,0:0:0:0:
120,196,355154,1,8,0:0:0:0:
260,150,355448,2,0,P|330:111|346:26,1,136.499993751526,0|8,0:0|0:0,0:0:0:0:
248,44,356037,1,2,0:0:0:0:
84,62,356331,1,8,0:0:0:0:
73,226,356625,6,0,P|98:270|211:288,1,136.499993751526,4|8,0:0|0:0,0:0:0:0:
248,292,357213,1,2,0:0:0:0:
390,192,357507,1,8,0:0:0:0:
160,208,357801,2,0,P|202:176|259:169,1,90.9999958343508,0|8,0:0|0:0,0:0:0:0:
319,111,358390,2,0,P|277:79|220:72,1,90.9999958343508,2|8,0:0|0:0,0:0:0:0:
351,289,358978,5,8,0:0:0:0:
240,168,359272,1,0,0:0:0:0:
168,316,359566,1,2,0:0:0:0:
446,258,359860,2,0,P|418:189|336:112,1,181.999991668702,8|8,0:0|0:0,0:0:0:0:
268,86,360595,1,0,0:0:0:0:
227,84,360742,1,2,0:0:0:0:
185,80,360890,1,8,0:0:0:0:
144,76,361037,2,0,L|74:69,1,45.4999979171754,8|0,0:0|0:0,0:0:0:0:
71,193,361331,6,0,P|103:239|164:263,1,90.9999958343508,4|0,0:0|0:0,0:0:0:0:
212,240,361772,1,0,0:0:0:0:
273,189,361919,2,0,P|307:165|345:150,1,45.4999979171754,2|0,0:0|0:0,0:0:0:0:
382,113,362213,2,0,P|344:82|247:102,1,136.499993751526,8|0,0:0|0:0,0:0:0:0:
188,136,362801,2,0,L|137:91,1,45.4999979171754,8|0,0:0|0:0,0:0:0:0:
99,166,363095,2,0,L|150:211,1,45.4999979171754,2|0,0:0|0:0,0:0:0:0:
197,247,363390,1,8,0:0:0:0:
259,287,363537,1,8,0:0:0:0:
329,324,363684,6,0,P|413:314|432:230,1,181.999991668702,4|2,0:0|0:0,0:0:0:0:
403,35,364566,2,0,P|411:57|411:80,1,45.4999979171754,8|0,0:0|0:0,0:0:0:0:
324,88,364860,2,0,P|325:110|332:132,1,45.4999979171754,8|0,0:0|0:0,0:0:0:0:
228,128,365154,1,0,0:0:0:0:
140,24,365448,1,2,0:0:0:0:
96,152,365742,1,0,0:0:0:0:
96,152,366037,6,0,P|102:219|115:286,1,136.499993751526,4|0,0:0|0:0,0:0:0:0:
168,344,366625,1,2,0:0:0:0:
312,284,366919,1,8,0:0:0:0:
331,242,367066,1,0,0:0:0:0:
308,204,367213,1,8,0:0:0:0:
328,163,367360,1,0,0:0:0:0:
215,63,367801,2,0,P|171:55|128:64,1,90.9999958343508,2|0,0:0|0:0,0:0:0:0:
52,80,368242,1,0,0:0:0:0:
28,8,368390,6,0,L|31:189,1,181.999991668702,4|2,0:0|0:0,0:0:0:0:
124,312,369272,1,8,0:0:0:0:
160,284,369419,1,0,0:0:0:0:
204,300,369566,1,8,0:0:0:0:
240,272,369713,1,0,0:0:0:0:
396,208,370154,2,0,L|396:117,1,90.9999958343508,2|0,0:0|0:0,0:0:0:0:
332,80,370595,1,0,0:0:0:0:
264,111,370742,6,0,P|177:136|89:115,1,181.999991668702,4|2,0:0|0:0,0:0:0:0:
224,36,371625,2,0,P|245:123|220:210,1,181.999991668702,8|8,0:0|0:0,0:0:0:0:
116,324,372507,1,2,0:0:0:0:
268,344,372801,1,0,0:0:0:0:
268,344,372948,1,8,0:0:0:0:
344,313,373095,6,0,P|399:276|425:214,1,136.499993751526,4|0,0:0|0:0,0:0:0:0:
428,140,373684,1,2,0:0:0:0:
292,64,373978,2,0,P|223:59|155:64,1,136.499993751526,8|0,0:0|0:0,0:0:0:0:
104,120,374566,1,8,0:0:0:0:
80,272,374860,1,2,0:0:0:0:
224,212,375154,1,0,0:0:0:0:
380,304,375448,6,0,B|420:328|420:328|420:238,1,136.499993751526,4|0,0:0|0:0,0:0:0:0:
432,160,376037,2,0,P|409:162|387:167,1,45.4999979171754,2|0,0:0|0:0,0:0:0:0:
332,223,376331,2,0,P|250:260|166:231,1,181.999991668702,8|8,0:0|0:0,0:0:0:0:
92,96,377213,1,2,0:0:0:0:
231,29,377507,1,0,0:0:0:0:
424,147,377801,5,4,0:0:0:0:
244,285,378095,1,0,0:0:0:0:
65,142,378390,1,2,0:0:0:0:
256,192,378684,12,2,381919,0:0:0:0:
176,64,382507,6,0,P|134:142|155:229,1,181.999991668702,4|2,0:0|0:0,0:0:0:0:
326,296,383390,2,0,P|336:229|305:169,1,136.499993751526,0|0,0:0|0:0,0:0:0:0:
244,248,383978,2,0,L|229:291,1,45.4999979171754,8|0,0:0|0:0,0:0:0:0:
140,340,384272,2,0,L|154:297,1,45.4999979171754,2|0,0:0|0:0,0:0:0:0:
104,208,384566,2,0,L|91:252,1,45.4999979171754,8|0,0:0|0:0,0:0:0:0:
156,111,384860,6,0,P|222:99|289:112,1,136.499993751526,4|0,0:0|0:0,0:0:0:0:
360,135,385448,2,0,P|364:113|360:91,1,45.4999979171754,2|0,0:0|0:0,0:0:0:0:
296,192,385742,1,8,0:0:0:0:
296,192,386037,2,0,P|359:213|403:264,1,136.499993751526,8|0,0:0|0:0,0:0:0:0:
356,328,386625,2,0,P|292:306|248:255,1,136.499993751526,2|0,0:0|0:0,0:0:0:0:
208,340,387213,6,0,B|176:160,1,181.999991668702,4|2,0:0|0:0,0:0:0:0:
104,35,388095,2,0,P|169:20|233:41,1,136.499993751526,8|0,0:0|0:0,0:0:0:0:
372,52,388684,2,0,L|417:52,1,45.4999979171754,8|0,0:0|0:0,0:0:0:0:
453,144,388978,2,0,L|408:144,1,45.4999979171754,2|0,0:0|0:0,0:0:0:0:
372,236,389272,2,0,L|424:236,1,45.4999979171754,8|0,0:0|0:0,0:0:0:0:
319,328,389566,6,0,P|254:344|188:328,1,136.499993751526,4|0,0:0|0:0,0:0:0:0:
110,299,390154,2,0,P|107:321|112:344,1,45.4999979171754,2|0,0:0|0:0,0:0:0:0:
172,251,390448,1,8,0:0:0:0:
172,251,390742,2,0,P|219:203|248:141,1,136.499993751526,8|0,0:0|0:0,0:0:0:0:
304,88,391331,2,0,L|167:80,1,136.499993751526,2|0,0:0|0:0,0:0:0:0:
144,196,391919,6,0,L|325:208,1,181.999991668702,4|2,0:0|0:0,0:0:0:0:
464,280,392801,2,0,P|488:217|472:151,1,136.499993751526,0|0,0:0|0:0,0:0:0:0:
380,212,393390,2,0,L|334:212,1,45.4999979171754,8|0,0:0|0:0,0:0:0:0:
230,260,393684,2,0,L|276:260,1,45.4999979171754,2|0,0:0|0:0,0:0:0:0:
176,204,393978,2,0,L|112:204,1,45.4999979171754,8|0,0:0|0:0,0:0:0:0:
48,99,394272,6,0,B|114:87|114:87|181:100,1,136.499993751526,4|0,0:0|0:0,0:0:0:0:
256,124,394860,2,0,B|260:104|260:104|256:78,1,45.4999979171754,2|0,0:0|0:0,0:0:0:0:
320,168,395154,1,8,0:0:0:0:
320,168,395742,1,8,0:0:0:0:
103,242,396037,1,2,0:0:0:0:
296,364,396331,1,8,0:0:0:0:
312,81,396625,6,0,P|268:73|223:81,1,90.9999958343508,4|0,0:0|0:0,0:0:0:0:
117,194,397213,1,2,0:0:0:0:
184,332,397507,2,0,B|272:340|272:340|365:333,1,181.999991668702,8|8,0:0|0:0,0:0:0:0:
412,184,398390,1,2,0:0:0:0:
506,306,398684,1,0,0:0:0:0:
412,184,398978,6,0,P|363:138|298:120,1,136.499993751526,4|0,0:0|0:0,0:0:0:0:
221,103,399566,1,2,0:0:0:0:
68,127,399860,1,0,0:0:0:0:
68,127,400154,2,0,P|56:193|74:258,1,136.499993751526,8|0,0:0|0:0,0:0:0:0:
140,300,400742,2,0,P|206:312|271:294,1,136.499993751526,2|0,0:0|0:0,0:0:0:0:
320,364,401331,6,0,L|339:197,1,167.999994873047,4|2,0:0|0:0,0:0:0:0:
280,84,402213,2,0,P|218:74|157:89,1,125.999996154785,8|0,0:0|0:0,0:0:0:0:
100,156,402801,2,0,L|88:196,1,41.9999987182618,8|0,0:0|0:0,0:0:0:0:
144,292,403095,2,0,L|156:252,1,41.9999987182618,2|0,0:0|0:0,0:0:0:0:
256,192,403390,2,0,L|244:236,1,41.9999987182618,8|0,0:0|0:0,0:0:0:0:
304,311,403684,6,0,P|364:299|423:319,1,125.999996154785,4|0,0:0|0:0,0:0:0:0:
456,239,404272,2,0,P|459:219|456:198,1,41.9999987182618,2|0,0:0|0:0,0:0:0:0:
439,115,404566,1,8,0:0:0:0:
439,115,404860,2,0,P|400:67|342:44,1,125.999996154785,8|0,0:0|0:0,0:0:0:0:
297,105,405448,2,0,P|237:122|177:106,1,125.999996154785,2|0,0:0|0:0,0:0:0:0:
132,40,406037,6,0,B|132:194,1,154.000004699707,4|2,0:0|0:0,0:0:0:0:
196,264,406919,2,0,P|250:247|305:263,1,115.50000352478,8|0,0:0|0:0,0:0:0:0:
248,348,407507,2,0,L|209:348,1,38.5000011749268,8|0,0:0|0:0,0:0:0:0:
168,332,407801,2,0,L|129:332,1,38.5000011749268,2|0,0:0|0:0,0:0:0:0:
88,352,408095,2,0,L|49:352,1,38.5000011749268,8|0,0:0|0:0,0:0:0:0:
24,276,408390,6,0,P|19:218|30:162,1,115.50000352478,4|0,0:0|0:0,0:0:0:0:
64,88,408978,2,0,P|45:84|26:86,1,38.5000011749268,2|0,0:0|0:0,0:0:0:0:
108,160,409272,1,8,0:0:0:0:
200,148,409566,2,0,P|241:108|265:56,1,115.50000352478,8|0,0:0|0:0,0:0:0:0:
312,56,410154,2,0,P|336:107|377:147,1,115.50000352478,2|0,0:0|0:0,0:0:0:0:
448,44,410742,6,0,B|448:99|448:99|472:151|453:180,1,140,4|2,0:0|0:0,0:0:0:0:
420,256,411625,2,0,P|389:297|339:310,1,105,8|0,0:0|0:0,0:0:0:0:
340,224,412213,2,0,L|313:201,1,35,8|0,0:0|0:0,0:0:0:0:
272,204,412507,2,0,L|245:181,1,35,2|0,0:0|0:0,0:0:0:0:
204,188,412801,2,0,L|177:165,1,35,8|0,0:0|0:0,0:0:0:0:
108,112,413095,6,0,B|72:164|108:220|108:220|108:244,1,140,4|2,0:0|0:0,0:0:0:0:
124,328,413978,1,8,0:0:0:0:
192,276,414272,1,8,0:0:0:0:
236,348,414566,1,0,0:0:0:0:
292,284,414860,1,2,0:0:0:0:
248,212,415154,1,0,0:0:0:0:
212,108,415448,5,4,0:0:0:0:
140,184,415742,1,0,0:0:0:0:
64,112,416037,1,2,0:0:0:0:
256,192,416331,12,4,420154,0:0:0:0:
