osu file format v14

[General]
AudioFilename: audio.mp3
AudioLeadIn: 0
PreviewTime: 112698
Countdown: 0
SampleSet: Soft
StackLeniency: 0.5
Mode: 0
LetterboxInBreaks: 0
WidescreenStoryboard: 1

[Editor]
Bookmarks: 16657,42747,61510,72436,84436,97210,103403,112694,125081,137468,143274,160697,172697,185471,191665,200955,208310,213342,225729,230181,231923,238116,250503,262890
DistanceSpacing: 1.6
BeatDivisor: 8
GridSize: 4
TimelineZoom: 1.3

[Metadata]
Title:Wokashi
TitleUnicode:をかし
Artist:Shikata Akiko
ArtistUnicode:志方あきこ
Creator:ScubDomino
Version:Hard
Source:
Tags:Japanese vocal Neoclassical folk VAGRANCY AURA-0024 cd 染谷真衣 mai someya zennmai_siki zennmai shiki autumn/// glaze GlaZeCS 8009626 lince cosmico lince_cosmico chekito stamblono 6070370 saturnalize nicholauscjj 762487 natsume shiki natsuki_shiki anime girl anime_girl jungkyuyoung 8972308 exquisite
BeatmapID:2675310
BeatmapSetID:1233709

[Difficulty]
HPDrainRate:5
CircleSize:3
OverallDifficulty:6
ApproachRate:8
SliderMultiplier:1.4
SliderTickRate:0.5

[Events]
//Background and Video events
0,0,"71202114_p0.png",0,0
//Break Periods
2,21060,25510
2,36060,42004
2,137672,142528
2,173284,183367
2,216639,224980
//Storyboard Layer 0 (Background)
//Storyboard Layer 1 (Fail)
//Storyboard Layer 2 (Pass)
//Storyboard Layer 3 (Foreground)
//Storyboard Layer 4 (Overlay)
//Storyboard Sound Samples

[TimingPoints]
660,800,4,2,33,60,1,0
7010,-100,4,2,33,5,0,0
7060,-66.6666666666667,4,2,33,60,0,0
8660,-55.5555555555556,4,2,33,60,0,0
11760,-55.5555555555556,4,2,33,5,0,0
11960,-55.5555555555556,4,2,33,60,0,0
13460,-66.6666666666667,4,2,33,5,0,0
16660,-66.6666666666667,4,2,33,40,0,0
20660,-66.6666666666667,4,2,33,60,0,0
29710,-66.6666666666667,4,2,33,5,0,0
29810,-66.6666666666667,4,2,33,60,0,0
31859,-66.6666666666667,4,2,34,60,0,0
32710,-66.6666666666667,4,2,33,60,0,0
37460,882.352941,4,2,42,25,1,0
42754,1090.909091,4,2,42,25,1,0
43572,-100,4,2,42,5,0,0
43845,789.473684,4,2,42,20,1,0
44635,759.493671,4,2,42,25,1,0
45394,652.173913,4,2,42,25,1,0
46046,697.674419,4,2,42,25,1,0
46744,681.818182,4,2,42,25,1,0
48107,759.493671,4,2,42,25,1,0
49626,740.740741,4,2,42,25,1,0
50367,769.230769,4,2,42,25,1,0
51136,731.707317,4,2,42,25,1,0
51868,857.142857,4,2,42,25,1,0
52725,697.674419,4,2,42,25,1,0
53423,923.076923,4,2,42,25,1,0
54294,923.076923076923,4,2,42,20,1,0
55284,674.157303,4,2,42,17,1,0
56295,-100,4,2,42,5,0,0
56632,759.493671,4,2,42,25,1,0
57391,645.16129,4,2,42,25,1,0
58036,-99.2063492063492,4,2,42,25,0,0
59327,714.285714,4,2,42,25,1,0
60398,-100,4,2,42,5,0,0
60755,779.220779,4,2,42,5,1,0
61535,458.015267,4,2,43,40,1,0
61535,-133.333333333333,4,2,43,40,0,0
65199,500,4,2,43,25,1,0
65699,465.116279,4,2,43,25,1,0
66629,521.73913,4,2,43,25,1,0
66629,-101.522842639594,4,2,43,25,0,0
67151,545.454545,4,2,43,25,1,0
67696,571.428571,4,2,43,25,1,0
68839,535.714286,4,2,43,5,1,0
69375,659.340659,4,2,43,25,1,0
70034,722.891566,4,2,42,25,1,0
70576,-100,4,2,42,5,0,0
70757,909.090909,4,2,42,5,1,0
71097,-100,4,2,42,30,0,0
71666,774.193548,4,2,42,25,1,0
72440,387.096774,4,2,53,80,1,0
84875,-100,4,2,54,80,0,0
94891,-100,4,1,52,80,0,0
94939,-100,4,2,54,80,0,0
97214,-100,4,2,53,80,0,0
106504,-100,4,2,52,65,0,0
110157,-100,4,2,52,30,0,0
110375,-100,4,2,52,65,0,0
110931,-100,4,2,52,30,0,0
111149,-100,4,2,52,65,0,0
111923,-100,4,2,52,5,0,0
112698,-83.3333333333333,4,2,53,80,0,0
112891,-83.3333333333333,4,2,54,80,0,0
113085,-83.3333333333333,4,2,53,80,0,0
113278,-83.3333333333333,4,2,54,80,0,0
113472,-83.3333333333333,4,2,53,80,0,0
113601,-83.3333333333333,4,2,53,5,0,0
113665,-83.3333333333333,4,2,53,80,0,0
115214,-83.3333333333333,4,2,54,80,0,0
115456,-83.3333333333333,4,2,53,80,0,0
118310,-83.3333333333333,4,2,54,80,0,0
118698,-83.3333333333333,4,2,55,80,0,0
119085,-83.3333333333333,4,2,54,80,0,0
119278,-83.3333333333333,4,2,53,80,0,0
119375,-83.3333333333333,4,2,54,80,0,0
119665,-83.3333333333333,4,2,53,80,0,0
124069,-83.3333333333333,4,2,53,40,0,0
124262,-83.3333333333333,4,2,53,80,0,0
124310,-100,4,2,53,80,0,0
128738,-100,4,2,42,80,0,0
128786,-100,4,2,53,80,0,0
137472,-100,4,2,52,60,0,0
138609,-100,4,2,52,20,0,0
138827,-100,4,2,52,30,0,0
138996,-100,4,2,52,60,0,0
139359,-100,4,2,52,40,0,0
140157,-100,4,2,52,60,0,0
140327,-100,4,2,52,30,0,0
140520,-100,4,2,52,60,0,0
141294,-100,4,2,52,40,0,0
141681,-100,4,2,52,20,0,0
141875,-100,4,2,52,30,0,0
142069,-100,4,2,52,50,0,0
142867,-100,4,2,52,40,0,0
143278,-125,4,2,52,40,0,0
143666,845.070423,4,2,52,40,1,0
144511,779.220779,4,2,43,40,1,0
145290,750,4,2,43,40,1,0
146040,789.473684,4,2,43,40,1,0
147619,714.285714,4,2,43,40,1,0
148334,800,4,2,43,40,1,0
149934,789.473684,4,2,43,40,1,0
150723,722.891566,4,2,43,40,1,0
151446,800,4,2,43,40,1,0
152246,779.220779,4,2,43,40,1,0
153025,769.230769,4,2,43,40,1,0
153265,-100,4,2,43,5,0,0
153361,-100,4,2,43,40,0,0
153649,-100,4,2,43,5,0,0
153794,-100,4,2,43,40,0,0
156871,750,4,2,42,80,1,0
157621,764.33121,4,2,33,40,1,0
159150,774.193548,4,2,43,40,1,0
159150,-66.6666666666667,4,2,43,40,0,0
159440,-66.6666666666667,4,2,43,35,0,0
159827,-66.6666666666667,4,2,43,25,0,0
160214,-66.6666666666667,4,2,43,30,0,0
160698,387.096774,4,2,55,80,1,0
160698,-66.6666666666667,4,2,55,80,0,0
164568,-66.6666666666667,4,1,55,80,0,0
164601,-66.6666666666667,4,2,55,80,0,0
164633,-66.6666666666667,4,1,55,80,0,0
164665,-66.6666666666667,4,2,55,80,0,0
167278,-66.6666666666667,4,1,55,80,0,0
167375,-66.6666666666667,4,2,55,80,0,0
167407,-66.6666666666667,4,1,55,80,0,0
167504,-66.6666666666667,4,2,55,80,0,0
171536,-100,4,2,55,80,0,0
173085,-100,4,2,42,60,0,0
184117,-100,4,2,54,60,0,0
184189,-100,4,2,54,5,0,0
184238,-100,4,2,54,60,0,0
184383,-100,4,2,54,5,0,0
184431,-100,4,2,54,60,0,0
184577,-100,4,2,54,5,0,0
184625,-100,4,2,54,80,0,0
184964,-100,4,2,54,5,0,0
185012,-100,4,2,54,80,0,0
185351,-100,4,2,54,5,0,0
185399,-100,4,2,54,80,0,0
187020,-100,4,2,53,80,0,0
191085,-100,4,2,54,80,0,0
191665,-100,4,2,53,80,0,0
200181,-100,4,2,53,5,0,0
200956,-66.6666666666667,4,2,53,80,0,0
201149,-66.6666666666667,4,2,54,80,0,0
201343,-66.6666666666667,4,2,53,80,0,0
201536,-66.6666666666667,4,2,54,80,0,0
201730,-66.6666666666667,4,2,53,80,0,0
206375,-66.6666666666667,4,2,54,80,0,0
206956,-66.6666666666667,4,2,53,80,0,0
207343,-66.6666666666667,4,2,54,80,0,0
207536,-66.6666666666667,4,2,53,80,0,0
207730,-66.6666666666667,4,2,54,80,0,0
207923,-66.6666666666667,4,2,53,80,0,0
213343,-66.6666666666667,4,2,52,80,0,0
214068,-66.6666666666667,4,2,53,60,0,0
214843,-66.6666666666667,4,2,53,40,0,0
215617,-66.6666666666667,4,2,53,20,0,0
216439,-66.6666666666667,4,2,53,5,0,0
224956,-66.6666666666667,4,2,53,40,0,0
225730,-133.333333333333,4,2,42,40,0,0
231923,-133.333333333333,4,2,1,40,0,0
232117,-133.333333333333,4,2,42,40,0,0
234633,-133.333333333333,4,2,53,45,0,0
235020,-133.333333333333,4,2,1,45,0,0
235117,-133.333333333333,4,2,53,45,0,0
236568,-133.333333333333,4,2,1,45,0,0
236762,-133.333333333333,4,2,54,45,0,0
237343,-133.333333333333,4,2,53,50,0,0
237536,-133.333333333333,4,2,54,50,0,0
237730,-133.333333333333,4,2,53,50,0,0
238117,-66.6666666666667,4,2,1,80,0,0
243730,-66.6666666666667,4,2,54,80,0,0
244310,-66.6666666666667,4,2,1,80,0,0
250552,-66.6666666666667,4,2,53,80,0,0
251665,-76.9230769230769,4,2,53,80,0,0
253601,-83.3333333333333,4,2,53,80,0,0
262891,-83.3333333333333,4,2,33,80,0,0
262939,-83.3333333333333,4,2,42,5,0,0
264197,-83.3333333333333,4,2,42,20,0,0
264294,-83.3333333333333,4,2,42,30,0,0
264439,-83.3333333333333,4,2,42,50,0,0
265189,-83.3333333333333,4,2,42,5,0,0
265359,-83.3333333333333,4,2,42,40,0,0
265407,-142.857142857143,4,2,42,40,0,0
265843,-142.857142857143,4,2,42,5,0,0
265989,394.736842,4,2,1,30,1,0
265989,-166.666666666667,4,2,1,30,0,0
266334,-166.666666666667,4,2,42,10,0,0
270676,-166.666666666667,4,2,42,20,0,0
272304,400,4,2,42,30,1,0
273704,-100,4,2,42,5,0,0

[Colours]
Combo1 : 183,115,183
Combo2 : 223,151,98
Combo3 : 205,101,119
Combo4 : 157,189,121

[HitObjects]
316,152,660,5,12,0:3:0:0:
256,192,860,12,4,5460,0:2:0:0:
48,236,7060,6,0,B|22:200|-23:243|-34:300|30:379|166:357|166:185|37:203,1,315.000012016297,4|0,0:3|0:0,0:0:0:0:
192,172,8660,6,0,B|163:213|109:163|97:97|171:5|330:30|330:230|180:209,1,377.999988464356,4|0,0:2|0:0,0:0:0:0:
384,308,10260,6,0,B|315:356|404:420|500:432|659:342|620:64|300:88|275:250|344:342,1,629.999980773926,4|0,0:2|0:0,0:0:0:0:
124,384,12660,6,0,B|127:248|225:294|225:163,1,251.999992309571,12|0,0:1|0:0,0:0:0:0:
500,152,16660,6,0,P|512:96|532:68,1,52.5000020027161,4|0,0:2|0:0,0:0:0:0:
424,80,17060,2,0,P|406:25|409:-8,1,52.5000020027161
328,84,17460,2,0,P|285:45|271:14,1,52.5000020027161
328,84,18260,6,0,P|340:140|360:168,1,52.5000020027161
252,156,18660,2,0,P|234:210|237:244,1,52.5000020027161
156,152,19060,2,0,P|113:190|99:221,1,52.5000020027161
116,185,19860,6,0,L|168:257,1,52.5000020027161
152,364,20260,2,0,L|188:282,1,52.5000020027161
288,244,20660,2,0,L|199:253,1,52.5000020027161,8|0,0:3|0:0,0:0:0:0:
60,24,26260,6,0,P|120:20|148:28,1,52.5000020027161,4|0,0:2|0:0,0:0:0:0:
44,164,26660,2,0,P|10:114|3:85,1,52.5000020027161
172,112,27060,2,0,P|145:165|124:186,1,52.5000020027161
202,164,27860,6,0,P|142:160|114:168,1,52.5000020027161
218,304,28260,2,0,P|251:254|258:225,1,52.5000020027161
90,252,28660,2,0,P|116:305|137:326,1,52.5000020027161
111,299,29460,6,0,L|243:275,1,105.000004005432
296,320,30060,1,0,0:0:0:0:
372,364,30260,2,0,B|448:372|448:372|312:340|308:204,1,315.000012016297
388,156,31860,6,0,L|220:180,1,157.500006008148,8|8,0:3|0:3,0:0:0:0:
120,116,32660,5,4,0:3:0:0:
256,192,32760,12,2,35860,0:1:0:0:
108,180,42754,6,0,P|104:264|108:328,1,140,0|2,0:0|0:0,0:0:0:0:
107,319,44635,2,0,P|55:331|-1:319,1,105,6|0,0:0|0:0,0:0:0:0:
24,240,45394,5,0,0:0:0:0:
200,296,46046,1,2,0:0:0:0:
288,240,46744,6,0,L|216:216,1,70,2|2,0:0|0:0,0:0:0:0:
112,184,47425,1,2,0:0:0:0:
220,124,48107,6,0,L|292:148,1,70,0|2,0:0|0:0,0:0:0:0:
396,180,48866,1,2,0:0:0:0:
448,252,49626,6,0,P|436:288|436:324,1,70,0|2,0:0|0:0,0:0:0:0:
496,384,50367,2,0,P|404:364|344:364,1,140,2|0,0:0|0:0,0:0:0:0:
288,312,51867,1,2,0:0:0:0:
200,312,52725,2,0,P|168:328|128:336,1,70,2|2,0:0|0:0,0:0:0:0:
72,228,53423,6,0,P|92:184|96:136,1,87.5,2|0,0:0|0:0,0:0:0:0:
96,136,54294,2,0,P|112:172|132:200,1,70,2|0,0:0|0:0,0:0:0:0:
129,196,55284,2,0,B|257:160|229:216|377:176,1,245,2|0,0:0|0:0,0:0:0:0:
380,176,56632,6,0,P|416:144|416:76,1,105,6|2,0:2|0:0,0:0:0:0:
356,24,57391,2,0,P|320:24|288:40,1,70,2|0,0:0|0:0,0:0:0:0:
264,92,58036,6,0,B|240:232|300:136|288:288|244:336|244:336|256:196|384:180|384:180|384:248|356:288,1,595,2|0,0:0|0:0,0:0:0:0:
358,284,61535,6,0,L|302:296,2,52.5000020027161,0|2|4,0:0|0:0|0:2,0:0:0:0:
112,232,62451,6,0,L|168:244,2,52.5000020027161,0|2|2,0:0|0:0|0:0,0:0:0:0:
400,152,63367,6,0,L|348:140,2,52.5000020027161,2|0|2,0:0|0:0|0:0,0:0:0:0:
154,100,64283,6,0,L|205:88,2,52.5000020027161,0|2|2,0:0|0:0|0:0,0:0:0:0:
36,40,65199,2,0,P|32:80|24:112,1,70
12,192,65699,6,0,P|36:156|124:120,1,140,2|0,0:0|0:0,0:0:0:0:
228,20,66629,2,0,P|284:104|392:84,1,210,2|0,0:0|0:0,0:0:0:0:
472,20,67696,6,0,P|416:92|492:32,1,280,2|0,0:0|0:0,0:0:0:0:
512,192,69374,5,4,0:2:0:0:
256,192,69539,12,0,71666,0:0:0:0:
194,203,72440,6,0,L|306:189,1,105,4|0,1:1|0:0,0:0:0:0:
113,199,72827,2,0,L|225:185,1,105,8|0,1:2|0:0,0:0:0:0:
32,195,73214,2,0,L|129:182,1,70,0|0,1:0|0:0,0:0:0:0:
145,115,73601,1,8,1:2:0:0:
45,34,73794,1,0,1:0:0:0:
132,23,73988,6,0,P|196:37|238:97,1,140,4|8,1:1|1:2,0:0:0:0:
300,31,74569,1,0,3:0:0:0:
407,105,74762,2,0,L|490:89,1,70,0|8,1:0|0:2,0:0:0:0:
394,114,75149,1,8,1:2:0:0:
484,178,75343,1,0,3:0:0:0:
384,226,75536,6,0,P|324:203|256:194,1,105,2|0,1:3|0:0,0:0:0:0:
269,200,75923,1,12,1:2:0:0:
205,110,76117,1,0,3:0:0:0:
157,210,76310,6,0,P|180:270|189:338,1,105,2|0,1:3|0:0,0:0:0:0:
188,322,76698,1,12,1:2:0:0:
109,379,76891,1,0,3:0:0:0:
28,323,77085,6,0,P|41:274|40:232,1,70,0|0,1:0|3:0,0:0:0:0:
46,247,77375,1,0,3:0:0:0:
44,239,77472,2,0,L|29:148,1,70,12|0,1:2|3:0,0:0:0:0:
103,67,77859,2,0,B|189:56|152:96|262:82,1,140,2|8,1:2|1:2,0:0:0:0:
307,33,78439,1,0,0:0:0:0:
384,116,78633,6,0,P|393:48|427:16,1,105,4|0,1:1|0:0,0:0:0:0:
404,195,79020,2,0,P|413:127|447:95,1,105,12|0,1:2|0:0,0:0:0:0:
423,273,79407,2,0,P|425:222|453:185,1,70,0|0,1:2|0:0,0:0:0:0:
446,357,79794,2,0,P|411:359|379:348,1,70,8|0,1:2|0:0,0:0:0:0:
188,264,80181,6,0,L|271:279,1,70,4|0,1:1|3:0,0:0:0:0:
268,284,80472,1,0,3:0:0:0:
276,291,80569,2,0,P|325:272|358:281,1,70,8|0,1:2|0:0,0:0:0:0:
346,123,80956,2,0,P|306:178|239:180,1,140,0|8,1:0|1:2,0:0:0:0:
296,60,81536,1,0,1:0:0:0:
169,4,81730,5,0,1:0:0:0:
15,154,82117,2,0,L|29:54,1,70,8|0,1:2|0:0,0:0:0:0:
25,77,82407,1,0,0:0:0:0:
27,71,82504,2,0,B|14:57|32:50|32:50|87:99|144:108,1,140,0|8,1:0|1:2,0:0:0:0:
130,188,83085,1,0,3:0:0:0:
197,238,83278,6,0,P|259:224|322:224,1,105,4|0,1:1|0:0,0:0:0:0:
365,287,83665,2,0,L|444:303,1,70,8|0,1:2|1:0,0:0:0:0:
444,300,83956,1,0,1:0:0:0:
453,296,84052,5,0,1:0:0:0:
461,206,84246,1,0,1:0:0:0:
462,120,84439,2,0,P|463:101|465:123,1,70,8|0,1:2|1:0,0:0:0:0:
346,97,84827,5,4,1:1:0:0:
256,192,84923,12,0,87536,1:0:0:0:
201,225,87923,6,0,P|201:288|70:326,1,210,2|0,1:2|0:0,0:0:0:0:
68,248,88698,2,0,P|68:201|165:173,1,140,2|2,1:0|1:2,0:0:0:0:
206,222,89278,1,0,0:0:0:0:
284,194,89472,1,8,1:0:0:0:
143,162,89859,5,8,1:0:0:0:
206,222,90052,1,8,0:0:0:0:
284,194,90246,1,8,1:0:0:0:
166,83,90633,6,0,L|157:14,2,70,2|0|2,1:3|0:0|1:1,0:0:0:0:
166,83,91407,6,0,P|236:53|305:79,1,140,4|0,1:3|1:0,0:0:0:0:
431,187,92181,2,0,P|361:157|292:183,1,140,4|8,1:3|1:1,0:0:0:0:
80,196,92956,2,0,P|142:226|209:209,1,140,4|0,1:3|1:0,0:0:0:0:
346,300,93730,2,0,P|317:321|284:330,1,70,4|0,1:3|0:0,0:0:0:0:
222,267,94117,6,0,L|200:123,1,140,8|8,1:2|1:1,0:0:0:0:
124,86,94698,1,0,3:0:0:0:
124,86,94794,1,0,3:0:0:0:
124,86,94891,2,0,B|75:55|34:87|34:87|55:116|86:111,1,140,2|0,1:1|1:0,0:0:0:0:
128,184,95472,1,0,0:0:0:0:
200,128,95665,6,0,B|269:127|312:161,1,105,12|8,1:3|0:3,0:0:0:0:
307,161,96052,5,8,1:3:0:0:
90,270,96439,1,8,1:3:0:0:
365,372,96827,1,10,1:3:0:0:
105,275,97214,6,0,B|178:283|164:236|248:250,1,140,4|0,1:1|1:3,0:0:0:0:
325,289,97794,1,2,0:3:0:0:
408,244,97988,2,0,P|397:169|272:183,1,210,2|2,1:2|0:3,0:0:0:0:
277,179,98665,1,0,0:0:0:0:
272,187,98762,6,0,L|263:268,1,70,2|0,1:2|0:0,0:0:0:0:
108,174,99149,2,0,L|42:125,1,70,2|0,1:3|0:0,0:0:0:0:
208,51,99536,2,0,L|282:18,1,70,2|2,1:3|3:2,0:0:0:0:
349,103,99923,1,2,1:3:0:0:
51,132,100310,6,0,B|128:141|172:70|256:80,1,210,4|0,1:1|3:3,0:0:0:0:
349,103,101085,1,2,1:2:0:0:
349,103,101472,2,0,L|472:123,1,105,2|0,1:2|0:0,0:0:0:0:
465,124,101859,6,0,P|486:184|469:224,1,105,2|0,1:2|0:0,0:0:0:0:
462,235,102246,1,0,1:0:0:0:
426,311,102440,1,0,3:0:0:0:
348,341,102633,2,0,P|286:333|270:321,2,70,2|2|2,1:2|3:0|1:3,0:0:0:0:
190,362,103407,6,0,L|165:229,1,105,4|0,1:1|1:0,0:0:0:0:
157,175,103794,1,0,1:1:0:0:
34,205,103988,1,0,1:2:0:0:
48,360,104181,1,4,1:2:0:0:
171,330,104375,1,4,1:0:0:0:
325,9,104956,6,0,L|458:34,1,105,4|0,1:1|1:0,0:0:0:0:
512,42,105343,1,0,1:1:0:0:
488,159,105537,1,0,1:2:0:0:
328,142,105730,1,4,1:2:0:0:
357,28,105924,1,4,1:0:0:0:
256,192,106310,5,0,0:0:0:0:
256,192,106504,1,12,1:3:0:0:
256,192,106601,12,0,111149,1:0:0:0:
42,196,112698,6,0,B|133:177|133:177|92:207,1,125.999996154785,4|10,1:0|0:0,0:0:0:0:
195,235,113085,2,0,B|286:216|286:216|245:246,1,125.999996154785,8|0,1:2|3:3,0:0:0:0:
333,282,113472,2,0,L|430:263,1,83.9999974365235,0|0,1:0|0:0,0:0:0:0:
476,77,113859,2,0,L|390:93,1,83.9999974365235,10|0,1:2|1:0,0:0:0:0:
308,115,114246,5,4,1:2:0:0:
228,37,114439,1,2,0:0:0:0:
125,84,114633,1,10,1:2:0:0:
125,84,114730,1,0,0:0:0:0:
125,84,114826,1,0,3:3:0:0:
103,195,115020,6,0,P|123:249|159:269,1,83.9999974365235,2|2,1:3|0:3,0:0:0:0:
237,261,115407,2,0,P|273:216|273:175,1,83.9999974365235,10|0,1:3|0:0,0:0:0:0:
190,191,115794,6,0,P|203:304|181:385,1,167.999994873047,4|10,1:2|1:2,0:0:0:0:
249,268,116375,1,2,0:0:0:0:
305,354,116569,2,0,P|291:272|305:202,1,125.999996154785,2|0,1:3|0:0,0:0:0:0:
301,217,116956,2,0,P|340:227|346:179,1,83.9999974365235,10|0,1:2|1:0,0:0:0:0:
481,243,117343,5,6,1:2:0:0:
191,82,117730,1,10,1:2:0:0:
510,56,118117,2,0,P|441:84|398:77,1,83.9999974365235,0|10,1:0|0:3,0:0:0:0:
318,27,118504,5,10,1:3:0:0:
297,22,118600,1,8,3:0:0:0:
276,18,118697,1,0,1:0:0:0:
256,14,118794,1,0,3:2:0:0:
236,9,118891,2,0,B|252:73|195:101|195:101|208:60,1,125.999996154785,4|8,1:0|0:0,0:0:0:0:
110,130,119278,2,0,B|126:194|69:222|69:222|82:181,1,125.999996154785,8|0,1:2|3:0,0:0:0:0:
6,280,119665,2,0,P|15:329|8:365,1,83.9999974365235,0|2,1:0|0:0,0:0:0:0:
136,384,120052,1,10,1:2:0:0:
240,308,120246,1,2,0:3:0:0:
148,223,120439,6,0,L|257:201,1,83.9999974365235,4|0,1:2|0:0,0:0:0:0:
256,192,120730,1,2,3:0:0:0:
281,206,120827,2,0,L|364:223,1,83.9999974365235,8|0,1:2|0:0,0:0:0:0:
512,192,121214,1,4,1:2:0:0:
304,120,121601,2,0,P|352:108|380:72,1,83.9999974365235,8|0,1:2|1:0,0:0:0:0:
236,24,121988,6,0,P|216:72|84:76,1,167.999994873047,4|8,1:1|1:2,0:0:0:0:
12,56,122569,1,0,0:0:0:0:
0,168,122762,2,0,P|44:228|112:216,1,125.999996154785,0|0,1:0|0:0,0:0:0:0:
96,224,123149,2,0,P|144:196|192:212,1,83.9999974365235,8|2,1:2|0:3,0:0:0:0:
256,324,123536,5,4,1:2:0:0:
136,56,124310,2,0,P|184:60|216:84,1,70,2|2,0:0|1:3,0:0:0:0:
284,144,124698,2,0,L|376:128,1,70,2|0,1:3|1:0,0:0:0:0:
360,124,124988,1,0,1:0:0:0:
368,116,125085,5,4,1:0:0:0:
208,192,125472,1,8,1:2:0:0:
48,268,125859,2,0,P|40:336|76:376,1,105,0|0,1:0|0:0,0:0:0:0:
68,368,126246,2,0,L|148:380,1,70,8|0,1:2|0:0,0:0:0:0:
148,372,126536,1,0,3:0:0:0:
156,364,126633,5,0,1:0:0:0:
108,200,127020,1,8,1:2:0:0:
60,36,127407,2,0,P|104:76|164:64,1,105,0|0,1:0|0:0,0:0:0:0:
156,68,127794,2,0,L|240:88,1,70,8|0,1:2|0:0,0:0:0:0:
232,76,128085,1,0,3:0:0:0:
240,68,128181,5,0,1:0:0:0:
320,200,128569,1,8,1:2:0:0:
400,332,128956,2,0,L|412:252,1,70,0|0,1:0|0:0,0:0:0:0:
504,240,129343,2,0,L|492:320,1,70,8|0,1:2|3:0,0:0:0:0:
496,320,129633,1,0,3:0:0:0:
500,328,129730,6,0,P|444:360|360:316,1,140,0|8,1:0|1:2,0:0:0:0:
304,296,130310,1,0,0:0:0:0:
220,320,130504,2,0,L|144:304,1,70,0|8,1:0|0:2,0:0:0:0:
48,304,130891,2,0,L|124:320,1,70,8|0,1:2|0:0,0:0:0:0:
140,212,131278,6,0,B|149:117|124:164|143:52,1,140,4|8,1:1|1:2,0:0:0:0:
208,24,131859,1,0,3:0:0:0:
280,72,132052,2,0,P|348:44|404:64,1,105,0|0,1:0|0:0,0:0:0:0:
384,56,132439,2,0,L|404:152,1,70,8|0,1:2|0:0,0:0:0:0:
408,128,132730,1,0,0:0:0:0:
416,132,132827,5,0,1:0:0:0:
256,168,133214,1,8,1:2:0:0:
92,208,133601,2,0,L|204:228,1,105,0|0,1:0|0:0,0:0:0:0:
204,228,133988,2,0,L|128:240,1,70,8|0,1:2|0:0,0:0:0:0:
8,233,134375,6,0,P|-12:297|15:360,1,140,4|8,1:2|1:2,0:0:0:0:
108,380,134956,1,0,1:0:0:0:
192,328,135149,2,0,P|213:263|184:201,1,140,0|8,1:0|1:2,0:0:0:0:
344,248,135923,6,0,L|448:232,1,105,0|0,1:0|0:0,0:0:0:0:
460,232,136310,2,0,P|480:264|480:308,1,70,8|0,1:2|0:0,0:0:0:0:
368,156,136698,2,0,P|348:124|348:80,1,70,0|8,1:0|0:2,0:0:0:0:
464,16,137085,2,0,B|520:36|520:100|520:100|500:114|475:83,1,140,12|8,1:2|1:3,0:0:0:0:
96,244,143278,6,0,L|88:300,1,56
4,376,143666,5,8,3:3:0:0:
56,304,144511,1,2,0:0:0:0:
144,292,145290,1,4,0:2:0:0:
208,352,145852,2,0,L|236:356,2,17.5,2|2|4,0:0|0:0|0:0,0:0:0:0:
292,296,146434,2,0,P|284:276|284:256,1,35,0|2,0:0|0:0,0:0:0:0:
264,180,146829,2,0,P|288:120|288:64,1,105,4|0,0:2|0:0,0:0:0:0:
364,28,147618,1,2,0:0:0:0:
200,108,147976,1,0,0:0:0:0:
48,20,148333,5,6,0:0:0:0:
72,132,148734,2,0,L|84:84,1,35,2|0,0:0|0:0,0:0:0:0:
48,20,149134,1,2,0:0:0:0:
0,188,149534,1,0,0:0:0:0:
0,200,149734,1,2,0:0:0:0:
0,212,149934,5,6,0:0:0:0:
196,180,150723,5,2,0:0:0:0:
356,224,151445,5,2,0:0:0:0:
436,312,152246,5,2,0:0:0:0:
504,252,152635,2,0,L|512:188,1,35
420,204,153025,6,0,P|380:220|324:224,1,70,2|2,0:0|0:0,0:0:0:0:
104,173,153794,2,0,P|144:157|204:153,1,87.5,6|2,0:0|0:0,0:0:0:0:
188,152,154948,2,0,P|124:112|-12:88,1,210,0|4,0:0|0:2,0:0:0:0:
0,0,157621,5,12,3:3:0:0:
25,80,159150,6,0,P|4:70|1:91,1,52.5000020027161,0|2,3:2|3:2,0:0:0:0:
65,156,159537,2,0,P|54:176|76:180,1,52.5000020027161,0|2,3:2|3:2,0:0:0:0:
121,256,159924,2,0,P|141:245|145:267,1,52.5000020027161,0|2,3:2|3:2,0:0:0:0:
81,331,160311,2,0,P|91:351|69:355,1,52.5000020027161,0|2,3:2|3:2,0:0:0:0:
256,368,160698,6,0,B|305:310|373:347|373:347|383:374,1,157.500006008148,4|0,1:0|0:0,0:0:0:0:
256,336,161085,2,0,P|208:352|164:344,2,52.5000020027161,8|0|0,1:1|0:0|0:1,0:0:0:0:
400,272,161472,5,0,1:0:0:0:
316,192,161665,2,0,P|260:240|208:236,1,105.000004005432,0|8,0:1|1:0,0:0:0:0:
216,236,161956,1,0,3:0:0:0:
208,228,162052,1,0,3:1:0:0:
144,120,162246,6,0,B|120:92|76:96|76:96|56:112|56:112|-20:128,1,157.500006008148,4|0,1:2|0:0,0:0:0:0:
4,132,162633,2,0,P|48:188|40:240,1,105.000004005432,8|0,1:0|0:1,0:0:0:0:
164,260,163020,5,0,1:0:0:0:
216,159,163214,2,0,P|200:61|285:10,1,210.000008010865,0|8,1:1|1:0,0:0:0:0:
396,0,163794,6,0,B|408:24|400:48|400:48|404:56|404:56|412:112,1,105.000004005432,4|0,1:1|3:1,0:0:0:0:
420,108,164085,1,0,3:0:0:0:
428,116,164181,2,0,B|416:140|424:164|424:164|420:172|420:172|412:228,1,105.000004005432,8|0,1:1|0:1,0:0:0:0:
484,280,164568,6,0,L|456:308,3,35.0000013351441,0|0|0|0,1:1|2:1|0:1|0:1,0:0:0:0:
404,372,164956,1,8,1:1:0:0:
272,332,165149,6,0,B|240:327|228:340|228:340|205:334|205:334|205:318|184:304|184:304|121:337|63:276,1,210.000008010865,2|0,0:0|0:1,0:0:0:0:
40,228,165730,6,0,L|16:104,1,105.000004005432,8|0,1:1|3:0,0:0:0:0:
20,112,166020,1,0,3:0:0:0:
32,112,166117,2,0,P|76:152|148:156,1,105.000004005432,0|8,1:0|0:1,0:0:0:0:
184,76,166504,2,0,P|212:132|356:140,1,210.000008010865,8|4,1:0|1:0,0:0:0:0:
360,56,167085,5,0,0:0:0:0:
432,116,167278,6,0,B|480:128|480:128|488:128|488:128|480:148,2,70.0000026702882,8|0|0,1:1|2:0|0:1,0:0:0:0:
346,147,167665,6,0,B|311:182|311:182|307:189|307:189|294:172,2,70.0000026702882,0|0|0,1:0|0:1|0:0,0:0:0:0:
360,56,168052,6,0,B|346:8|346:8|342:1|342:1|363:-1,2,70.0000026702882,8|0|0,1:1|0:1|0:0,0:0:0:0:
352,152,168439,6,0,B|336:240|376:220|360:328,1,157.500006008148,0|0,1:1|0:0,0:0:0:0:
364,316,168827,2,0,B|404:344|404:344|464:332,1,105.000004005432,8|0,1:1|0:1,0:0:0:0:
296,368,169214,2,0,B|239:337|239:337|217:285|217:285|220:360|164:394,1,210.000008010865,0|8,1:1|1:0,0:0:0:0:
76,368,169794,1,0,1:0:0:0:
0,280,169988,6,0,P|4:180|32:136,1,105.000004005432,4|0,1:2|0:0,0:0:0:0:
12,68,170375,2,0,P|112:72|156:100,1,105.000004005432,8|0,1:0|0:0,0:0:0:0:
216,64,170762,2,0,P|212:164|184:208,1,105.000004005432,0|8,1:0|0:1,0:0:0:0:
216,272,171149,2,0,P|116:268|72:240,1,105.000004005432,8|0,1:1|0:1,0:0:0:0:
12,192,171536,6,0,B|116:256|260:168|204:132|344:92|468:136|468:136|432:160|424:208,1,560,4|12,1:1|0:0,0:0:0:0:
200,122,184117,5,8,0:2:0:0:
228,246,184310,1,8,0:2:0:0:
312,270,184504,1,8,0:2:0:0:
284,146,184697,2,0,B|361:143|334:110|415:107,1,140,6|2,0:3|0:3,0:0:0:0:
416,108,185472,6,0,B|343:116|357:69|273:83,1,140,4|0,1:1|1:0,0:0:0:0:
196,122,186052,1,0,0:0:0:0:
136,192,186246,2,0,P|147:267|272:253,1,210,0|0,1:0|0:0,0:0:0:0:
267,257,186923,1,0,0:0:0:0:
272,249,187020,6,0,L|281:168,1,70,0|0,1:0|0:0,0:0:0:0:
412,208,187407,2,0,L|478:257,1,70,2|0,1:3|0:0,0:0:0:0:
376,356,187794,2,0,L|302:389,1,70,2|0,1:3|0:0,0:0:0:0:
247,300,188181,1,2,1:2:0:0:
448,248,188568,6,0,B|371:239|327:310|243:300,1,210,4|0,1:1|0:0,0:0:0:0:
163,281,189343,1,0,1:0:0:0:
163,281,189730,2,0,L|40:261,1,105,0|0,1:0|0:0,0:0:0:0:
47,260,190117,6,0,P|26:200|43:160,1,105,0|0,1:0|0:0,0:0:0:0:
48,160,190504,1,2,1:3:0:0:
124,0,190891,2,0,P|160:24|176:64,2,70,6|2|2,1:2|1:3|1:3,0:0:0:0:
322,22,191665,6,0,L|347:155,1,105,4|0,1:1|1:0,0:0:0:0:
359,213,192052,1,0,1:0:0:0:
460,233,192246,1,0,1:0:0:0:
443,144,192439,5,0,1:0:0:0:
478,321,192633,1,0,1:0:0:0:
219,373,193214,6,0,L|128:356,1,70,4|0,1:1|1:0,0:0:0:0:
324,280,193601,2,0,L|228:296,1,70,0|0,1:0|1:0,0:0:0:0:
392,152,193988,2,0,L|304:204,1,70,4|0,1:1|1:0,0:0:0:0:
331,187,194568,6,0,P|304:160|243:151,2,70,2|4|2,0:0|1:1|0:0,0:0:0:0:
496,380,195343,1,0,1:0:0:0:
412,360,195536,6,0,P|379:347|355:322,1,70,4|0,1:1|1:0,0:0:0:0:
168,372,196117,1,0,1:0:0:0:
228,304,196310,6,0,B|241:224|214:247|234:154,3,140,4|4|4|4,1:1|1:2|1:1|1:2,0:0:0:0:
256,0,197859,1,4,1:1:0:0:
256,192,197956,12,4,199407,1:1:0:0:
0,72,200956,6,0,B|48:80|80:36|80:36|48:80|68:144,1,157.500006008148,4|8,1:1|0:0,0:0:0:0:
56,188,201343,2,0,B|104:196|136:152|136:152|104:196|124:260,1,157.500006008148,8|0,1:2|3:3,0:0:0:0:
104,304,201730,2,0,P|168:296|208:236,1,105.000004005432,2|2,1:2|0:3,0:0:0:0:
260,356,202117,1,10,1:2:0:0:
352,380,202310,1,0,3:3:0:0:
408,304,202504,6,0,P|424:240|512:204,1,157.500006008148,4|0,1:1|3:3,0:0:0:0:
508,208,202891,2,0,P|528:148|496:80,1,105.000004005432,8|0,1:2|3:0,0:0:0:0:
444,64,203278,5,4,1:2:0:0:
368,164,203472,1,0,3:0:0:0:
368,164,203568,1,0,3:0:0:0:
368,164,203665,2,0,L|260:136,1,105.000004005432,10|0,1:2|1:0,0:0:0:0:
100,88,204052,5,4,1:1:0:0:
164,163,204246,1,0,0:0:0:0:
164,163,204343,1,0,0:0:0:0:
164,163,204439,2,0,L|272:135,1,105.000004005432,8|0,1:2|3:0,0:0:0:0:
432,87,204826,5,2,1:3:0:0:
440,264,205214,2,0,P|408:304|408:388,1,105.000004005432,8|0,1:2|1:0,0:0:0:0:
304,296,205601,6,0,P|276:340|148:336,1,157.500006008148,4|2,1:1|3:3,0:0:0:0:
188,320,205988,2,0,P|137:331|49:237,1,157.500006008148,10|0,1:2|0:0,0:0:0:0:
96,264,206375,2,0,P|37:214|35:147,1,105.000004005432,4|2,1:3|1:3,0:0:0:0:
144,92,206762,2,0,P|202:141|204:208,1,105.000004005432,2|0,1:3|1:0,0:0:0:0:
120,176,207149,6,0,B|144:64|144:64|112:120,1,157.500006008148,4|8,1:1|0:0,0:0:0:0:
256,136,207536,2,0,B|280:24|280:24|248:80,1,157.500006008148,8|0,1:2|3:0,0:0:0:0:
392,104,207923,2,0,L|416:0,1,105.000004005432,4|2,1:2|0:0,0:0:0:0:
496,76,208310,1,10,1:2:0:0:
476,156,208504,1,0,1:0:0:0:
368,208,208697,6,0,P|440:240|460:292,1,105.000004005432,4|0,1:1|3:0,0:0:0:0:
460,268,208988,1,2,3:0:0:0:
468,272,209085,2,0,P|460:328|500:384,1,105.000004005432,8|0,1:2|3:0,0:0:0:0:
368,296,209472,5,4,1:2:0:0:
65,313,209859,2,0,L|168:336,1,105.000004005432,8|0,1:2|1:0,0:0:0:0:
240,288,210246,6,0,B|352:256|332:360|468:328,1,210.000008010865,4|8,1:1|1:2,0:0:0:0:
512,260,210827,1,0,0:0:0:0:
492,164,211020,6,0,P|452:132|320:192,1,210.000008010865,0|8,1:0|1:2,0:0:0:0:
264,272,211601,1,0,1:0:0:0:
190,196,211794,6,0,P|112:259|28:228,1,157.500006008148,4|0,1:2|0:0,0:0:0:0:
52,248,212181,2,0,P|56:184|32:124,1,105.000004005432,8|0,1:2|3:0,0:0:0:0:
12,64,212568,5,0,1:0:0:0:
136,116,212762,1,0,3:0:0:0:
136,116,212859,1,0,3:0:0:0:
136,116,212956,2,0,P|196:40|120:36,1,210.000008010865,8|12,1:2|1:3,0:0:0:0:
256,192,213439,12,0,216439,0:0:0:0:
176,296,225730,6,0,P|152:344|12:336,1,210.000008010865,4|8,0:0|0:0,0:0:0:0:
64,216,226891,2,0,L|124:232,1,52.5000020027161,0|2,0:0|0:0,0:0:0:0:
200,256,227278,6,0,P|224:304|364:296,1,210.000008010865,4|8,0:0|0:0,0:0:0:0:
460,152,228439,1,0,0:0:0:0:
352,204,228827,6,0,B|396:156|368:96|344:112|328:44|372:4,2,210.000008010865,4|8|2,0:0|0:0|0:0,0:0:0:0:
264,196,230568,1,0,3:0:0:0:
248,112,230762,1,0,3:0:0:0:
68,48,231149,2,0,P|116:16|212:36,1,157.500006008148,8|2,0:0|0:0,0:0:0:0:
216,40,231923,6,0,P|200:144|0:168,1,315.000012016297,8|0,0:3|0:0,0:0:0:0:
296,344,233472,6,0,P|312:240|512:216,1,315.000012016297,4|2,0:0|0:0,0:0:0:0:
428,364,235020,6,0,P|396:308|504:356,1,315.000012016297,4|2,0:3|0:0,0:0:0:0:
296,344,236568,6,0,P|248:332|224:332,1,52.5000020027161,2|2,2:2|1:3,0:0:0:0:
280,220,236956,2,0,P|254:177|237:160,1,52.5000020027161,2|2,1:3|1:3,0:0:0:0:
368,116,237343,2,0,L|356:4,1,105.000004005432,2|0,1:3|3:0,0:0:0:0:
356,11,238117,6,0,B|356:63|296:75|268:55|268:55|280:11,1,157.500006008148,4|2,1:1|0:0,0:0:0:0:
204,120,238504,2,0,B|204:172|144:184|116:164|116:164|128:120,1,157.500006008148,2|0,3:3|2:0,0:0:0:0:
29,150,238891,2,0,P|32:202|68:240,1,105.000004005432,4|8,3:3|2:2,0:0:0:0:
101,334,239278,1,2,3:0:0:0:
179,274,239471,1,8,0:0:0:0:
195,371,239665,6,0,B|178:275|178:275|130:331,1,157.500006008148,0|2,1:1|0:0,0:0:0:0:
248,216,240052,2,0,B|343:199|343:199|287:151,1,157.500006008148,10|0,3:3|2:0,0:0:0:0:
416,256,240439,2,0,B|436:368,1,105.000004005432,8|0,3:1|2:2,0:0:0:0:
353,170,240827,1,2,3:0:0:0:
370,69,241020,1,8,2:0:0:0:
362,36,241117,1,2,0:0:0:0:
352,4,241214,6,0,B|308:4|280:48|280:48|256:4|192:0,1,157.500006008148,4|2,1:2|0:0,0:0:0:0:
64,36,241601,2,0,B|108:36|136:80|136:80|160:36|224:32,1,157.500006008148,2|0,3:3|2:0,0:0:0:0:
252,104,241988,2,0,B|228:104|212:127|212:127|199:104|165:101,1,105.000004005432,4|8,3:3|2:2,0:0:0:0:
117,203,242375,1,2,3:0:0:0:
115,294,242568,1,8,0:0:0:0:
208,376,242762,6,0,P|208:300|220:164,1,210.000008010865,8|2,1:3|3:3,0:0:0:0:
308,160,243343,1,0,0:0:0:0:
384,208,243536,2,0,P|404:148|412:92,1,105.000004005432,2|2,3:1|2:3,0:0:0:0:
496,208,243923,2,0,P|376:220|348:228,1,105.000004005432,10|8,3:3|3:2,0:0:0:0:
296,305,244310,6,0,P|272:229|183:265,1,157.500006008148,4|8,1:1|0:0,0:0:0:0:
177,106,244697,2,0,P|254:123|267:29,1,157.500006008148,2|2,3:3|0:0,0:0:0:0:
409,101,245085,2,0,P|355:152|388:208,1,105.000004005432,8|8,3:3|2:2,0:0:0:0:
400,288,245472,2,0,L|268:308,1,105.000004005432,2|8,3:3|2:2,0:0:0:0:
140,348,245859,6,0,B|108:357|71:344|46:313|46:313|46:348|71:363,1,157.500006008148,0|8,1:1|0:0,0:0:0:0:
116,264,246246,2,0,L|96:140,1,105.000004005432,10|2,3:3|0:0,0:0:0:0:
96,56,246633,2,0,L|128:272,1,210.000008010865,2|2,3:1|3:3,0:0:0:0:
212,208,247214,1,8,2:2:0:0:
224,296,247407,6,0,P|320:352|372:328,1,157.500006008148,4|8,1:3|0:0,0:0:0:0:
368,320,247794,2,0,P|424:332|480:280,1,105.000004005432,2|2,3:3|0:0,0:0:0:0:
440,160,248181,2,0,P|392:196|280:160,1,157.500006008148,8|0,3:3|0:0,0:0:0:0:
248,112,248568,1,2,3:3:0:0:
288,20,248762,1,8,2:2:0:0:
164,68,248956,6,0,P|120:80|40:72,1,105.000004005432,8|8,1:1|0:0,0:0:0:0:
0,184,249343,2,0,P|44:172|124:180,1,105.000004005432,2|2,3:3|0:0,0:0:0:0:
200,252,249730,2,0,P|156:264|76:256,1,105.000004005432,0|2,3:1|2:3,0:0:0:0:
36,368,250117,2,0,P|80:356|160:364,1,105.000004005432,10|8,3:3|3:2,0:0:0:0:
268,384,250504,6,0,P|324:352|252:236,2,210.000008010865,4|8|0,1:0|1:2|1:0,0:0:0:0:
368,328,251472,1,0,0:2:0:0:
460,344,251665,2,0,L|504:236,1,90.9999958343508,8|0,1:2|1:0,0:0:0:0:
420,200,252052,6,0,B|404:80|392:152|376:16,1,181.999991668702,4|8,1:2|1:2,0:0:0:0:
280,136,252633,1,0,3:0:0:0:
280,136,252730,1,0,3:0:0:0:
280,136,252827,2,0,P|228:152|140:60,1,181.999991668702,0|8,1:2|1:2,0:0:0:0:
72,140,253407,1,0,0:0:0:0:
108,220,253601,6,0,L|88:308,1,83.9999974365235,4|0,1:1|0:0,0:0:0:0:
192,260,253988,2,0,L|172:348,1,83.9999974365235,8|0,1:2|0:0,0:0:0:0:
276,296,254375,2,0,L|256:384,1,83.9999974365235,0|0,1:0|3:0,0:0:0:0:
268,380,254665,1,0,3:0:0:0:
276,380,254762,2,0,P|332:360|412:356,1,125.999996154785,8|0,1:2|0:0,0:0:0:0:
480,308,255149,5,4,1:2:0:0:
348,208,255536,1,8,1:2:0:0:
392,40,255923,1,0,1:2:0:0:
328,92,256117,1,8,0:2:0:0:
244,64,256310,2,0,P|188:52|124:40,1,83.9999974365235,8|0,1:2|1:0,0:0:0:0:
28,48,256697,6,0,P|112:72|168:148,1,167.999994873047,4|8,1:0|1:2,0:0:0:0:
144,256,257278,1,0,3:0:0:0:
144,256,257375,1,0,3:0:0:0:
144,256,257472,2,0,P|112:308|112:352,1,83.9999974365235,0|0,1:0|0:0,0:0:0:0:
256,216,257859,2,0,P|317:217|355:195,1,83.9999974365235,8|0,1:2|3:0,0:0:0:0:
340,320,258246,6,0,P|396:312|476:408,1,167.999994873047,4|8,1:2|1:2,0:0:0:0:
512,260,258827,1,0,3:0:0:0:
512,260,258923,1,0,3:0:0:0:
512,260,259020,2,0,P|496:188|488:104,1,125.999996154785,0|0,1:0|0:0,0:0:0:0:
488,124,259407,2,0,L|512:16,1,83.9999974365235,8|0,1:2|1:0,0:0:0:0:
396,88,259794,6,0,P|312:32|228:40,2,167.999994873047,4|8|0,1:1|1:2|1:0,0:0:0:0:
408,220,260762,1,0,3:0:0:0:
408,220,260859,1,0,3:0:0:0:
408,220,260956,2,0,L|308:232,1,83.9999974365235,8|0,1:2|0:0,0:0:0:0:
244,200,261343,6,0,P|200:160|108:164,1,125.999996154785,4|0,1:2|0:0,0:0:0:0:
124,156,261730,2,0,L|12:168,1,83.9999974365235,8|0,1:2|0:0,0:0:0:0:
216,144,262117,2,0,L|204:32,1,83.9999974365235,0|8,1:0|0:2,0:0:0:0:
184,232,262504,2,0,L|164:376,1,125.999996154785,8|0,1:2|0:0,0:0:0:0:
88,380,262891,5,14,3:2:0:0:
256,192,262988,12,4,264439,0:2:0:0:
427,92,265407,6,0,P|433:57|448:32,2,48.9999985046387,2|2|0,0:0|0:0|2:3,0:0:0:0:
484,164,265989,6,0,B|312:4|32:48|32:48|8:216|108:364|108:364|88:248|133:162,1,1007.99996923828,4|4,0:3|0:3,0:0:0:0:
256,192,270824,12,0,273704,0:0:0:0:
