osu file format v14

[General]
AudioFilename: audio.mp3
AudioLeadIn: 0
PreviewTime: 112698
Countdown: 0
SampleSet: Soft
StackLeniency: 0.6
Mode: 0
LetterboxInBreaks: 0
WidescreenStoryboard: 1

[Editor]
Bookmarks: 16660,42754,61535,72440,84439,97214,103407,112698,125085,137472,143278,160698,172697,185472,191665,200956,213343,225730,230181,231923,238117,250504,262891
DistanceSpacing: 1.6
BeatDivisor: 4
GridSize: 4
TimelineZoom: 2.6

[Metadata]
Title:Wokashi
TitleUnicode:をかし
Artist:Shikata Akiko
ArtistUnicode:志方あきこ
Creator:ScubDomino
Version:Dichotomy
Source:
Tags:Japanese vocal Neoclassical folk VAGRANCY AURA-0024 cd 染谷真衣 mai someya zennmai_siki zennmai shiki autumn/// glaze GlaZeCS 8009626 lince cosmico lince_cosmico chekito stamblono 6070370 saturnalize nicholauscjj 762487 natsume shiki natsuki_shiki anime girl anime_girl jungkyuyoung 8972308 exquisite
BeatmapID:2571545
BeatmapSetID:1233709

[Difficulty]
HPDrainRate:5
CircleSize:3.5
OverallDifficulty:8
ApproachRate:9.3
SliderMultiplier:2
SliderTickRate:0.5

[Events]
//Background and Video events
0,0,"71202114_p0.png",0,0
//Break Periods
2,13659,16060
2,21060,25659
2,36060,42154
2,173284,183517
2,216639,224356
//Storyboard Layer 0 (Background)
//Storyboard Layer 1 (Fail)
//Storyboard Layer 2 (Pass)
//Storyboard Layer 3 (Foreground)
//Storyboard Layer 4 (Overlay)
//Storyboard Sound Samples

[TimingPoints]
660,800,4,2,1,60,1,0
3860,-100,4,2,1,60,0,0
4060,-100,4,2,33,60,0,0
7010,-100,4,2,33,5,0,0
7060,-100,4,2,1,60,0,0
11760,-100,4,2,33,5,0,0
11960,-100,4,2,33,60,0,0
12660,-66.6666666666667,4,2,33,60,0,0
13460,-66.6666666666667,4,2,33,5,0,0
16660,-66.6666666666667,4,2,33,40,0,0
20660,-200,4,2,33,60,0,0
29460,-45.4545454545455,4,2,33,60,0,0
29710,-45.4545454545455,4,2,33,5,0,0
29810,-45.4545454545455,4,2,33,60,0,0
30526,-222.222222222221,4,2,33,60,0,0
31859,-55.5555555555556,4,2,34,60,0,0
32710,-55.5555555555556,4,2,33,60,0,0
37460,882.352941,4,2,42,25,1,0
42754,1090.909091,4,2,42,25,1,0
42754,-83.3333333333333,4,2,42,25,0,0
43572,-83.3333333333333,4,2,42,5,0,0
43845,789.473684,4,2,42,20,1,0
43845,-90.9090909090909,4,2,42,20,0,0
44635,759.493671,4,2,42,25,1,0
44635,-250,4,2,42,25,0,0
45394,652.173913,4,2,42,25,1,0
45394,-133.333333333333,4,2,42,25,0,0
46046,697.674419,4,2,42,25,1,0
46046,-133.333333333333,4,2,42,25,0,0
46744,681.818182,4,2,42,25,1,0
46744,-133.333333333333,4,2,42,25,0,0
48107,759.493671,4,2,42,25,1,0
48107,-133.333333333333,4,2,42,25,0,0
48930,-133.333333333333,4,2,42,25,0,0
49626,740.740741,4,2,42,25,1,0
49626,-106.382978723404,4,2,42,25,0,0
50367,769.230769,4,2,42,25,1,0
50367,-121.212121212121,4,2,42,25,0,0
51136,731.707317,4,2,42,25,1,0
51868,857.142857,4,2,42,25,1,0
52725,697.674419,4,2,42,25,1,0
53423,923.076923,4,2,42,25,1,0
53423,-80,4,2,42,25,0,0
54294,923.076923076923,4,2,42,20,1,0
55284,674.157303,4,2,42,17,1,0
55284,-250,4,2,42,17,0,0
56295,-250,4,2,42,5,0,0
56632,759.493671,4,2,42,25,1,0
56632,-133.333333333333,4,2,42,25,0,0
57391,645.16129,4,2,42,25,1,0
57391,-133.333333333333,4,2,42,25,0,0
58036,-140.449438202247,4,2,42,25,0,0
59327,714.285714,4,2,42,25,1,0
60398,-100,4,2,42,5,0,0
60755,779.220779,4,2,42,5,1,0
61535,458.015267,4,2,43,40,1,0
61535,-153.846153846153,4,2,43,40,0,0
65199,500,4,2,43,25,1,0
65199,-153.846153846153,4,2,43,25,0,0
65699,465.116279,4,2,43,25,1,0
65699,-133.333333333333,4,2,43,25,0,0
66629,521.73913,4,2,43,25,1,0
67151,545.454545,4,2,43,25,1,0
67151,-222.222222222222,4,2,43,25,0,0
67696,571.428571,4,2,43,25,1,0
67696,-217.391304347826,4,2,43,25,0,0
68839,535.714286,4,2,43,5,1,0
69375,659.340659,4,2,43,25,1,0
69375,-185.528756957328,4,2,43,25,0,0
70034,722.891566,4,2,42,25,1,0
70576,-100,4,2,42,5,0,0
70757,909.090909,4,2,42,5,1,0
71097,-100,4,2,42,30,0,0
71666,774.193548,4,2,42,25,1,0
72440,387.096774,4,2,53,80,1,0
72440,-76.9230769230769,4,2,53,80,0,0
74375,-58.8235294117647,4,2,53,80,0,0
74762,-76.9230769230769,4,2,53,80,0,0
80181,-58.8235294117647,4,2,53,80,0,0
80956,-76.9230769230769,4,2,53,80,0,0
84827,-133.333333333333,4,2,53,80,0,0
84875,-133.333333333333,4,2,54,80,0,0
91407,-100,4,2,54,80,0,0
94117,-133.333333333333,4,2,54,80,0,0
94891,-100,4,1,52,80,0,0
94939,-100,4,2,54,80,0,0
97214,-83.3333333333333,4,2,53,80,0,0
106504,-133.333333333333,4,2,52,65,0,0
107278,-142.857142857143,4,2,52,65,0,0
107665,-133.333333333333,4,2,52,65,0,0
108827,-117.647058823529,4,2,52,65,0,0
109601,-153.846153846153,4,2,52,65,0,0
110157,-153.846153846153,4,2,52,30,0,0
110375,-133.333333333333,4,2,52,65,0,0
110931,-133.333333333333,4,2,52,30,0,0
111149,-222.222222222221,4,2,52,65,0,0
111923,-222.222222222221,4,2,52,5,0,0
112698,-66.6666666666667,4,2,53,80,0,0
112891,-66.6666666666667,4,2,54,80,0,0
113085,-66.6666666666667,4,2,53,80,0,0
113278,-66.6666666666667,4,2,54,80,0,0
113472,-50,4,2,53,80,0,0
113601,-50,4,2,53,5,0,0
113665,-50,4,2,53,80,0,0
113859,-66.6666666666667,4,2,53,80,0,0
114246,-55.5555555555556,4,2,53,80,0,0
115020,-76.9230769230769,4,2,53,80,0,0
115214,-76.9230769230769,4,2,54,80,0,0
115456,-76.9230769230769,4,2,53,80,0,0
116181,-66.6666666666667,4,2,53,80,0,0
118310,-66.6666666666667,4,2,54,80,0,0
118698,-66.6666666666667,4,2,55,80,0,0
119085,-66.6666666666667,4,2,54,80,0,0
119278,-66.6666666666667,4,2,53,80,0,0
119375,-66.6666666666667,4,2,54,80,0,0
119665,-76.9230769230769,4,2,53,80,0,0
120439,-55.5555555555556,4,2,53,80,0,0
120827,-76.9230769230769,4,2,53,80,0,0
121214,-66.6666666666667,4,2,53,80,0,0
122762,-55.5555555555556,4,2,53,80,0,0
123536,-100,4,2,53,80,0,0
124069,-100,4,2,53,40,0,0
124262,-100,4,2,53,80,0,0
124891,-76.9230769230769,4,2,53,80,0,0
125085,-66.6666666666667,4,2,53,80,0,0
125472,-71.4285714285714,4,2,53,80,0,0
128569,-76.9230769230769,4,2,53,80,0,0
128738,-76.9230769230769,4,2,42,80,0,0
128786,-76.9230769230769,4,2,53,80,0,0
128956,-83.3333333333333,4,2,53,80,0,0
130117,-76.9230769230769,4,2,53,80,0,0
130504,-71.4285714285714,4,2,53,80,0,0
135149,-76.9230769230769,4,2,53,80,0,0
137472,-76.9230769230769,4,2,52,60,0,0
138246,-181.818181818181,4,2,52,60,0,0
138609,-181.818181818181,4,2,52,20,0,0
138827,-181.818181818181,4,2,52,30,0,0
138996,-181.818181818181,4,2,52,60,0,0
139359,-181.818181818181,4,2,52,40,0,0
140157,-181.818181818181,4,2,52,60,0,0
140327,-181.818181818181,4,2,52,30,0,0
140520,-181.818181818181,4,2,52,60,0,0
141294,-181.818181818181,4,2,52,40,0,0
141681,-181.818181818181,4,2,52,20,0,0
141875,-181.818181818181,4,2,52,30,0,0
142069,-181.818181818181,4,2,52,50,0,0
142867,-181.818181818181,4,2,52,40,0,0
143666,845.070423,4,2,52,40,1,0
144511,779.220779,4,2,43,40,1,0
145290,750,4,2,43,40,1,0
146040,789.473684,4,2,43,40,1,0
146829,-111.111111111111,4,2,43,40,0,0
147619,714.285714,4,2,43,40,1,0
147619,-76.9230769230769,4,2,43,40,0,0
148334,800,4,2,43,40,1,0
148334,-58.8235294117647,4,2,43,40,0,0
148734,-76.9230769230769,4,2,43,40,0,0
149534,-111.111111111111,4,2,43,40,0,0
149934,789.473684,4,2,43,40,1,0
150328,-111.111111111111,4,2,43,40,0,0
150723,722.891566,4,2,43,40,1,0
151084,-111.111111111111,4,2,43,40,0,0
151446,800,4,2,43,40,1,0
151846,-111.111111111111,4,2,43,40,0,0
152246,779.220779,4,2,43,40,1,0
152635,-50,4,2,43,40,0,0
153025,769.230769,4,2,43,40,1,0
153025,-58.8235294117647,4,2,43,40,0,0
153265,-58.8235294117647,4,2,43,5,0,0
153361,-58.8235294117647,4,2,43,40,0,0
153649,-58.8235294117647,4,2,43,5,0,0
153794,-66.6666666666667,4,2,43,40,0,0
154274,-100,4,2,43,40,0,0
154948,-83.3333333333333,4,2,43,40,0,0
156871,750,4,2,42,80,1,0
157621,764.33121,4,2,33,40,1,0
159150,774.193548,4,2,43,40,1,0
159440,-100,4,2,43,40,0,0
159827,-100,4,2,43,40,0,0
160214,-100,4,2,43,40,0,0
160698,387.096774,4,2,55,80,1,0
160698,-66.6666666666667,4,2,55,80,0,0
164568,-66.6666666666667,4,1,55,80,0,0
164601,-66.6666666666667,4,2,55,80,0,0
164633,-66.6666666666667,4,1,55,80,0,0
164665,-66.6666666666667,4,2,55,80,0,0
165149,-50,4,2,55,80,0,0
165536,-66.6666666666667,4,2,55,80,0,0
167278,-66.6666666666667,4,1,55,80,0,0
167375,-66.6666666666667,4,2,55,80,0,0
167407,-66.6666666666667,4,1,55,80,0,0
167504,-66.6666666666667,4,2,55,80,0,0
171536,-153.846153846153,4,2,55,80,0,0
173085,-153.846153846153,4,2,42,60,0,0
184117,-100,4,2,54,60,0,0
184189,-100,4,2,54,5,0,0
184238,-100,4,2,54,60,0,0
184383,-100,4,2,54,5,0,0
184431,-100,4,2,54,60,0,0
184577,-100,4,2,54,5,0,0
184625,-100,4,2,54,80,0,0
184697,-76.9230769230769,4,2,54,80,0,0
184964,-76.9230769230769,4,2,54,5,0,0
185012,-76.9230769230769,4,2,54,80,0,0
185351,-76.9230769230769,4,2,54,5,0,0
185399,-76.9230769230769,4,2,54,80,0,0
187020,-100,4,2,53,80,0,0
187407,-66.6666666666667,4,2,53,80,0,0
188181,-133.333333333333,4,2,53,80,0,0
188568,-76.9230769230769,4,2,53,80,0,0
190117,-100,4,2,53,80,0,0
190504,-66.6666666666667,4,2,53,80,0,0
191085,-66.6666666666667,4,2,54,80,0,0
191665,-76.9230769230769,4,2,53,80,0,0
194568,-66.6666666666667,4,2,53,80,0,0
197859,-133.333333333333,4,2,53,80,0,0
199020,-222.222222222221,4,2,53,80,0,0
199407,-133.333333333333,4,2,53,80,0,0
200181,-133.333333333333,4,2,53,5,0,0
200956,-66.6666666666667,4,2,53,80,0,0
201149,-66.6666666666667,4,2,54,80,0,0
201343,-66.6666666666667,4,2,53,80,0,0
201536,-66.6666666666667,4,2,54,80,0,0
201730,-50,4,2,53,80,0,0
202310,-66.6666666666667,4,2,53,80,0,0
202504,-55.5555555555556,4,2,53,80,0,0
202891,-66.6666666666667,4,2,53,80,0,0
203278,-76.9230769230769,4,2,53,80,0,0
204439,-66.6666666666667,4,2,53,80,0,0
205601,-50,4,2,53,80,0,0
205988,-66.6666666666667,4,2,53,80,0,0
206375,-66.6666666666667,4,2,54,80,0,0
206956,-66.6666666666667,4,2,53,80,0,0
207149,-55.5555555555556,4,2,53,80,0,0
207343,-55.5555555555556,4,2,54,80,0,0
207536,-55.5555555555556,4,2,53,80,0,0
207730,-55.5555555555556,4,2,54,80,0,0
207923,-41.6666666666667,4,2,53,80,0,0
208117,-66.6666666666667,4,2,53,80,0,0
208697,-55.5555555555556,4,2,53,80,0,0
211407,-66.6666666666667,4,2,53,80,0,0
213343,-333.333333333333,4,2,52,80,0,0
214068,-333.333333333333,4,2,53,60,0,0
214843,-333.333333333333,4,2,53,40,0,0
215617,-333.333333333333,4,2,53,20,0,0
216439,-333.333333333333,4,2,53,5,0,0
224956,-133.333333333333,4,2,53,40,0,0
225730,-166.666666666667,4,2,42,40,0,0
231923,-166.666666666667,4,2,1,40,0,0
232117,-166.666666666667,4,2,42,40,0,0
234633,-125,4,2,53,45,0,0
235020,-125,4,2,1,45,0,0
235117,-125,4,2,53,45,0,0
236568,-125,4,2,1,45,0,0
236762,-125,4,2,54,45,0,0
237343,-83.3333333333333,4,2,53,50,0,0
237536,-83.3333333333333,4,2,54,50,0,0
237730,-399.999999999997,4,2,53,50,0,0
238117,-66.6666666666667,4,2,1,80,0,0
238891,-50,4,2,1,80,0,0
239085,-66.6666666666667,4,2,1,80,0,0
240439,-50,4,2,1,80,0,0
240633,-66.6666666666667,4,2,1,80,0,0
241988,-50,4,2,1,80,0,0
242181,-66.6666666666667,4,2,1,80,0,0
242762,-50,4,2,1,80,0,0
243730,-50,4,2,54,80,0,0
244310,-50,4,2,1,80,0,1
245085,-66.6666666666667,4,2,1,80,0,1
246633,-50,4,2,1,80,0,1
247407,-66.6666666666667,4,2,1,80,0,1
248181,-50,4,2,1,80,0,1
248568,-66.6666666666667,4,2,1,80,0,1
250504,-66.6666666666667,4,2,1,80,0,0
250552,-66.6666666666667,4,2,53,80,0,0
252052,-76.9230769230769,4,2,53,80,0,0
262891,-333.333333333333,4,2,33,80,0,0
262939,-333.333333333333,4,2,42,5,0,0
264197,-333.333333333333,4,2,42,20,0,0
264294,-333.333333333333,4,2,42,30,0,0
264439,-166.666666666667,4,2,42,50,0,0
265189,-166.666666666667,4,2,42,5,0,0
265359,-166.666666666667,4,2,42,40,0,0
265843,-166.666666666667,4,2,42,5,0,0
265989,394.736842,4,2,1,30,1,0
265989,-714.285714285714,4,2,1,30,0,0
266334,-714.285714285714,4,2,42,10,0,0
270676,-714.285714285714,4,2,42,20,0,0
272304,400,4,2,42,30,1,0
273704,-100,4,2,42,5,0,0

[Colours]
Combo1 : 183,115,183
Combo2 : 223,151,98
Combo3 : 205,101,119
Combo4 : 157,189,121

[HitObjects]
256,192,660,5,4,1:1:0:0:
256,192,760,12,8,2260,0:2:0:0:
256,192,2360,12,2,3860,0:2:0:0:
256,192,3960,12,4,5460,0:2:0:0:
256,192,5510,12,0,6260,0:0:0:0:
256,192,6310,12,0,7010,0:0:0:0:
100,153,7060,6,0,B|291:102|219:284|420:247,1,350,4|0,3:1|0:0,0:0:0:0:
413,153,8660,6,0,B|222:102|294:284|93:247,1,350,8|0,0:3|0:0,0:0:0:0:
18,168,10260,6,0,B|290:92|219:293|529:231,1,500,4|0,0:3|0:0,0:0:0:0:
441,15,12660,2,0,B|419:13|378:73|462:146|505:101|562:62|523:-34|430:-1,1,300,12|0,0:1|0:0,0:0:0:0:
5,36,16660,5,2,0:2:0:0:
186,2,16860,1,0,0:0:0:0:
84,58,17060,1,0,0:0:0:0:
265,24,17260,1,0,0:0:0:0:
163,80,17460,1,0,0:0:0:0:
344,46,17660,1,0,0:0:0:0:
192,350,18260,5,4,0:0:0:0:
237,171,18460,1,0,0:0:0:0:
245,287,18660,1,0,0:0:0:0:
291,109,18860,1,0,0:0:0:0:
298,225,19060,1,0,0:0:0:0:
344,46,19260,1,0,0:0:0:0:
450,311,19860,5,2,0:0:0:0:
417,195,20060,1,0,0:0:0:0:
301,228,20260,1,0,0:0:0:0:
334,344,20460,1,0,3:0:0:0:
511,192,20660,6,0,L|536:192,1,25,8|0,0:3|0:0,0:0:0:0:
55,97,26259,5,4,0:2:0:0:
18,251,26459,1,0,0:0:0:0:
170,285,26659,5,0,0:0:0:0:
205,133,26859,1,0,0:0:0:0:
184,304,27059,5,0,0:0:0:0:
0,261,27259,1,0,0:0:0:0:
291,220,27859,5,0,0:0:0:0:
475,177,28059,1,0,0:0:0:0:
496,348,28259,5,0,0:0:0:0:
461,196,28459,1,0,0:0:0:0:
309,230,28659,5,0,0:0:0:0:
346,384,28860,1,0,0:0:0:0:
207,0,29460,6,0,P|296:47|344:102,1,165.000005035401
363,180,29860,1,0,0:0:0:0:
227,136,30060,1,0,0:0:0:0:
176,258,30260,5,0,0:0:0:0:
35,223,30526,2,0,P|111:223|159:248,1,127.500000000001
81,384,31859,6,0,B|29:226|168:277|106:114,1,270,8|8,0:3|0:3,0:0:0:0:
0,192,32560,1,2,0:3:0:0:
0,192,32660,5,4,0:3:0:0:
256,192,32760,12,2,35860,0:1:0:0:
92,374,42754,6,0,P|24:368|10:259,1,200
82,222,43845,6,0,B|174:224|137:202|245:205,1,165,2|0,0:0|0:0,0:0:0:0:
426,217,44635,6,0,P|456:217|485:213,1,60,6|0,0:0|0:0,0:0:0:0:
502,200,45394,6,0,P|494:148|494:99,1,75.0000000000002,0|2,0:0|0:0,0:0:0:0:
321,56,46046,2,0,P|318:93|312:130,1,75.0000000000002,2|0,0:0|0:0,0:0:0:0:
311,130,46744,6,0,L|386:124,1,75.0000000000002,2|2,0:0|0:0,0:0:0:0:
200,253,47425,2,0,L|126:260,1,75.0000000000002,2|0,0:0|0:0,0:0:0:0:
200,253,48107,6,0,P|194:290|191:328,1,75.0000000000002,0|2,0:0|0:0,0:0:0:0:
18,258,48866,2,0,P|17:221|10:184,1,75.0000000000002,2|0,0:0|0:0,0:0:0:0:
9,183,49626,2,0,P|56:184|102:173,1,94.0000000000002,0|2,0:0|0:0,0:0:0:0:
207,44,50367,6,0,P|283:23|339:78,1,165.000001573563,2|0,0:0|0:0,0:0:0:0:
330,156,51501,1,2,0:0:0:0:
389,245,51868,2,0,P|469:250|475:190,1,150,2|0,0:0|0:0,0:0:0:0:
490,224,52725,2,0,P|477:178|431:163,1,100,2|2,0:0|0:0,0:0:0:0:
209,223,53423,6,0,P|206:302|208:382,1,156.25,2|2,0:0|0:0,0:0:0:0:
222,255,54294,2,0,P|219:207|223:142,1,100,2|0,0:0|0:0,0:0:0:0:
148,311,55284,2,0,P|81:322|7:322,1,140,2|0,0:0|0:0,0:0:0:0:
288,163,56632,6,0,P|292:101|288:44,1,112.5,6|2,0:2|0:0,0:0:0:0:
302,161,57391,2,0,P|298:223|298:251,1,75.0000000000002,2|0,0:0|0:0,0:0:0:0:
296,332,58036,2,0,P|360:145|423:373,1,600.220742888295,2|0,0:0|0:0,0:0:0:0:
488,362,61535,6,0,P|448:370|415:372,1,64.9999970245363,0|2,0:0|0:0,0:0:0:0:
321,353,61993,1,4,0:2:0:0:
400,203,62451,6,0,P|372:233|353:260,1,65.0000000000004,0|2,0:0|0:0,0:0:0:0:
321,353,62909,1,2,0:0:0:0:
136,192,63367,6,0,P|176:200|209:202,1,65.0000000000004,2|0,0:0|0:0,0:0:0:0:
306,182,63825,1,2,0:0:0:0:
227,32,64283,6,0,P|254:62|273:89,1,65.0000000000004,0|2,0:0|0:0,0:0:0:0:
306,182,64741,1,2,0:0:0:0:
129,187,65199,2,0,P|93:218|69:261,1,97.5000000000005
8,316,65699,6,0,P|61:292|127:289,1,112.5,2|0,0:0|0:0,0:0:0:0:
125,287,66164,2,0,P|151:328|181:344,1,75.0000000000002
350,214,66629,6,0,P|277:205|218:248,1,150,2|0,0:0|0:0,0:0:0:0:
209,264,67151,2,0,L|201:308,1,45,2|0,0:0|0:0,0:0:0:0:
372,371,67696,6,0,P|318:304|352:382,1,248.698991701069,2|0,0:0|0:0,0:0:0:0:
341,339,69375,6,0,B|360:180|309:218|339:70,1,263.193986667005,4|0,0:2|0:0,0:0:0:0:
256,192,71097,12,0,72246,0:0:0:0:
5,77,72440,6,0,P|54:50|141:38,1,130,4|0,1:1|3:0,0:0:0:0:
62,174,72730,5,0,3:0:0:0:
62,174,72827,2,0,P|117:175|199:208,1,130,8|0,1:2|3:3,0:0:0:0:
76,284,73117,5,0,3:0:0:0:
76,284,73214,2,0,P|123:312|166:367,1,65,0|0,1:0|0:0,0:0:0:0:
175,384,73407,5,2,0:0:0:0:
337,320,73601,1,10,1:2:0:0:
495,384,73794,2,0,P|448:369|410:368,1,65,0|0,3:0|0:0,0:0:0:0:
333,314,73988,6,0,P|328:222|335:136,1,130,4|0,1:1|3:0,0:0:0:0:
373,71,74278,1,0,3:3:0:0:
333,171,74375,2,0,B|422:155|400:198|502:189,1,170,8|0,1:2|0:0,0:0:0:0:
258,124,74762,6,0,P|270:59|239:-14,1,130,0|8,1:0|0:2,0:0:0:0:
30,182,75052,1,0,3:0:0:0:
30,182,75149,5,8,1:2:0:0:
171,31,75343,1,0,3:0:0:0:
385,75,75536,2,0,P|369:121|404:84,1,130,2|0,1:3|0:0,0:0:0:0:
507,305,75923,5,12,1:2:0:0:
366,154,76117,1,0,3:0:0:0:
152,198,76310,2,0,P|168:244|133:207,1,130,2|0,1:3|0:0,0:0:0:0:
426,280,76698,6,0,P|361:271|296:272,1,130,12|0,1:2|0:0,0:0:0:0:
127,383,77085,6,0,P|128:318|121:253,1,130,0|0,1:0|3:0,0:0:0:0:
118,174,77375,1,0,3:0:0:0:
28,279,77472,2,0,P|25:207|39:107,1,130,12|0,1:2|3:0,0:0:0:0:
176,13,77859,6,0,P|196:71|374:64,1,260,2|8,1:2|1:2,0:0:0:0:
366,74,78439,1,0,0:0:0:0:
186,132,78633,6,0,P|145:170|108:250,1,130,4|0,1:1|3:0,0:0:0:0:
261,214,78923,5,0,3:0:0:0:
261,214,79020,2,0,P|245:266|253:354,1,130,12|0,1:2|3:0,0:0:0:0:
362,259,79310,5,0,3:0:0:0:
362,259,79407,2,0,P|375:312|415:369,1,65,0|0,1:2|0:0,0:0:0:0:
428,384,79601,5,2,0:0:0:0:
246,338,79794,1,10,1:2:0:0:
186,132,79988,1,0,3:0:0:0:
385,177,80181,6,0,B|456:167|450:102|450:102|417:132|374:134,1,170,4|0,1:1|0:0,0:0:0:0:
508,215,80472,1,0,3:0:0:0:
508,215,80569,6,0,P|508:315|510:387,1,170,8|0,1:2|0:0,0:0:0:0:
290,194,80956,2,0,P|294:67|292:-5,1,195,0|0,1:0|0:0,0:0:0:0:
284,2,81343,6,0,P|236:35|197:45,1,65,8|0,1:2|0:0,0:0:0:0:
148,0,81536,1,0,1:0:0:0:
0,127,81730,6,0,P|116:125|150:229,1,195,0|0,1:0|0:0,0:0:0:0:
151,268,82117,2,0,B|171:329|171:329|179:244,1,130,8|0,1:2|3:0,0:0:0:0:
353,384,82407,1,0,3:0:0:0:
353,384,82504,6,0,P|413:313|505:328,1,195,0|0,1:0|0:0,0:0:0:0:
471,212,82891,2,0,P|407:206|346:184,1,130,8|0,1:2|0:0,0:0:0:0:
98,99,83278,6,0,P|190:88|289:120,1,195,4|0,1:1|0:0,0:0:0:0:
346,184,83665,2,0,P|407:163|380:76,1,130,8|0,1:2|1:0,0:0:0:0:
185,203,83956,1,0,1:0:0:0:
185,203,84052,5,0,1:0:0:0:
289,120,84246,1,0,1:0:0:0:
130,270,84439,6,0,P|53:283|-4:290,1,130,8|0,1:2|1:0,0:0:0:0:
450,352,84827,6,0,P|477:284|444:219,1,150,4|0,1:1|1:0,0:0:0:0:
391,286,85407,1,2,0:0:0:0:
382,106,85601,2,0,P|354:154|365:208,1,112.5,2|0,1:0|0:0,0:0:0:0:
353,209,85988,2,0,P|300:193|252:189,1,75.0000000000002,0|0,1:0|0:0,0:0:0:0:
115,219,86375,6,0,P|37:192|-1:112,1,150,2|0,1:2|1:0,0:0:0:0:
168,18,87052,1,0,0:0:0:0:
222,92,87149,6,0,P|149:128|64:99,1,150,2|0,1:0|1:0,0:0:0:0:
168,18,87730,1,0,0:0:0:0:
309,44,87923,6,0,B|295:139|319:109|304:219,1,150,2|0,1:2|1:0,0:0:0:0:
304,311,88504,1,0,0:0:0:0:
221,231,88698,2,0,P|216:296|221:368,1,112.5,2|0,1:0|0:0,0:0:0:0:
221,362,89085,2,0,P|179:344|123:344,1,75.0000000000002,2|0,1:2|0:0,0:0:0:0:
0,197,89472,5,8,1:0:0:0:
164,164,89665,1,8,0:0:0:0:
164,164,89762,1,8,0:0:0:0:
164,164,89859,1,8,1:0:0:0:
227,236,90052,5,8,0:0:0:0:
391,203,90246,2,0,P|430:140|487:120,1,112.5,8|0,1:0|0:0,0:0:0:0:
512,59,90633,2,0,P|503:92|505:137,1,75.0000000000002,2|0,1:3|0:0,0:0:0:0:
426,283,91020,5,2,1:1:0:0:
425,282,91407,2,0,P|433:331|441:381,1,100,4|0,1:3|0:0,0:0:0:0:
165,362,91794,5,0,1:0:0:0:
165,361,92181,2,0,P|116:369|67:377,1,100,4|0,1:3|0:0,0:0:0:0:
86,101,92569,5,8,1:1:0:0:
86,101,92956,2,0,P|78:52|71:3,1,100,4|0,1:3|0:0,0:0:0:0:
347,22,93343,5,0,1:0:0:0:
346,22,93730,2,0,P|395:14|445:7,1,100,4|0,1:3|0:0,0:0:0:0:
248,106,94117,6,0,P|241:38|262:-2,1,112.5,8|0,1:2|0:2,0:0:0:0:
427,16,94504,2,0,P|434:84|421:111,1,75.0000000000002,8|0,1:1|3:0,0:0:0:0:
399,173,94794,1,0,3:0:0:0:
399,173,94891,6,0,L|510:164,1,100,2|0,1:1|0:0,0:0:0:0:
232,290,95278,2,0,L|184:390,1,100,0|0,1:0|0:0,0:0:0:0:
214,86,95665,2,0,L|150:-5,1,100,12|8,1:3|0:3,0:0:0:0:
108,200,95956,1,8,0:3:0:0:
108,200,96052,6,0,L|219:191,1,100,8|8,1:3|0:3,0:0:0:0:
382,324,96439,2,0,L|318:232,1,100,8|10,1:3|0:3,0:0:0:0:
353,24,96827,2,0,L|305:124,1,100,10|8,1:3|0:3,0:0:0:0:
125,316,97214,6,0,P|107:243|112:162,1,120,4|2,1:1|0:3,0:0:0:0:
153,135,97504,1,0,3:3:0:0:
149,88,97601,1,0,1:3:0:0:
231,204,97794,1,2,0:3:0:0:
310,114,97988,6,0,P|312:194|291:317,1,180,2|0,1:2|0:0,0:0:0:0:
270,367,98375,1,0,1:0:0:0:
391,239,98569,2,0,P|402:289|412:335,1,60,2|0,0:3|0:0,0:0:0:0:
212,283,98762,6,0,P|136:283|38:287,1,120,2|0,1:2|0:0,0:0:0:0:
300,101,99149,2,0,P|376:101|474:97,1,120,2|0,1:3|0:0,0:0:0:0:
121,145,99536,6,0,P|110:95|100:49,1,60,2|0,1:3|0:0,0:0:0:0:
153,17,99730,1,2,3:2:0:0:
294,112,99923,2,0,P|388:128|468:44,1,180,2|0,1:3|0:0,0:0:0:0:
341,216,100310,6,0,P|336:299|344:368,1,120,4|2,1:1|0:3,0:0:0:0:
433,384,100601,1,0,3:0:0:0:
464,348,100698,1,0,1:0:0:0:
212,275,100891,1,0,3:3:0:0:
345,344,101085,6,0,P|351:216|338:133,1,180,2|0,1:2|0:0,0:0:0:0:
433,2,101472,2,0,P|458:62|467:126,1,120,2|0,1:2|0:0,0:0:0:0:
366,69,101762,1,0,0:0:0:0:
358,52,101859,2,0,P|266:35|206:132,1,180,2|0,1:2|0:0,0:0:0:0:
177,190,102246,5,0,1:0:0:0:
18,146,102439,1,0,3:0:0:0:
140,19,102633,5,2,1:2:0:0:
182,202,102827,1,2,3:0:0:0:
5,158,103020,6,0,P|4:208|9:266,1,60,2|0,1:3|0:0,0:0:0:0:
64,284,103214,2,0,P|65:334|60:392,1,60,0|0,3:0|0:0,0:0:0:0:
239,378,103407,6,0,B|206:349|221:292|221:292|257:343,1,120,4|0,1:1|1:0,0:0:0:0:
272,235,103698,1,0,1:0:0:0:
289,160,103794,1,0,1:0:0:0:
244,369,103988,1,0,1:0:0:0:
74,358,104181,5,4,1:2:0:0:
433,274,104375,1,4,1:1:0:0:
273,6,104956,6,0,B|306:35|291:92|291:92|255:41,1,120,4|0,1:1|1:0,0:0:0:0:
240,149,105246,1,0,1:0:0:0:
223,224,105343,1,0,1:0:0:0:
268,15,105536,1,0,1:0:0:0:
79,110,105730,5,4,1:2:0:0:
438,26,105923,1,4,1:1:0:0:
40,181,106310,5,0,0:0:0:0:
65,308,106504,2,0,P|64:354|61:391,2,75.0000000000002,12|0|0,1:3|0:0|0:0,0:0:0:0:
62,297,107085,1,0,0:0:0:0:
263,332,107278,6,0,P|333:330|384:332,1,104.999996795654,8|0,1:2|0:0,0:0:0:0:
442,317,107665,2,0,P|395:318|354:318,1,75.0000000000002
220,203,108052,6,0,P|248:198|300:195,1,75.0000000000002,0|0,1:0|0:0,0:0:0:0:
476,155,108439,2,0,P|448:160|396:163,1,75.0000000000002
470,237,108827,6,0,P|482:185|470:143,1,85.0000000000003,0|0,1:0|0:0,0:0:0:0:
225,120,109214,2,0,P|213:172|225:214,1,85.0000000000003,0|0,1:0|0:0,0:0:0:0:
499,44,109601,6,0,P|435:36|285:55,1,195.000000000001,8|0,1:3|0:0,0:0:0:0:
173,0,110375,6,0,P|205:76|140:24,1,225.000000000001,2|0,1:1|0:0,0:0:0:0:
53,54,111149,6,0,B|24:165|91:124|62:246,1,180.000000000001,0|0,1:0|0:0,0:0:0:0:
65,228,112698,6,0,P|44:309|35:406,1,150,4|8,1:0|0:2,0:0:0:0:
266,184,112988,5,10,0:0:0:0:
266,184,113085,2,0,P|224:256|190:348,1,150,8|8,1:2|0:0,0:0:0:0:
500,191,113375,5,0,3:3:0:0:
500,191,113472,2,0,P|436:245|373:319,1,150,0|0,1:0|0:0,0:0:0:0:
383,307,113665,1,0,0:0:0:0:
512,384,113859,6,0,P|500:332|498:255,1,75,10|0,1:2|0:0,0:0:0:0:
435,128,114052,2,0,P|440:90|449:54,1,75,0|0,1:0|0:0,0:0:0:0:
257,193,114246,6,0,P|162:193|126:87,1,180,4|2,1:2|0:0,0:0:0:0:
167,11,114536,1,0,3:0:0:0:
167,11,114633,1,10,1:2:0:0:
6,239,114827,1,0,3:3:0:0:
9,67,115020,6,0,P|76:89|142:163,1,130,2|2,1:3|0:3,0:0:0:0:
324,73,115310,1,2,0:3:0:0:
324,73,115407,1,10,1:3:0:0:
187,310,115601,1,0,0:0:0:0:
391,257,115794,6,0,P|441:298|503:318,1,130,4|0,1:2|0:0,0:0:0:0:
314,384,116085,1,0,3:0:0:0:
314,384,116181,2,0,P|295:319|324:247,1,75,10|0,1:2|0:0,0:0:0:0:
512,233,116375,2,0,P|508:195|493:161,1,75,2|0,0:0|0:0,0:0:0:0:
385,253,116569,6,0,B|370:167|405:190|392:103,1,150,2|0,1:3|0:0,0:0:0:0:
423,28,116859,1,0,0:0:0:0:
423,28,116956,2,0,P|478:28|534:47,1,75,10|0,1:2|0:0,0:0:0:0:
310,126,117149,2,0,P|262:115|205:119,1,75,0|0,1:0|0:0,0:0:0:0:
0,154,117343,6,0,P|105:130|242:134,1,225,6|0,1:2|0:0,0:0:0:0:
104,20,117730,2,0,P|104:132|131:241,1,225,10|0,1:2|0:0,0:0:0:0:
23,383,118117,5,0,1:0:0:0:
425,331,118310,2,0,P|396:296|335:254,1,75,10|0,0:3|0:0,0:0:0:0:
499,147,118504,6,0,P|483:189|477:263,1,75,10|0,1:3|0:0,0:0:0:0:
182,383,118698,2,0,L|297:366,1,75,0|0,1:0|0:0,0:0:0:0:
395,187,118891,6,0,P|330:255|309:333,1,150,4|8,1:0|0:2,0:0:0:0:
52,262,119181,5,8,0:0:0:0:
52,262,119278,2,0,P|120:233|195:236,1,150,8|8,1:2|3:2,0:0:0:0:
168,24,119569,5,0,3:0:0:0:
168,24,119665,2,0,P|168:96|181:146,1,65,0|0,1:0|0:0,0:0:0:0:
37,264,119859,2,0,P|37:192|24:142,1,65,2|0,0:0|0:0,0:0:0:0:
19,112,120052,5,10,1:2:0:0:
224,154,120246,1,2,0:3:0:0:
347,0,120439,2,0,P|345:89|467:56,1,180,4|0,1:2|0:0,0:0:0:0:
501,158,120730,1,2,3:0:0:0:
501,158,120827,6,0,P|399:159|366:225,1,130,8|0,1:2|0:0,0:0:0:0:
19,102,121214,2,0,P|149:119|249:106,1,225,4|0,1:2|0:0,0:0:0:0:
244,114,121601,6,0,P|198:142|173:204,1,75,8|0,1:2|0:0,0:0:0:0:
311,338,121794,2,0,P|357:310|382:248,1,75,0|0,1:0|0:0,0:0:0:0:
72,244,121988,6,0,P|116:327|243:236,1,225,4|0,1:1|0:0,0:0:0:0:
342,92,122375,2,0,P|442:61|498:122,1,150,8|0,1:2|0:0,0:0:0:0:
496,316,122762,6,0,P|495:235|361:203,1,180,0|0,1:0|0:0,0:0:0:0:
332,90,123052,1,0,0:0:0:0:
331,90,123149,6,0,P|302:124|282:164,1,89.9999999999999,8|0,1:2|0:0,0:0:0:0:
72,244,123343,2,0,P|50:182|54:105,1,89.9999999999999,2|0,0:3|0:0,0:0:0:0:
78,0,123536,6,0,B|203:2|199:124|199:124|163:66|76:61,1,300,4|0,1:2|0:0,0:0:0:0:
51,148,124310,5,2,0:0:0:0:
76,287,124504,5,2,1:3:0:0:
0,384,124698,6,0,L|87:369,1,50,2|0,1:3|2:0,0:0:0:0:
90,281,124891,2,0,L|188:301,1,65,0|0,1:0|2:0,0:0:0:0:
324,384,125085,6,0,P|257:303|268:174,1,225,4|0,1:0|0:0,0:0:0:0:
377,315,125472,2,0,P|366:273|414:179,1,140,8|0,1:2|3:0,0:0:0:0:
459,303,125762,1,0,3:0:0:0:
459,303,125859,6,0,B|497:262|538:290|538:290|497:297|464:365,1,140,0|0,1:0|0:0,0:0:0:0:
298,185,126246,2,0,P|224:125|187:38,1,140,8|0,1:2|0:0,0:0:0:0:
219,3,126536,1,0,3:0:0:0:
283,60,126633,2,0,P|349:45|432:-15,1,140,0|0,1:0|0:0,0:0:0:0:
102,124,127020,2,0,P|95:64|-5:84,1,140,8|0,1:2|0:0,0:0:0:0:
56,356,127407,6,0,P|146:356|250:295,1,210,0|0,1:0|0:0,0:0:0:0:
249,285,127794,2,0,P|196:254|154:171,1,140,8|0,1:2|3:0,0:0:0:0:
168,100,128085,1,0,3:0:0:0:
249,132,128181,6,0,B|386:118|328:171|485:158,1,210,0|0,1:0|0:0,0:0:0:0:
462,159,128569,2,0,P|438:255|466:336,1,130,8|4,1:2|3:3,0:0:0:0:
352,135,128859,1,0,3:0:0:0:
352,134,128956,6,0,P|374:74|371:9,1,120,0|0,1:0|0:0,0:0:0:0:
452,236,129343,2,0,P|461:299|497:353,1,120,8|0,1:2|0:0,0:0:0:0:
249,285,129633,1,0,0:0:0:0:
249,285,129730,6,0,P|161:299|39:301,1,180,0|0,1:0|0:0,0:0:0:0:
17,226,130117,2,0,P|40:172|1:86,1,130,8|0,1:2|0:0,0:0:0:0:
228,0,130504,6,0,P|218:84|262:129,1,140,0|8,1:0|0:2,0:0:0:0:
300,52,130794,1,0,3:0:0:0:
300,52,130891,5,8,1:2:0:0:
453,21,131085,1,0,3:0:0:0:
252,135,131278,6,0,B|379:160|332:77|495:117,1,210,4|0,1:1|0:0,0:0:0:0:
464,113,131665,2,0,P|454:204|471:272,1,140,8|0,1:2|0:0,0:0:0:0:
219,302,132052,6,0,P|291:349|413:364,1,210,0|0,1:0|0:0,0:0:0:0:
419,360,132439,2,0,P|363:318|325:242,1,140,8|0,1:2|3:0,0:0:0:0:
256,217,132730,1,0,3:0:0:0:
216,296,132827,6,0,B|159:310|133:268|133:268|141:275|197:276,1,140,0|0,1:0|0:0,0:0:0:0:
61,384,133214,6,0,P|13:328|22:252,1,140,8|0,1:2|0:0,0:0:0:0:
175,110,133601,2,0,P|223:166|203:313,1,210,0|0,1:0|0:0,0:0:0:0:
112,162,133988,6,0,P|154:92|131:9,1,140,8|0,1:2|0:0,0:0:0:0:
424,18,134375,2,0,P|382:88|412:230,1,210,4|0,1:2|0:0,0:0:0:0:
404,226,134762,5,8,1:2:0:0:
512,384,134956,1,0,0:0:0:0:
499,242,135149,6,0,B|396:223|419:302|291:286,1,195,0|0,1:0|0:0,0:0:0:0:
200,341,135536,2,0,B|96:354|119:275|16:294,1,195,8|0,1:2|0:0,0:0:0:0:
81,278,135923,6,0,P|73:191|-6:183,1,130,0|0,1:0|3:0,0:0:0:0:
86,2,136214,1,0,1:0:0:0:
28,72,136310,6,0,P|150:62|172:-8,1,195,8|0,1:2|0:0,0:0:0:0:
272,88,136698,6,0,P|269:56|258:26,1,65,0|0,1:0|0:0,0:0:0:0:
350,24,136891,1,8,0:2:0:0:
508,203,137085,6,0,P|474:94|427:190,1,260,12|8,1:2|1:3,0:0:0:0:
416,168,137859,5,0,0:0:0:0:
259,273,138246,2,0,P|277:326|285:390,1,110.000000000001,8|0,0:2|0:0,0:0:0:0:
379,380,138827,1,0,0:0:0:0:
342,253,139020,6,0,P|317:195|308:131,2,110.000000000001,0|8|8,0:0|2:3|0:0,0:0:0:0:
133,339,140181,2,0,P|125:311|117:263,1,55.0000000000003,8|0,0:1|0:0,0:0:0:0:
0,254,140569,5,0,3:0:0:0:
187,225,140956,2,0,P|195:175|230:101,2,110.000000000001,0|8|0,0:0|0:2|0:0,0:0:0:0:
273,229,141923,1,0,0:0:0:0:
303,362,142117,2,0,B|321:290|401:273|474:309|443:369|364:321,2,220.142090047271,0|8|8,0:0|0:0|3:3,0:0:0:0:
303,362,144511,5,2,0:0:0:0:
259,275,145290,1,4,0:2:0:0:
310,204,145852,1,2,0:0:0:0:
310,204,145946,1,2,0:0:0:0:
310,204,146040,1,4,0:0:0:0:
258,130,146434,6,0,L|199:138,1,50,0|2,0:0|0:0,0:0:0:0:
172,65,146829,2,0,P|128:26|48:41,1,135,4|0,0:2|0:0,0:0:0:0:
6,105,147619,2,0,B|-5:153|25:184|25:184|43:155|29:128,1,130,2|0,0:0|0:0,0:0:0:0:
170,65,148154,1,2,0:0:0:0:
248,126,148334,6,0,P|244:190|247:256,1,127.50000243187,6|2,0:0|0:0,0:0:0:0:
254,158,148734,2,0,P|256:112|255:88,1,65,2|0,0:0|0:0,0:0:0:0:
342,202,149134,5,2,0:0:0:0:
143,139,149534,6,0,P|106:142|70:151,1,45,0|2,0:0|0:0,0:0:0:0:
0,192,149934,1,6,0:0:0:0:
143,245,150328,6,0,P|106:241|70:232,1,45.0000000000001,0|2,0:0|0:0,0:0:0:0:
0,192,150723,1,2,0:0:0:0:
368,139,151084,6,0,P|405:142|441:151,1,45,2|0,0:0|0:0,0:0:0:0:
512,192,151446,1,2,0:0:0:0:
367,244,151846,6,0,P|390:242|412:239,1,45,0|2,0:0|0:0,0:0:0:0:
512,192,152246,1,2,0:0:0:0:
255,183,152635,2,0,B|234:262|276:247|252:342,1,150
248,346,153025,6,0,P|185:351|146:301,1,127.50000243187,2|0,0:0|0:0,0:0:0:0:
261,346,153409,2,0,P|325:351|365:301,1,127.50000243187,2|0,0:0|0:0,0:0:0:0:
258,171,153794,6,0,P|262:80|258:3,1,150.000005722046,6|0,0:0|0:0,0:0:0:0:
223,95,154274,6,0,P|274:96|299:96,1,75,2|0,0:0|0:0,0:0:0:0:
511,110,154948,6,0,B|415:77|221:168|318:337|429:265|395:171|363:178,1,360,0|4,0:0|0:2,0:0:0:0:
512,192,157621,5,12,3:3:0:0:
7,210,159150,5,0,3:2:0:0:
34,328,159343,1,2,3:2:0:0:
102,260,159537,1,0,3:2:0:0:
131,377,159730,1,2,3:2:0:0:
381,377,159924,5,0,3:2:0:0:
410,260,160117,1,2,3:2:0:0:
478,328,160311,1,0,3:2:0:0:
505,210,160504,1,2,3:2:0:0:
257,317,160698,6,2,B|292:181|181:247|235:58,1,225,4|0,1:0|0:0,0:1:0:0:
278,29,161085,2,2,P|321:64|367:60,1,75,8|0,1:1|0:0,0:1:0:0:
399,124,161278,1,2,0:1:0:0:
105,202,161472,6,0,L|123:87,1,75,0|0,1:0|0:0,0:0:0:0:
53,19,161665,2,2,P|167:22|177:166,1,225,2|0,0:1|0:0,0:1:0:0:
121,121,162052,2,0,P|61:129|2:143,1,75,2|0,0:1|0:0,0:0:0:0:
370,185,162246,6,2,P|275:193|138:201,1,225,4|0,1:2|0:0,0:1:0:0:
394,268,162633,6,2,P|454:260|513:246,1,75,8|0,1:0|0:0,0:1:0:0:
500,77,162827,1,2,0:1:0:0:
316,288,163020,5,0,1:1:0:0:
278,29,163214,2,2,P|199:6|108:106,1,225,8|0,0:1|0:0,0:1:0:0:
39,162,163601,1,0,0:0:0:0:
35,364,163794,6,2,P|124:336|140:224,1,150,4|2,1:1|0:1,0:1:0:0:
230,262,164085,1,0,0:0:0:0:
237,344,164181,2,2,L|336:362,1,75,8|0,1:1|0:0,0:0:0:0:
512,377,164375,1,2,0:1:0:0:
321,359,164568,6,2,L|312:293,2,50,2|0|0,1:1|2:1|0:1,0:0:0:0:
401,321,164762,1,2,0:1:0:0:
505,109,164956,1,8,1:1:0:0:
340,158,165149,2,2,B|321:100|350:39|350:39|281:50|270:93|270:93|253:64|253:64|165:48,1,300,0|2,0:0|0:1,0:1:0:0:
147,109,165536,6,2,L|41:126,1,75,0|0,0:1|0:0,0:1:0:0:
0,0,165730,1,10,1:1:0:0:
125,198,165923,6,2,L|192:281,1,75,0|0,0:0|0:0,0:1:0:0:
104,379,166117,1,0,1:0:0:0:
213,171,166310,6,2,L|251:70,1,75,8|0,0:1|0:0,0:1:0:0:
118,360,166504,6,2,B|285:382|213:235|403:269,1,300,10|4,1:0|1:0,0:1:0:0:
422,351,166988,1,0,0:0:0:0:
422,351,167085,6,2,P|476:378|548:363,1,75,0|0,0:0|0:0,0:1:0:0:
386,169,167278,6,2,P|355:115|383:26,2,99.9999999999999,8|0|2,1:1|2:0|0:1,0:0:0:0:
449,92,167665,5,0,1:0:0:0:
290,242,167794,2,2,P|352:242|415:310,1,99.9999999999999,2|0,0:1|0:0,0:1:0:0:
318,334,168052,5,10,1:1:0:0:
274,122,168181,2,2,P|242:175|151:196,1,99.9999999999999,0|0,0:1|0:0,0:1:0:0:
449,92,168439,6,0,P|480:38|571:17,1,99.9999999999999,2|0,1:1|0:0,0:0:0:0:
183,97,168697,1,2,0:1:0:0:
289,242,168827,2,0,P|256:300|143:329,1,150,8|2,1:1|0:1,0:0:0:0:
0,206,169214,5,2,1:1:0:0:
0,206,169310,2,2,P|64:219|164:258,1,150,0|0,0:0|0:0,0:1:0:0:
347,339,169601,2,2,P|419:329|523:286,1,150,8|0,1:0|0:0,0:1:0:0:
497,296,169891,1,0,0:0:0:0:
512,217,169988,5,4,1:2:0:0:
363,126,170181,6,2,L|433:99,1,75,0|0,0:0|0:0,0:1:0:0:
148,257,170375,2,2,L|79:285,1,75,8|0,1:0|0:0,0:1:0:0:
240,284,170568,6,2,L|229:358,1,75,0|0,0:0|0:0,0:1:0:0:
282,25,170762,2,2,L|272:100,1,75,0|0,1:0|0:0,0:1:0:0:
363,249,170956,6,2,L|274:190,1,75,10|0,0:1|0:0,0:1:0:0:
149,135,171149,2,2,L|238:194,1,75,8|0,1:1|0:0,0:1:0:0:
242,275,171343,1,2,0:1:0:0:
2,24,171536,6,2,B|325:-16|166:99|513:68,1,520.000000000003,4|12,1:1|0:0,0:1:0:0:
5,384,184117,6,0,P|-1:333|1:298,1,50,8|0,0:2|0:0,0:0:0:0:
163,318,184310,6,0,L|159:268,1,50,8|0,0:2|0:0,0:0:0:0:
334,354,184504,6,0,P|336:328|335:293,1,50,8|0,0:2|0:0,0:0:0:0:
508,192,184697,6,0,P|499:291|480:384,1,195,6|0,0:3|0:0,0:0:0:0:
345,365,185085,2,0,P|354:266|373:173,1,195,2|0,0:3|0:0,0:0:0:0:
512,9,185472,6,0,P|463:76|395:101,1,130,4|0,1:1|0:0,0:0:0:0:
206,52,185859,2,0,P|288:60|352:26,1,130,0|0,1:0|0:0,0:0:0:0:
276,147,186246,6,0,P|197:173|127:155,1,130,0|0,1:0|0:0,0:0:0:0:
0,5,186633,2,0,P|62:58|134:67,1,130,0|0,1:0|0:0,0:0:0:0:
2,130,186923,1,0,0:0:0:0:
2,130,187020,6,0,P|5:204|5:298,1,150,0|0,1:0|0:0,0:0:0:0:
5,293,187407,6,0,B|57:202|157:231|157:231|184:295,1,225,2|0,1:3|0:0,0:0:0:0:
419,306,187794,2,0,B|367:397|267:368|267:368|240:304,1,225,2|0,1:3|0:0,0:0:0:0:
163,200,188181,2,0,P|175:155|179:103,1,75.0000000000002,2|0,1:2|1:0,0:0:0:0:
445,0,188568,6,0,P|451:69|527:121,1,130,4|0,1:1|0:0,0:0:0:0:
359,73,188956,2,0,P|335:138|382:217,1,130,0|0,1:0|0:0,0:0:0:0:
512,245,189343,6,0,P|463:189|353:205,1,195,0|0,1:0|0:0,0:0:0:0:
309,276,189730,1,0,1:0:0:0:
458,313,189923,2,0,L|363:298,1,65
251,335,190117,6,0,P|177:327|121:351,1,100,0|0,1:0|0:0,0:0:0:0:
330,382,190504,6,0,P|348:283|270:155,1,225,2|0,1:3|0:0,0:0:0:0:
336,26,190891,2,0,P|392:44|427:73,1,75,6|0,1:2|0:0,0:0:0:0:
472,0,191085,1,2,1:3:0:0:
270,91,191278,2,0,B|155:95|121:-3|184:-45|238:-15|214:40|192:58,1,225,2|0,1:3|0:0,0:0:0:0:
14,291,191665,6,0,P|11:206|-4:149,1,130,4|0,1:1|0:0,0:0:0:0:
104,255,191907,1,0,1:0:0:0:
99,174,192004,5,0,1:0:0:0:
184,299,192197,2,0,P|203:255|209:212,1,65,0|0,1:0|0:0,0:0:0:0:
0,153,192439,5,4,1:1:0:0:
338,247,192633,1,0,1:0:0:0:
314,40,193214,6,0,P|278:77|272:105,1,65,4|0,1:1|0:0,0:0:0:0:
348,184,193407,2,0,P|335:234|344:261,1,65,0|0,1:0|1:0,0:0:0:0:
390,74,193601,5,0,1:0:0:0:
431,210,193794,1,0,1:0:0:0:
174,137,193988,5,4,1:1:0:0:
512,231,194181,1,0,1:0:0:0:
224,384,194568,2,0,P|323:346|407:364,1,150,2|4,0:0|1:1,0:0:0:0:
512,231,194859,5,0,3:0:0:0:
512,231,194956,2,0,P|413:269|329:251,1,150,2|0,0:0|0:0,0:0:0:0:
371,265,195343,1,0,1:0:0:0:
254,160,195536,6,0,L|284:52,1,75,4|0,1:1|0:0,0:0:0:0:
29,68,195730,1,0,1:0:0:0:
249,169,196117,5,0,1:0:0:0:
96,239,196310,6,0,P|89:314|107:386,1,150,4|0,1:1|0:0,0:0:0:0:
416,144,196697,2,0,P|421:53|392:-28,1,150,4|0,1:2|0:0,0:0:0:0:
304,352,197085,2,0,P|395:357|476:328,1,150,4|0,1:1|0:0,0:0:0:0:
208,32,197472,2,0,P|133:25|61:43,1,150,4|0,1:2|0:0,0:0:0:0:
5,104,197762,1,0,0:0:0:0:
5,104,197859,6,0,P|29:145|40:184,1,75.0000000000002,4|0,1:1|0:0,0:0:0:0:
35,252,198246,5,0,1:0:0:0:
32,263,198633,5,0,1:0:0:0:
29,272,199020,6,0,L|82:259,1,45.0000000000002,0|0,1:0|0:0,0:0:0:0:
151,266,199310,1,0,0:0:0:0:
219,305,199407,2,0,B|392:270|320:403|526:372,1,300.000000000001,4|0,1:1|0:0,0:0:0:0:
497,375,200956,6,0,P|385:362|303:371,1,150,4|8,1:1|0:0,0:0:0:0:
34,277,201246,5,8,0:0:0:0:
34,277,201343,2,0,P|145:264|228:273,1,150,8|8,1:2|3:2,0:0:0:0:
408,183,201633,5,0,3:3:0:0:
408,183,201730,2,0,P|296:170|214:179,1,150,2|0,1:2|0:0,0:0:0:0:
247,173,201923,2,0,P|240:121|254:30,1,100,2|0,0:3|0:0,0:0:0:0:
259,350,202117,5,10,1:2:0:0:
75,160,202310,2,0,L|61:266,1,75,0|0,3:3|0:0,0:0:0:0:
0,384,202504,6,0,B|58:379|78:326|78:326|23:335|4:380,1,179.999994506836,4|0,1:1|3:3,0:0:0:0:
75,160,202794,1,0,3:3:0:0:
75,160,202891,2,0,P|67:94|0:32,1,150,8|0,1:2|3:0,0:0:0:0:
160,360,203278,6,0,P|220:277|335:289,1,195,4|0,1:2|0:0,0:0:0:0:
384,309,203665,6,0,L|464:291,1,65,10|0,1:2|0:0,0:0:0:0:
79,383,203859,1,0,1:0:0:0:
311,278,204052,6,0,P|283:201|230:175,1,130,4|0,1:1|3:0,0:0:0:0:
24,143,204343,1,0,3:0:0:0:
24,143,204439,6,0,P|38:186|77:213,1,75,8|0,1:2|0:0,0:0:0:0:
222,266,204633,1,0,3:0:0:0:
33,59,204827,6,0,P|83:17|197:45,1,150,2|0,1:3|0:0,0:0:0:0:
425,23,205214,6,0,P|385:31|314:51,1,75,8|0,1:2|0:0,0:0:0:0:
150,111,205407,2,0,P|190:103|261:83,1,75,0|0,1:0|0:0,0:0:0:0:
449,0,205601,6,0,B|461:130|416:70|437:247,1,200,4|0,1:1|3:0,0:0:0:0:
274,313,205891,1,2,3:3:0:0:
354,233,205988,2,0,P|358:323|349:398,1,150,10|0,1:2|0:0,0:0:0:0:
58,159,206375,2,0,P|53:84|59:15,1,112.500004291535,4|0,1:3|0:0,0:0:0:0:
56,37,206568,6,0,P|29:67|-21:90,1,75,2|0,1:3|0:0,0:0:0:0:
245,198,206762,2,0,P|232:159|237:104,1,75,2|0,1:3|0:0,0:0:0:0:
0,292,206956,2,0,P|39:300|84:332,1,75,0|0,1:0|0:0,0:0:0:0:
216,297,207149,6,0,P|116:317|47:405,1,180,4|8,1:1|0:0,0:0:0:0:
331,238,207439,5,8,0:0:0:0:
331,238,207536,2,0,P|254:305|238:416,1,180,8|8,1:2|3:2,0:0:0:0:
401,129,207827,5,0,3:0:0:0:
401,129,207923,2,0,P|368:225|410:329,1,160,4|0,1:2|0:0,0:0:0:0:
398,306,208117,6,0,L|502:320,1,75,2|0,0:0|0:0,0:0:0:0:
216,208,208310,2,0,L|142:198,1,75,10|0,1:2|0:0,0:0:0:0:
393,47,208504,2,0,P|408:98|405:138,1,75,0|0,1:0|0:0,0:0:0:0:
135,197,208697,6,0,P|161:107|176:-4,1,180,4|0,1:1|3:0,0:0:0:0:
85,44,208988,1,2,3:0:0:0:
39,198,209085,2,0,P|13:108|-2:-3,1,180,8|0,1:2|3:0,0:0:0:0:
0,384,209472,6,0,P|65:309|261:315,1,270,4|0,1:2|0:0,0:0:0:0:
281,360,209859,6,0,L|390:372,1,89.9999999999999,8|0,1:2|0:0,0:0:0:0:
466,146,210052,2,0,L|348:133,1,89.9999999999999,0|0,1:0|0:0,0:0:0:0:
216,183,210246,6,0,B|149:213|102:154|102:154|146:174|209:131,1,180,4|0,1:1|0:0,0:0:0:0:
449,2,210633,2,0,P|504:79|446:182,1,180,8|0,1:2|0:0,0:0:0:0:
86,160,211020,6,0,P|93:49|239:90,1,270,0|0,1:0|0:0,0:0:0:0:
250,137,211407,6,0,L|235:225,1,75,8|0,1:2|0:0,0:0:0:0:
190,384,211601,2,0,L|201:309,1,75,0|0,1:0|0:0,0:0:0:0:
19,179,211794,6,0,B|152:152|95:257|287:215,1,225,4|0,1:2|0:0,0:0:0:0:
281,292,212181,2,0,P|361:252|463:249,1,150,8|0,1:2|3:0,0:0:0:0:
495,382,212472,1,0,3:0:0:0:
495,382,212568,6,0,P|429:356|333:358,1,150,0|0,1:0|3:0,0:0:0:0:
267,192,212859,1,0,3:0:0:0:
267,192,212956,2,0,P|209:239|171:304,1,150,8|0,1:2|0:0,0:0:0:0:
11,40,213343,6,0,P|175:107|0:129,1,480,12|0,1:3|0:0,0:0:0:0:
87,96,224956,6,0,B|69:236|101:182|86:346,1,225.000000000001,2|0,0:0|0:0,0:0:0:0:
6,328,225633,1,0,0:0:0:0:
6,328,225730,2,0,P|90:373|181:352,1,180,4|0,0:0|0:0,0:0:0:0:
312,275,226504,2,0,P|354:258|441:263,1,120,8|0,0:0|0:0,0:0:0:0:
501,337,227085,2,0,L|454:330,1,29.9999999999999,2|0,0:0|0:0,0:0:0:0:
391,358,227278,6,0,P|335:369|227:289,1,180,4|0,0:0|0:0,0:0:0:0:
199,131,228052,2,0,P|227:63|286:27,1,120,8|0,0:0|0:0,0:0:0:0:
159,230,228827,6,0,P|98:166|96:57,1,180,4|0,0:0|0:0,0:0:0:0:
83,218,229601,2,0,P|66:290|20:342,1,120,8|0,0:0|0:0,0:0:0:0:
39,326,230375,5,2,0:0:0:0:
143,364,230568,1,0,3:0:0:0:
218,284,230762,2,0,L|283:268,1,59.9999999999999,0|0,3:0|0:0,0:0:0:0:
361,335,231149,2,0,P|432:350|501:380,1,120,8|0,0:0|0:0,0:0:0:0:
498,279,231730,1,2,0:0:0:0:
449,210,231923,6,0,P|449:157|451:75,1,120,8|0,0:3|0:0,0:0:0:0:
63,15,232697,2,0,P|63:68|61:150,1,120,8|0,0:0|0:0,0:0:0:0:
302,195,233278,1,2,0:0:0:0:
363,137,233472,6,0,B|366:60|344:88|353:-6,1,120,4|0,0:0|0:0,0:0:0:0:
58,146,234246,2,0,B|60:202|44:181|50:250,1,89.9999999999998,8|0,0:0|0:0,0:0:0:0:
52,245,234633,2,0,B|90:262|90:262|49:278,1,80,2|0,0:0|0:0,0:0:0:0:
0,384,235020,6,0,P|110:355|419:350,1,400,4|0,0:3|0:0,0:0:0:0:
474,315,236181,2,0,P|483:256|479:218,1,80,2|0,0:0|0:0,0:0:0:0:
464,83,236568,5,2,2:2:0:0:
367,101,236762,5,2,1:3:0:0:
290,35,236956,5,2,1:3:0:0:
213,91,237149,5,2,1:3:0:0:
120,62,237343,6,0,B|91:78|60:68|65:62|27:49|-3:66,1,120,2|8,1:3|0:0,0:0:0:0:
147,141,237633,1,8,0:0:0:0:
213,91,237730,2,0,P|213:72|214:63,1,25.0000000000002,0|0,3:0|0:0,0:0:0:0:
512,359,238117,6,0,P|423:370|362:386,1,150,4|2,1:1|0:0,0:0:0:0:
331,174,238407,5,2,0:0:0:0:
331,174,238504,2,0,P|269:239|233:291,1,150,2|2,3:3|0:0,0:0:0:0:
54,152,238794,5,0,2:0:0:0:
54,152,238891,2,0,P|49:241|55:306,1,150,4|0,3:3|0:0,0:0:0:0:
61,315,239085,6,0,P|79:269|112:233,1,75,8|0,2:2|0:0,0:0:0:0:
78,8,239278,1,2,3:3:0:0:
327,165,239472,2,0,P|278:172|230:161,1,75,8|0,2:2|0:0,0:0:0:0:
155,50,239665,6,0,P|218:66|322:80,1,150,0|2,1:1|0:0,0:0:0:0:
463,209,239956,5,2,0:0:0:0:
463,209,240052,2,0,P|479:146|493:42,1,150,10|2,3:3|0:0,0:0:0:0:
294,356,240343,5,0,2:0:0:0:
294,356,240439,2,0,P|361:361|461:386,1,150,8|0,3:1|0:0,0:0:0:0:
451,377,240633,6,0,P|422:329|414:283,1,75,8|0,2:2|0:0,0:0:0:0:
235,43,240827,2,0,P|261:17|294:-1,1,75,2|0,3:3|0:0,0:0:0:0:
309,236,241020,2,0,P|312:199|325:164,1,75,8|0,2:2|0:0,0:0:0:0:
0,64,241214,6,0,P|79:60|140:137,1,150,4|2,1:2|0:0,0:0:0:0:
186,321,241504,5,2,0:0:0:0:
186,321,241601,2,0,P|253:350|319:320,1,150,2|2,3:3|0:0,0:0:0:0:
382,104,241891,5,0,2:0:0:0:
382,104,241988,2,0,P|438:57|511:63,1,150,4|0,3:3|0:0,0:0:0:0:
511,63,242181,6,0,P|504:110|504:153,1,75,8|0,2:2|0:0,0:0:0:0:
256,265,242375,2,0,L|256:169,1,75,2|0,3:3|0:0,0:0:0:0:
1,62,242568,2,0,P|8:109|8:152,1,75,8|0,2:2|0:0,0:0:0:0:
0,384,242762,6,0,P|26:246|199:227,1,300,8|0,1:3|0:0,0:0:0:0:
509,255,243149,2,0,B|395:243|398:135|398:135|436:198|495:198,1,300,2|0,3:3|0:0,0:0:0:0:
434,51,243536,6,0,P|385:44|314:87,1,100,2|0,3:1|0:0,0:0:0:0:
114,21,243730,1,2,2:3:0:0:
78,333,243923,2,0,P|127:340|198:297,1,100,10|0,3:3|0:0,0:0:0:0:
397,370,244117,2,0,P|404:321|361:250,1,100,8|8,3:2|3:2,0:0:0:0:
17,192,244310,6,0,P|126:178|195:262,1,200,4|8,1:1|0:0,0:0:0:0:
283,194,244601,1,8,0:0:0:0:
314,333,244697,6,0,P|371:287|359:155,1,200,2|2,3:3|0:0,0:0:0:0:
502,222,244988,1,2,0:0:0:0:
437,383,245085,6,0,P|474:385|511:376,1,75,8|0,3:3|0:0,0:0:0:0:
482,136,245278,1,8,2:2:0:0:
358,163,245472,6,0,P|385:137|403:105,1,75,2|0,3:3|0:0,0:0:0:0:
165,38,245665,1,8,2:2:0:0:
16,198,245859,6,0,B|98:214|77:161|176:182,1,150,0|8,1:1|0:0,0:0:0:0:
49,372,246149,1,8,0:0:0:0:
49,372,246246,6,0,P|9:325|16:264,1,75,10|0,3:3|0:0,0:0:0:0:
122,96,246439,2,0,P|162:49|155:-12,1,75,2|0,0:0|0:0,0:0:0:0:
364,122,246633,6,0,B|344:62|285:50|285:50|328:21|405:66,1,200,2|0,3:1|2:2,0:0:0:0:
461,146,246923,1,0,0:0:0:0:
463,136,247020,6,0,P|469:69|423:16,1,100,2|0,3:3|0:0,0:0:0:0:
248,66,247214,2,0,P|242:133|288:186,1,100,8|0,2:2|0:0,0:0:0:0:
161,366,247407,6,0,P|107:274|0:271,1,225,4|8,1:3|0:0,0:0:0:0:
263,164,247794,2,0,P|332:138|368:74,1,150,2|2,3:3|0:0,0:0:0:0:
322,382,248181,6,0,P|335:242|438:256,1,200,8|8,3:3|2:2,0:0:0:0:
510,299,248472,1,2,0:0:0:0:
510,299,248568,6,0,P|450:297|379:288,1,75,2|0,3:3|0:0,0:0:0:0:
296,242,248762,2,0,P|333:240|370:239,1,75,8|0,2:2|0:0,0:0:0:0:
117,87,248956,6,0,P|29:119|47:28,1,225,8|8,1:1|0:0,0:0:0:0:
129,0,249343,1,2,3:3:0:0:
151,247,249536,1,2,0:0:0:0:
146,266,249633,1,2,0:0:0:0:
138,285,249730,6,0,P|77:345|-33:345,1,150,0|2,3:1|2:3,0:0:0:0:
206,75,250020,1,0,0:0:0:0:
206,75,250117,2,0,P|266:14|377:14,1,150,10|8,3:3|3:2,0:0:0:0:
504,240,250504,6,0,P|483:290|462:411,1,150,4|0,1:0|0:0,0:0:0:0:
424,203,250891,2,0,P|390:245|339:357,1,150,8|0,1:2|3:0,0:0:0:0:
354,143,251181,1,0,3:0:0:0:
354,143,251278,2,0,P|310:175|232:270,1,150,0|0,1:0|0:2,0:0:0:0:
436,113,251665,5,8,1:2:0:0:
246,246,251859,1,0,1:0:0:0:
15,215,252052,6,0,L|163:196,1,130,4|0,1:2|0:0,0:0:0:0:
246,246,252439,2,0,P|249:320|281:387,1,130,8|0,1:2|3:0,0:0:0:0:
424,203,252730,1,0,3:0:0:0:
424,203,252827,2,0,P|443:141|483:90,1,130,0|8,1:2|0:2,0:0:0:0:
298,73,253117,1,0,0:0:0:0:
298,73,253214,6,0,P|260:20|320:63,1,195,8|0,1:2|0:0,0:0:0:0:
138,245,253601,6,0,P|71:228|-18:225,1,130,4|0,1:1|0:0,0:0:0:0:
212,198,253988,2,0,P|230:264|272:343,1,130,8|0,1:2|0:0,0:0:0:0:
131,155,254375,2,0,P|179:105|226:29,1,130,0|0,1:0|3:0,0:0:0:0:
362,129,254665,1,0,3:0:0:0:
362,129,254762,6,0,P|366:78|356:-5,1,130,8|0,1:2|0:0,0:0:0:0:
512,297,255149,6,0,P|446:279|373:378,1,195,4|0,1:2|0:0,0:0:0:0:
375,375,255536,2,0,P|310:357|215:354,1,130,8|0,1:2|0:0,0:0:0:0:
113,315,255827,1,0,0:0:0:0:
113,315,255923,6,0,P|67:367|-34:379,1,130,0|8,1:2|0:2,0:0:0:0:
94,193,256310,1,8,1:2:0:0:
5,297,256504,1,0,1:0:0:0:
271,148,256697,6,0,B|254:215|179:203|179:203|234:182|230:128,1,195,4|0,1:0|0:0,0:0:0:0:
166,95,257085,2,0,P|96:89|-1:107,1,130,8|0,1:2|3:0,0:0:0:0:
84,3,257375,1,0,3:0:0:0:
156,53,257472,6,0,P|226:59|323:41,1,130,0|0,1:0|0:0,0:0:0:0:
420,3,257859,5,8,1:2:0:0:
512,70,258052,1,0,3:0:0:0:
412,233,258246,6,0,B|397:191|426:133|426:133|426:180|459:221,1,195,4|0,1:2|0:0,0:0:0:0:
462,300,258633,1,8,1:2:0:0:
306,362,258827,5,0,3:0:0:0:
301,283,258923,1,0,3:0:0:0:
303,205,259020,2,0,P|312:117|301:-3,1,195,0|0,1:0|0:0,0:0:0:0:
303,0,259407,2,0,P|294:87|301:181,1,130,8|0,1:2|1:0,0:0:0:0:
214,218,259794,6,0,B|107:193|139:277|-10:242,1,195,4|0,1:1|0:0,0:0:0:0:
18,247,260181,2,0,P|65:175|11:97,1,130,8|0,1:2|0:0,0:0:0:0:
263,352,260568,6,0,P|190:386|95:343,1,130,0|0,1:0|3:0,0:0:0:0:
223,228,260859,1,0,3:0:0:0:
175,298,260956,2,0,P|180:213|171:126,1,130,8|0,1:2|0:0,0:0:0:0:
181,27,261246,1,0,0:0:0:0:
181,27,261343,6,0,P|302:15|324:110,1,195,4|0,1:2|0:0,0:0:0:0:
383,222,261730,2,0,P|436:204|518:196,1,130,8|0,1:2|0:0,0:0:0:0:
478,34,262117,5,0,1:0:0:0:
296,161,262310,5,8,0:2:0:0:
240,102,262407,1,0,3:0:0:0:
205,28,262504,1,8,1:2:0:0:
88,67,262697,5,0,3:0:0:0:
88,67,262762,1,0,3:0:0:0:
88,67,262827,1,0,3:0:0:0:
88,67,262891,6,0,B|34:76|17:9|17:9|60:45|83:45,1,180,14|0,3:2|0:0,0:0:0:0:
227,82,264246,1,0,0:0:0:0:
218,164,264343,1,0,0:0:0:0:
152,210,264439,6,0,B|95:256|31:190|31:190|104:203|131:187,1,240,4|0,0:2|0:0,0:0:0:0:
161,311,265407,1,2,0:0:0:0:
230,175,265601,1,2,0:0:0:0:
397,198,265794,2,0,L|403:243,1,29.9999999999999,0|0,2:3|0:0,0:0:0:0:
392,312,265989,6,0,B|355:409|228:374|228:374|328:337|347:306,1,336.000004101563,4|4,0:3|0:3,0:0:0:0:
256,192,270824,12,0,273704,0:0:0:0:
